999
DXF file: st-htxp.dxf
999
Pro/ENGINEER 2021184 by Parametric Technology Corporation
  0
SECTION
  2
HEADER
  9
$ACADVER
  1
AC1018
  9
$DWGCODEPAGE
  3
ANSI_1252
  9
$EXTMAX
 10
210.0
 20
297.0
 30
0.0
  9
$EXTMIN
 10
0.0
 20
0.0
 30
0.0
  9
$LIMMIN
 10
0.0
 20
0.0
  9
$LIMMAX
 10
210.0
 20
297.0
  9
$VIEWCTR
 10
105.0
 20
148.5
  9
$VIEWSIZE
 40
297.0
  9
$CLAYER
  8
0
  9
$LTSCALE
 40
19.36
  9
$CELTYPE
  6
BYLAYER
  9
$DIMSCALE
 40
1.0
  9
$DIMASZ
 40
3.5
  9
$DIMEXO
 40
0.0
  9
$DIMDLI
 40
13.376
  9
$DIMEXE
 40
1.5
  9
$DIMCEN
 40
3.168
  9
$DIMLFAC
 40
1.0
  9
$DIMBLK
  1
_FILLED
  9
$DIMALT
 70
1
  9
$DIMALTD
 70
2
  9
$DIMALTTD
 70
2
  9
$DIMALTF
 40
0.0393700787
  9
$DIMTXT
 40
3.5
  9
$DIMTOL
 70
1
  9
$DIMLIM
 70
0
  9
$DIMTFAC
 40
1.0
  9
$DIMTP
 40
0.005
  9
$DIMTM
 40
0.005
  9
$DIMGAP
 40
0.625
  9
$DIMDSEP
 70
46
  9
$AUNITS
 70
0
  9
$PDMODE
 70
3
  9
$PDSIZE
 40
0.3125
  9
$HANDSEED
  5
531
  9
$TILEMODE
 70
1
  9
$MEASUREMENT
 70
1
  9
$INSUNITS
 70
4
  0
ENDSEC
  0
SECTION
  2
CLASSES
  0
CLASS
  1
ACDBDICTIONARYWDFLT
  2
AcDbDictionaryWithDefault
  3
AutoCAD 2000
 90
0
 91
1
280
0
281
0
  0
CLASS
  1
ACDBPLACEHOLDER
  2
AcDbPlaceHolder
  3
AutoCAD 2000
 90
0
 91
1
280
0
281
0
  0
CLASS
  1
LAYOUT
  2
AcDbLayout
  3
AutoCAD 2000
 90
0
 91
0
280
0
281
0
  0
CLASS
  1
TABLESTYLE
  2
AcDbTableStyle
  3
ObjectDBX Classes
 90
2047
 91
1
280
0
281
0
  0
CLASS
  1
ACAD_TABLE
  2
AcDbTable
  3
ObjectDBX Classes
 90
1025
 91
1
280
0
281
1
  0
ENDSEC
  0
SECTION
  2
TABLES
  0
TABLE
  2
VPORT
  5
8
100
AcDbSymbolTable
 70
2
  0
VPORT
  5
1F4
100
AcDbSymbolTableRecord
100
AcDbViewportTableRecord
  2
*ACTIVE
 70
0
 10
0.0
 20
0.0
 11
1.0
 21
1.0
 12
105.0
 22
148.5
 13
0.0
 23
0.0
 14
1.0
 24
1.0
 15
0.0
 25
0.0
 16
0.0
 26
0.0
 36
1.0
 17
0.0
 27
0.0
 37
0.0
 40
297.0
 41
0.7070707071
 42
50.0
 43
0.0
 44
0.0
 50
0.0
 51
0.0
 71
0
 72
100
 73
1
 74
1
 75
0
 76
0
 77
0
 78
0
  0
ENDTAB
  0
TABLE
  2
LTYPE
  5
5
100
AcDbSymbolTable
 70
6
  0
LTYPE
  5
14
100
AcDbSymbolTableRecord
100
AcDbLinetypeTableRecord
  2
BYBLOCK
 70
0
  3

 72
65
 73
0
 40
0.0
  0
LTYPE
  5
15
100
AcDbSymbolTableRecord
100
AcDbLinetypeTableRecord
  2
BYLAYER
 70
0
  3

 72
65
 73
0
 40
0.0
  0
LTYPE
  5
16
100
AcDbSymbolTableRecord
100
AcDbLinetypeTableRecord
  2
CONTINUOUS
 70
64
  3
Solid line
 72
65
 73
0
 40
0.0
  0
LTYPE
  5
1F5
100
AcDbSymbolTableRecord
100
AcDbLinetypeTableRecord
  2
CENTER
 70
64
  3
____ _ ____ _ ____ _ ____ _ ____ _ ____ _ ____
 72
65
 73
4
 40
0.6
 49
0.375
 74
0
 49
-0.075
 74
0
 49
0.075
 74
0
 49
-0.075
 74
0
  0
LTYPE
  5
1F6
100
AcDbSymbolTableRecord
100
AcDbLinetypeTableRecord
  2
HIDDEN
 70
64
  3
- - - - - - - - - - - - - - - - - - - -
 72
65
 73
2
 40
0.2
 49
0.1
 74
0
 49
-0.1
 74
0
  0
LTYPE
  5
1F7
100
AcDbSymbolTableRecord
100
AcDbLinetypeTableRecord
  2
PHANTOM
 70
64
  3
_____ _ _ _____ _ _ _____ _ _ _____
 72
65
 73
6
 40
0.8
 49
0.45
 74
0
 49
-0.05
 74
0
 49
0.1
 74
0
 49
-0.05
 74
0
 49
0.1
 74
0
 49
-0.05
 74
0
  0
LTYPE
  5
1F8
100
AcDbSymbolTableRecord
100
AcDbLinetypeTableRecord
  2
DOT
 70
64
  3
. . . . . . . . . . . . . . . . . . . .
 72
65
 73
2
 40
0.2
 49
0.1
 74
0
 49
-0.1
 74
0
  0
LTYPE
  5
1F9
100
AcDbSymbolTableRecord
100
AcDbLinetypeTableRecord
  2
DASHED
 70
64
  3
- - - - - - - - - - - - - - - - - - - -
 72
65
 73
2
 40
0.2
 49
0.1
 74
0
 49
-0.1
 74
0
  0
ENDTAB
  0
TABLE
  2
LAYER
  5
2
100
AcDbSymbolTable
 70
36
  0
LAYER
  5
10
100
AcDbSymbolTableRecord
100
AcDbLayerTableRecord
  2
0
 70
0
 62
7
  6
CONTINUOUS
370
-3
390
F
  0
LAYER
  5
1FA
100
AcDbSymbolTableRecord
100
AcDbLayerTableRecord
  2
DEFAULT_1
 70
0
 62
7
  6
CENTER
370
-3
390
F
  0
LAYER
  5
1FB
100
AcDbSymbolTableRecord
100
AcDbLayerTableRecord
  2
DEFAULT_2
 70
0
 62
8
  6
HIDDEN
370
-3
390
F
  0
LAYER
  5
1FC
100
AcDbSymbolTableRecord
100
AcDbLayerTableRecord
  2
DEFAULT_3
 70
0
 62
7
  6
PHANTOM
370
-3
390
F
  0
LAYER
  5
1FD
100
AcDbSymbolTableRecord
100
AcDbLayerTableRecord
  2
3D_NOTIZEN
 70
0
 62
7
  6
CONTINUOUS
370
-3
390
F
  0
LAYER
  5
1FE
100
AcDbSymbolTableRecord
100
AcDbLayerTableRecord
  2
BEZUGSACHSEN
 70
0
 62
7
  6
CONTINUOUS
370
-3
390
F
  0
LAYER
  5
1FF
100
AcDbSymbolTableRecord
100
AcDbLayerTableRecord
  2
BEZUGSEBENEN
 70
0
 62
7
  6
CONTINUOUS
370
-3
390
F
  0
LAYER
  5
200
100
AcDbSymbolTableRecord
100
AcDbLayerTableRecord
  2
BOHRUNGEN
 70
0
 62
7
  6
CONTINUOUS
370
-3
390
F
  0
LAYER
  5
201
100
AcDbSymbolTableRecord
100
AcDbLayerTableRecord
  2
FASEN
 70
0
 62
7
  6
CONTINUOUS
370
-3
390
F
  0
LAYER
  5
202
100
AcDbSymbolTableRecord
100
AcDbLayerTableRecord
  2
GEWINDE
 70
0
 62
7
  6
CONTINUOUS
370
-3
390
F
  0
LAYER
  5
203
100
AcDbSymbolTableRecord
100
AcDbLayerTableRecord
  2
HILFEN
 70
0
 62
7
  6
CONTINUOUS
370
-3
390
F
  0
LAYER
  5
204
100
AcDbSymbolTableRecord
100
AcDbLayerTableRecord
  2
KURVEN
 70
0
 62
7
  6
CONTINUOUS
370
-3
390
F
  0
LAYER
  5
205
100
AcDbSymbolTableRecord
100
AcDbLayerTableRecord
  2
PLAZIERUNG
 70
0
 62
7
  6
CONTINUOUS
370
-3
390
F
  0
LAYER
  5
206
100
AcDbSymbolTableRecord
100
AcDbLayerTableRecord
  2
RUNDUNGEN
 70
0
 62
7
  6
CONTINUOUS
370
-3
390
F
  0
LAYER
  5
207
100
AcDbSymbolTableRecord
100
AcDbLayerTableRecord
  2
TEIL_STARTBEZUEGE
 70
0
 62
7
  6
CONTINUOUS
370
-3
390
F
  0
LAYER
  5
208
100
AcDbSymbolTableRecord
100
AcDbLayerTableRecord
  2
XSEC_DATUMS
 70
0
 62
7
  6
CONTINUOUS
370
-3
390
F
  0
LAYER
  5
209
100
AcDbSymbolTableRecord
100
AcDbLayerTableRecord
  2
ZEICHNUNGSBEMASSUNGEN
 70
0
 62
7
  6
CONTINUOUS
370
-3
390
F
  0
ENDTAB
  0
TABLE
  2
STYLE
  5
3
100
AcDbSymbolTable
 70
1
  0
STYLE
  5
11
100
AcDbSymbolTableRecord
100
AcDbTextStyleTableRecord
  2
STANDARD
 70
0
 40
0.0
 41
0.7
 50
0.0
 71
0
 42
0.2
  3
txt
  4

  0
STYLE
  5
20A
100
AcDbSymbolTableRecord
100
AcDbTextStyleTableRecord
  2
TEXTSTYLE_1
 70
0
 40
0.0
 41
0.8
 50
0.0
 71
0
 42
0.2
  3
gdt
  4

  0
STYLE
  5
20B
100
AcDbSymbolTableRecord
100
AcDbTextStyleTableRecord
  2
TEXTSTYLE_2
 70
0
 40
0.0
 41
0.7
 50
0.0
 71
0
 42
0.2
  3
gdt
  4

  0
STYLE
  5
20C
100
AcDbSymbolTableRecord
100
AcDbTextStyleTableRecord
  2
TEXTSTYLE_3
 70
0
 40
0.0
 41
1.0
 50
0.0
 71
0
 42
0.2
  3
trium.ttf
  4

  0
ENDTAB
  0
TABLE
  2
VIEW
  5
6
100
AcDbSymbolTable
 70
0
  0
ENDTAB
  0
TABLE
  2
UCS
  5
7
100
AcDbSymbolTable
 70
0
  0
ENDTAB
  0
TABLE
  2
APPID
  5
9
100
AcDbSymbolTable
 70
1
  0
APPID
  5
20D
100
AcDbSymbolTableRecord
100
AcDbRegAppTableRecord
  2
ACAD
 70
0
  0
ENDTAB
  0
TABLE
  2
BLOCK_RECORD
  5
1
100
AcDbSymbolTable
 70
0
  0
BLOCK_RECORD
  5
20E
100
AcDbSymbolTableRecord
100
AcDbBlockTableRecord
  2
*Model_Space
  0
BLOCK_RECORD
  5
20F
100
AcDbSymbolTableRecord
100
AcDbBlockTableRecord
  2
*Paper_Space
  0
BLOCK_RECORD
  5
210
100
AcDbSymbolTableRecord
100
AcDbBlockTableRecord
  2
_FILLED
  0
BLOCK_RECORD
  5
211
100
AcDbSymbolTableRecord
100
AcDbBlockTableRecord
  2
*D0
  0
BLOCK_RECORD
  5
212
100
AcDbSymbolTableRecord
100
AcDbBlockTableRecord
  2
*D1
  0
BLOCK_RECORD
  5
213
100
AcDbSymbolTableRecord
100
AcDbBlockTableRecord
  2
NEUTRIK_BL4
  0
BLOCK_RECORD
  5
214
100
AcDbSymbolTableRecord
100
AcDbBlockTableRecord
  2
VOLUMEN_BL3
  0
BLOCK_RECORD
  5
215
100
AcDbSymbolTableRecord
100
AcDbBlockTableRecord
  2
OBERFLÄCHE_BL2
  0
BLOCK_RECORD
  5
216
100
AcDbSymbolTableRecord
100
AcDbBlockTableRecord
  2
GEWICHT_BL1
  0
BLOCK_RECORD
  5
217
100
AcDbSymbolTableRecord
100
AcDbBlockTableRecord
  2
PROJEKTION_BL0
  0
BLOCK_RECORD
  5
218
100
AcDbSymbolTableRecord
100
AcDbBlockTableRecord
  2
*T1
  0
ENDTAB
  0
TABLE
  2
DIMSTYLE
  5
A
100
AcDbSymbolTable
 70
1
100
AcDbDimStyleTable
 71
0
  0
DIMSTYLE
105
219
100
AcDbSymbolTableRecord
100
AcDbDimStyleTableRecord
  2
STANDARD
 70
0
  3

  4

 40
1.0
 41
3.5
 42
0.0
 43
0.38
 44
1.5
 45
0.0
 46
0.0
 47
0.005
 48
0.005
140
3.5
141
0.09
142
0.0
143
0.0393700787
144
1.0
145
0.0
146
1.0
147
0.625
 71
1
 72
0
 73
0
 74
0
 75
0
 76
0
 77
1
 78
8
 79
2
170
1
171
2
172
0
173
0
174
0
175
0
176
0
177
0
178
5
270
2
179
3
271
3
272
3
273
2
274
2
275
0
280
0
281
0
282
0
283
1
284
8
285
0
286
0
287
3
288
0
340
11
278
46
341
210
342
210
343
210
344
210
  0
DIMSTYLE
105
21A
100
AcDbSymbolTableRecord
100
AcDbDimStyleTableRecord
  2
DIMSTYLE_1
 70
0
  3

  4

 40
1.0
 41
3.5
 42
0.0
 43
0.38
 44
1.5
 45
0.0
 46
0.0
 47
0.3
 48
0.3
140
3.5
141
0.09
142
0.0
143
0.0393700787
144
1.0
145
0.0
146
1.0
147
0.875
 71
0
 72
0
 73
0
 74
0
 75
0
 76
0
 77
1
 78
8
 79
2
170
1
171
2
172
0
173
0
174
0
175
0
176
0
177
0
178
5
270
2
179
3
271
3
272
3
273
2
274
-14
275
0
280
0
281
0
282
0
283
1
284
8
285
0
286
0
287
3
288
0
340
11
278
46
341
210
342
210
343
210
344
210
  0
ENDTAB
  0
ENDSEC
  0
SECTION
  2
BLOCKS
  0
BLOCK
  5
20
100
AcDbEntity
  8
0
100
AcDbBlockBegin
  2
*Model_Space
 70
0
 10
0.0
 20
0.0
 30
0.0
  3
*Model_Space
  1

  0
ENDBLK
  5
21
100
AcDbEntity
  8
0
100
AcDbBlockEnd
  0
BLOCK
  5
1C
100
AcDbEntity
  8
0
100
AcDbBlockBegin
  2
*Paper_Space
 70
0
 10
0.0
 20
0.0
 30
0.0
  3
*Paper_Space
  1

  0
ENDBLK
  5
1D
100
AcDbEntity
  8
0
100
AcDbBlockEnd
  0
BLOCK
  5
21B
100
AcDbEntity
  8
0
100
AcDbBlockBegin
 62
2
  6
CONTINUOUS
  2
NEUTRIK_BL4
 70
64
 10
84.2614090897
 20
13.9058200948
  3
NEUTRIK_BL4
  1

  0
LINE
  5
21C
100
AcDbEntity
  8
0
100
AcDbLine
 62
2
  6
CONTINUOUS
 10
70.1379676489
 20
12.7321399941
 11
67.637517174
 21
14.2411572633
  0
LINE
  5
21D
100
AcDbEntity
  8
0
100
AcDbLine
 62
2
  6
CONTINUOUS
 10
67.7853389065
 20
15.0794997461
 11
70.2857903814
 21
13.570482477
  0
LINE
  5
21E
100
AcDbEntity
  8
0
100
AcDbLine
 62
2
  6
CONTINUOUS
 10
100.2344731832
 20
12.7321399941
 11
98.6365580749
 21
13.6543173253
  0
LINE
  5
21F
100
AcDbEntity
  8
0
100
AcDbLine
 62
2
  6
CONTINUOUS
 10
89.90301088
 20
13.570482477
 11
91.1806003009
 21
12.7321930685
  0
LINE
  5
220
100
AcDbEntity
  8
0
100
AcDbLine
 62
2
  6
CONTINUOUS
 10
93.108559079
 20
12.7321399941
 11
91.8311993906
 21
13.570482477
  0
LINE
  5
221
100
AcDbEntity
  8
0
100
AcDbLine
 62
2
  6
CONTINUOUS
 10
100.439022813
 20
13.9896537184
 11
102.3303293903
 21
12.7321399941
  0
LINE
  5
222
100
AcDbEntity
  8
0
100
AcDbLine
 62
2
  6
CONTINUOUS
 10
65.7785855381
 20
12.7321399941
 11
66.1924877891
 21
15.0794997461
  0
LINE
  5
223
100
AcDbEntity
  8
0
100
AcDbLine
 62
2
  6
CONTINUOUS
 10
67.637517174
 20
14.2411572633
 11
67.3714366555
 21
12.7321399941
  0
LINE
  5
224
100
AcDbEntity
  8
0
100
AcDbLine
 62
2
  6
CONTINUOUS
 10
70.2857903814
 20
13.570482477
 11
70.5518698999
 21
15.0794997461
  0
LINE
  5
225
100
AcDbEntity
  8
0
100
AcDbLine
 62
2
  6
CONTINUOUS
 10
72.1447220173
 20
15.0794997461
 11
71.7308187664
 21
12.7321399941
  0
LINE
  5
226
100
AcDbEntity
  8
0
100
AcDbLine
 62
2
  6
CONTINUOUS
 10
72.9883324906
 20
12.7321399941
 11
73.4022357416
 21
15.0794997461
  0
LINE
  5
227
100
AcDbEntity
  8
0
100
AcDbLine
 62
2
  6
CONTINUOUS
 10
74.8225591712
 20
14.5764936564
 11
74.748648305
 21
14.157322415
  0
LINE
  5
228
100
AcDbEntity
  8
0
100
AcDbLine
 62
2
  6
CONTINUOUS
 10
74.6599544655
 20
13.6543173253
 11
74.5860435992
 21
13.2351460838
  0
LINE
  5
229
100
AcDbEntity
  8
0
100
AcDbLine
 62
2
  6
CONTINUOUS
 10
76.9283393604
 20
14.157322415
 11
76.8396455209
 21
13.6543173253
  0
LINE
  5
22A
100
AcDbEntity
  8
0
100
AcDbLine
 62
2
  6
CONTINUOUS
 10
77.5939491558
 20
15.0794997461
 11
77.5052563163
 21
14.5764936564
  0
LINE
  5
22B
100
AcDbEntity
  8
0
100
AcDbLine
 62
2
  6
CONTINUOUS
 10
77.2687397443
 20
13.2351460838
 11
77.1800469049
 21
12.7321399941
  0
LINE
  5
22C
100
AcDbEntity
  8
0
100
AcDbLine
 62
2
  6
CONTINUOUS
 10
78.162473127
 20
13.5492805154
 11
78.4322926387
 21
15.0794997461
  0
LINE
  5
22D
100
AcDbEntity
  8
0
100
AcDbLine
 62
2
  6
CONTINUOUS
 10
79.9413089078
 20
15.0794997461
 11
79.6954843527
 21
13.6853552691
  0
LINE
  5
22E
100
AcDbEntity
  8
0
100
AcDbLine
 62
2
  6
CONTINUOUS
 10
81.5258760402
 20
13.6061744124
 11
81.7856635701
 21
15.0794997461
  0
LINE
  5
22F
100
AcDbEntity
  8
0
100
AcDbLine
 62
2
  6
CONTINUOUS
 10
83.2946808392
 20
15.0794997461
 11
82.9980943759
 21
13.3974777901
  0
LINE
  5
230
100
AcDbEntity
  8
0
100
AcDbLine
 62
2
  6
CONTINUOUS
 10
83.7780449644
 20
14.4926598081
 11
83.8815207772
 21
15.0794997461
  0
LINE
  5
231
100
AcDbEntity
  8
0
100
AcDbLine
 62
2
  6
CONTINUOUS
 10
84.6412974022
 20
12.7321399941
 11
84.9517248404
 21
14.4926598081
  0
LINE
  5
232
100
AcDbEntity
  8
0
100
AcDbLine
 62
2
  6
CONTINUOUS
 10
86.6284098061
 20
14.4926598081
 11
86.3179833679
 21
12.7321399941
  0
LINE
  5
233
100
AcDbEntity
  8
0
100
AcDbLine
 62
2
  6
CONTINUOUS
 10
87.9055654948
 20
15.0794997461
 11
87.8020896821
 21
14.4926598081
  0
LINE
  5
234
100
AcDbEntity
  8
0
100
AcDbLine
 62
2
  6
CONTINUOUS
 10
88.4924054328
 20
15.0794997461
 11
88.0785031819
 21
12.7321399941
  0
LINE
  5
235
100
AcDbEntity
  8
0
100
AcDbLine
 62
2
  6
CONTINUOUS
 10
89.7551881476
 20
12.7321399941
 11
89.90301088
 21
13.570482477
  0
LINE
  5
236
100
AcDbEntity
  8
0
100
AcDbLine
 62
2
  6
CONTINUOUS
 10
89.9917037195
 20
14.0734885667
 11
90.0951795323
 21
14.6603285047
  0
LINE
  5
237
100
AcDbEntity
  8
0
100
AcDbLine
 62
2
  6
CONTINUOUS
 10
93.7792338652
 20
12.7321399941
 11
94.1931361162
 21
15.0794997461
  0
LINE
  5
238
100
AcDbEntity
  8
0
100
AcDbLine
 62
2
  6
CONTINUOUS
 10
95.8698220819
 20
15.0794997461
 11
95.4559188309
 21
12.7321399941
  0
LINE
  5
239
100
AcDbEntity
  8
0
100
AcDbLine
 62
2
  6
CONTINUOUS
 10
96.7972674035
 20
12.7321399941
 11
97.2111706544
 21
15.0794997461
  0
LINE
  5
23A
100
AcDbEntity
  8
0
100
AcDbLine
 62
2
  6
CONTINUOUS
 10
98.8878556201
 20
15.0794997461
 11
98.6956869679
 21
13.9896537184
  0
LINE
  5
23B
100
AcDbEntity
  8
0
100
AcDbLine
 62
2
  6
CONTINUOUS
 10
98.6365580749
 20
13.6543173253
 11
98.4739533692
 21
12.7321399941
  0
LINE
  5
23C
100
AcDbEntity
  8
0
100
AcDbLine
 62
2
  6
CONTINUOUS
 10
102.3303293903
 20
12.7321399941
 11
100.2344731832
 21
12.7321399941
  0
LINE
  5
23D
100
AcDbEntity
  8
0
100
AcDbLine
 62
2
  6
CONTINUOUS
 10
65.7785855381
 20
12.7321399941
 11
67.3714366555
 21
12.7321399941
  0
LINE
  5
23E
100
AcDbEntity
  8
0
100
AcDbLine
 62
2
  6
CONTINUOUS
 10
98.4739533692
 20
12.7321399941
 11
96.7972674035
 21
12.7321399941
  0
LINE
  5
23F
100
AcDbEntity
  8
0
100
AcDbLine
 62
2
  6
CONTINUOUS
 10
95.4559188309
 20
12.7321399941
 11
93.7792338652
 21
12.7321399941
  0
LINE
  5
240
100
AcDbEntity
  8
0
100
AcDbLine
 62
2
  6
CONTINUOUS
 10
86.3179833679
 20
12.7321399941
 11
84.6412974022
 21
12.7321399941
  0
LINE
  5
241
100
AcDbEntity
  8
0
100
AcDbLine
 62
2
  6
CONTINUOUS
 10
88.0785031819
 20
12.7321399941
 11
89.7551881476
 21
12.7321399941
  0
LINE
  5
242
100
AcDbEntity
  8
0
100
AcDbLine
 62
2
  6
CONTINUOUS
 10
77.1800469049
 20
12.7321399941
 11
72.9883324906
 21
12.7321399941
  0
LINE
  5
243
100
AcDbEntity
  8
0
100
AcDbLine
 62
2
  6
CONTINUOUS
 10
91.1803705684
 20
12.7321399941
 11
93.108559079
 21
12.7321399941
  0
LINE
  5
244
100
AcDbEntity
  8
0
100
AcDbLine
 62
2
  6
CONTINUOUS
 10
71.7308187664
 20
12.7321399941
 11
70.1379676489
 21
12.7321399941
  0
LINE
  5
245
100
AcDbEntity
  8
0
100
AcDbLine
 62
2
  6
CONTINUOUS
 10
74.5860435992
 20
13.2351460838
 11
77.2687397443
 21
13.2351460838
  0
LINE
  5
246
100
AcDbEntity
  8
0
100
AcDbLine
 62
2
  6
CONTINUOUS
 10
76.8396455209
 20
13.6543173253
 11
74.6599544655
 21
13.6543173253
  0
LINE
  5
247
100
AcDbEntity
  8
0
100
AcDbLine
 62
2
  6
CONTINUOUS
 10
91.0528637992
 20
14.0734885667
 11
89.9917037195
 21
14.0734885667
  0
LINE
  5
248
100
AcDbEntity
  8
0
100
AcDbLine
 62
2
  6
CONTINUOUS
 10
74.748648305
 20
14.157322415
 11
76.9283393604
 21
14.157322415
  0
LINE
  5
249
100
AcDbEntity
  8
0
100
AcDbLine
 62
2
  6
CONTINUOUS
 10
87.8020896821
 20
14.4926598081
 11
86.6284098061
 21
14.4926598081
  0
LINE
  5
24A
100
AcDbEntity
  8
0
100
AcDbLine
 62
2
  6
CONTINUOUS
 10
84.9517248404
 20
14.4926598081
 11
83.7780449644
 21
14.4926598081
  0
LINE
  5
24B
100
AcDbEntity
  8
0
100
AcDbLine
 62
2
  6
CONTINUOUS
 10
77.5052563163
 20
14.5764936564
 11
74.8225591712
 21
14.5764936564
  0
LINE
  5
24C
100
AcDbEntity
  8
0
100
AcDbLine
 62
2
  6
CONTINUOUS
 10
90.0951795323
 20
14.6603285047
 11
91.3492912627
 21
14.6603285047
  0
LINE
  5
24D
100
AcDbEntity
  8
0
100
AcDbLine
 62
2
  6
CONTINUOUS
 10
66.1924877891
 20
15.0794997461
 11
67.7853389065
 21
15.0794997461
  0
LINE
  5
24E
100
AcDbEntity
  8
0
100
AcDbLine
 62
2
  6
CONTINUOUS
 10
70.5518698999
 20
15.0794997461
 11
72.1447220173
 21
15.0794997461
  0
LINE
  5
24F
100
AcDbEntity
  8
0
100
AcDbLine
 62
2
  6
CONTINUOUS
 10
73.4022357416
 20
15.0794997461
 11
77.5939491558
 21
15.0794997461
  0
LINE
  5
250
100
AcDbEntity
  8
0
100
AcDbLine
 62
2
  6
CONTINUOUS
 10
91.5942738194
 20
15.0794997461
 11
88.4924054328
 21
15.0794997461
  0
LINE
  5
251
100
AcDbEntity
  8
0
100
AcDbLine
 62
2
  6
CONTINUOUS
 10
78.4322926387
 20
15.0794997461
 11
79.9413089078
 21
15.0794997461
  0
LINE
  5
252
100
AcDbEntity
  8
0
100
AcDbLine
 62
2
  6
CONTINUOUS
 10
81.7856635701
 20
15.0794997461
 11
83.2946808392
 21
15.0794997461
  0
LINE
  5
253
100
AcDbEntity
  8
0
100
AcDbLine
 62
2
  6
CONTINUOUS
 10
83.8815207772
 20
15.0794997461
 11
87.9055654948
 21
15.0794997461
  0
LINE
  5
254
100
AcDbEntity
  8
0
100
AcDbLine
 62
2
  6
CONTINUOUS
 10
94.1931361162
 20
15.0794997461
 11
95.8698220819
 21
15.0794997461
  0
LINE
  5
255
100
AcDbEntity
  8
0
100
AcDbLine
 62
2
  6
CONTINUOUS
 10
97.2111706544
 20
15.0794997461
 11
98.8878556201
 21
15.0794997461
  0
LINE
  5
256
100
AcDbEntity
  8
0
100
AcDbLine
 62
2
  6
CONTINUOUS
 10
100.6311924652
 20
15.0794997461
 11
102.7442326412
 21
15.0794997461
  0
LINE
  5
257
100
AcDbEntity
  8
0
100
AcDbLine
 62
2
  6
CONTINUOUS
 10
98.6956869679
 20
13.9896537184
 11
100.6311924652
 21
15.0794997461
  0
LINE
  5
258
100
AcDbEntity
  8
0
100
AcDbLine
 62
2
  6
CONTINUOUS
 10
102.7442326412
 20
15.0794997461
 11
100.439022813
 21
13.9896537184
  0
ARC
  5
259
100
AcDbEntity
  8
0
100
AcDbCircle
 62
2
  6
CONTINUOUS
 10
80.025726755
 20
13.6271243745
 40
0.335336967
100
AcDbArc
 50
169.9999581174
 51
257.3876854477
  0
ARC
  5
25A
100
AcDbEntity
  8
0
100
AcDbCircle
 62
2
  6
CONTINUOUS
 10
80.5382768275
 20
15.917842229
 40
2.6826964808
100
AcDbArc
 50
257.3877479741
 51
286.262665946
  0
ARC
  5
25B
100
AcDbEntity
  8
0
100
AcDbCircle
 62
2
  6
CONTINUOUS
 10
81.1956336378
 20
13.664405307
 40
0.3353371135
100
AcDbArc
 50
286.2627744417
 51
349.9999581174
  0
ARC
  5
25C
100
AcDbEntity
  8
0
100
AcDbCircle
 62
2
  6
CONTINUOUS
 10
82.5027302724
 20
13.484823632
 40
0.5030061094
100
AcDbArc
 50
284.4613069912
 51
350.0000240953
  0
ARC
  5
25D
100
AcDbEntity
  8
0
100
AcDbCircle
 62
2
  6
CONTINUOUS
 10
80.5347888338
 20
21.1155678226
 40
8.3834278607
100
AcDbArc
 50
256.2209051549
 51
284.4612653568
  0
ARC
  5
25E
100
AcDbEntity
  8
0
100
AcDbCircle
 62
2
  6
CONTINUOUS
 10
78.6578372305
 20
13.4619346734
 40
0.503005856
100
AcDbArc
 50
170.0000240953
 51
256.2208762229
  0
ARC
  5
25F
100
AcDbEntity
  8
0
100
AcDbCircle
 62
2
  6
CONTINUOUS
 10
92.1296018506
 20
14.8912530868
 40
1.3167024847
100
AcDbArc
 50
270.8139664646
 51
287.332045501
  0
ARC
  5
260
100
AcDbEntity
  8
0
100
AcDbCircle
 62
2
  6
CONTINUOUS
 10
92.2164286934
 20
14.6130325903
 40
1.025248295
100
AcDbArc
 50
287.332041554
 51
306.9952583027
  0
ARC
  5
261
100
AcDbEntity
  8
0
100
AcDbCircle
 62
2
  6
CONTINUOUS
 10
92.3494074528
 20
14.4365329097
 40
0.8042604703
100
AcDbArc
 50
306.9952804959
 51
331.1991469186
  0
ARC
  5
262
100
AcDbEntity
  8
0
100
AcDbCircle
 62
2
  6
CONTINUOUS
 10
92.5533350837
 20
14.3244191126
 40
0.5715468569
100
AcDbArc
 50
331.1991187457
 51
28.8007934081
  0
ARC
  5
263
100
AcDbEntity
  8
0
100
AcDbCircle
 62
2
  6
CONTINUOUS
 10
92.3494074528
 20
14.2123043155
 40
0.8042612359
100
AcDbArc
 50
28.8008530814
 51
53.0047195041
  0
ARC
  5
264
100
AcDbEntity
  8
0
100
AcDbCircle
 62
2
  6
CONTINUOUS
 10
92.2164286934
 20
14.0358046349
 40
1.0252479986
100
AcDbArc
 50
53.0047416973
 51
72.667958446
  0
ARC
  5
265
100
AcDbEntity
  8
0
100
AcDbCircle
 62
2
  6
CONTINUOUS
 10
92.1296018506
 20
13.7575841384
 40
1.3167024858
100
AcDbArc
 50
72.667954499
 51
88.2637233921
  0
ARC
  5
266
100
AcDbEntity
  8
0
100
AcDbCircle
 62
2
  6
CONTINUOUS
 10
91.7587185218
 20
2.8979747911
 40
12.1826353158
100
AcDbArc
 50
88.0677150838
 51
90.7734183662
  0
ARC
  5
267
100
AcDbEntity
  8
0
100
AcDbCircle
 62
2
  6
CONTINUOUS
 10
90.4285929289
 20
131.4267671919
 40
117.8646306221
100
AcDbArc
 50
270.6818443076
 51
270.8360085966
  0
ARC
  5
268
100
AcDbEntity
  8
0
100
AcDbCircle
 62
2
  6
CONTINUOUS
 10
91.3068623395
 20
14.1391824478
 40
0.5228699142
100
AcDbArc
 50
74.2117758502
 51
85.3455498836
  0
ARC
  5
269
100
AcDbEntity
  8
0
100
AcDbCircle
 62
2
  6
CONTINUOUS
 10
91.3562082502
 20
14.313707132
 40
0.3415029724
100
AcDbArc
 50
49.80595642
 51
74.2116374161
  0
ARC
  5
26A
100
AcDbEntity
  8
0
100
AcDbCircle
 62
2
  6
CONTINUOUS
 10
91.4665280505
 20
14.4442808957
 40
0.1705654939
100
AcDbArc
 50
340.193968067
 51
49.8058745946
  0
ARC
  5
26B
100
AcDbEntity
  8
0
100
AcDbCircle
 62
2
  6
CONTINUOUS
 10
91.3057013416
 20
14.5022007908
 40
0.3415041793
100
AcDbArc
 50
315.7883508031
 51
340.1940327095
  0
ARC
  5
26C
100
AcDbEntity
  8
0
100
AcDbCircle
 62
2
  6
CONTINUOUS
 10
91.1757045768
 20
14.628669562
 40
0.5228695114
100
AcDbArc
 50
298.8638229053
 51
315.7882717965
  0
ARC
  5
26D
100
AcDbEntity
  8
0
100
AcDbCircle
 62
2
  6
CONTINUOUS
 10
91.0528637992
 20
14.8515271587
 40
0.777340892
100
AcDbArc
 50
285.0000006491
 51
298.8638426666
  0
ARC
  5
26E
100
AcDbEntity
  8
0
100
AcDbCircle
 62
2
  6
CONTINUOUS
 10
91.050164804
 20
14.8515291587
 40
0.7780452733
100
AcDbArc
 50
270.1987562222
 51
285.191946156
  0
ENDBLK
  5
26F
100
AcDbEntity
  8
0
  6
BYBLOCK
 62
0
100
AcDbBlockEnd
  0
BLOCK
  5
270
100
AcDbEntity
  8
0
100
AcDbBlockBegin
 62
2
  6
CONTINUOUS
  2
VOLUMEN_BL3
 70
64
 10
110.151481625
 20
44.9679082823
  3
VOLUMEN_BL3
  1

  0
LINE
  5
271
100
AcDbEntity
  8
0
100
AcDbLine
 62
2
  6
CONTINUOUS
 10
108.7854562212
 20
43.9188701766
 11
110.5175070288
 21
43.4188701766
  0
LINE
  5
272
100
AcDbEntity
  8
0
100
AcDbLine
 62
2
  6
CONTINUOUS
 10
110.5175070288
 20
43.4188701766
 11
110.5175070288
 21
45.1509209842
  0
LINE
  5
273
100
AcDbEntity
  8
0
100
AcDbLine
 62
2
  6
CONTINUOUS
 10
111.5175070288
 20
44.2848955804
 11
110.5175070288
 21
43.4188701766
  0
LINE
  5
274
100
AcDbEntity
  8
0
100
AcDbLine
 62
2
  6
CONTINUOUS
 10
111.5175070288
 20
44.2848955804
 11
111.5175070288
 21
46.0169463879
  0
LINE
  5
275
100
AcDbEntity
  8
0
100
AcDbLine
 62
2
  6
CONTINUOUS
 10
111.5175070288
 20
46.0169463879
 11
110.5175070288
 21
45.1509209842
  0
LINE
  5
276
100
AcDbEntity
  8
0
100
AcDbLine
 62
2
  6
CONTINUOUS
 10
110.5175070288
 20
45.1509209842
 11
108.7854562212
 21
45.6509209842
  0
LINE
  5
277
100
AcDbEntity
  8
0
100
AcDbLine
 62
2
  6
CONTINUOUS
 10
108.7854562212
 20
45.6509209842
 11
108.7854562212
 21
43.9188701766
  0
LINE
  5
278
100
AcDbEntity
  8
0
100
AcDbLine
 62
2
  6
CONTINUOUS
 10
109.7854562212
 20
46.5169463879
 11
108.7854562212
 21
45.6509209842
  0
LINE
  5
279
100
AcDbEntity
  8
0
100
AcDbLine
 62
2
  6
CONTINUOUS
 10
111.5175070288
 20
46.0169463879
 11
109.7854562212
 21
46.5169463879
  0
ENDBLK
  5
27A
100
AcDbEntity
  8
0
  6
BYBLOCK
 62
0
100
AcDbBlockEnd
  0
BLOCK
  5
27B
100
AcDbEntity
  8
0
100
AcDbBlockBegin
 62
2
  6
CONTINUOUS
  2
OBERFLÄCHE_BL2
 70
64
 10
86.8835037733
 20
44.9777543704
  3
OBERFLÄCHE_BL2
  1

  0
LINE
  5
27C
100
AcDbEntity
  8
0
100
AcDbLine
 62
2
  6
CONTINUOUS
 10
85.7575916662
 20
43.8518422633
 11
88.0094158805
 21
43.8518422633
  0
LINE
  5
27D
100
AcDbEntity
  8
0
100
AcDbLine
 62
2
  6
CONTINUOUS
 10
88.0094158805
 20
43.8518422633
 11
88.0094158805
 21
46.1036664776
  0
LINE
  5
27E
100
AcDbEntity
  8
0
100
AcDbLine
 62
2
  6
CONTINUOUS
 10
88.0094158805
 20
46.1036664776
 11
85.7575916662
 21
46.1036664776
  0
LINE
  5
27F
100
AcDbEntity
  8
0
100
AcDbLine
 62
2
  6
CONTINUOUS
 10
85.7575916662
 20
46.1036664776
 11
85.7575916662
 21
43.8518422633
  0
ENDBLK
  5
280
100
AcDbEntity
  8
0
  6
BYBLOCK
 62
0
100
AcDbBlockEnd
  0
BLOCK
  5
281
100
AcDbEntity
  8
0
100
AcDbBlockBegin
 62
2
  6
CONTINUOUS
  2
GEWICHT_BL1
 70
64
 10
63.6008920842
 20
45.0305547563
  3
GEWICHT_BL1
  1

  0
LWPOLYLINE
  5
282
100
AcDbEntity
  8
0
100
AcDbPolyline
 62
2
  6
CONTINUOUS
 90
38
 70
0
 10
62.5342254175
 20
43.4796307315
 10
62.534901321
 20
43.4761807049
 10
62.5367296796
 20
43.4731120756
 10
62.5394114648
 20
43.4703828715
 10
62.5426476487
 20
43.4679511202
 10
62.5461392029
 20
43.4657748495
 10
62.5581138945
 20
43.4597771407
 10
62.5698454498
 20
43.4555314006
 10
62.5816144247
 20
43.452228485
 10
62.6103373192
 20
43.4453157153
 10
62.6398586251
 20
43.4392942414
 10
62.6797393544
 20
43.4326646338
 10
62.7195707249
 20
43.4272610483
 10
62.8189700876
 20
43.4163977074
 10
62.9358362955
 20
43.4069468877
 10
63.0675587508
 20
43.3991197051
 10
63.2111949915
 20
43.3930910057
 10
63.3635364213
 20
43.3889954608
 10
63.5211799843
 20
43.3869245581
 10
63.680604184
 20
43.3869245581
 10
63.8382477471
 20
43.3889954608
 10
63.9905891768
 20
43.3930910057
 10
64.1342254175
 20
43.3991197051
 10
64.2659478728
 20
43.4069468877
 10
64.3828140808
 20
43.4163977074
 10
64.4822134434
 20
43.4272610483
 10
64.5220448139
 20
43.4326646338
 10
64.5619255433
 20
43.4392942414
 10
64.5914468492
 20
43.4453157153
 10
64.6201697437
 20
43.452228485
 10
64.6319387185
 20
43.4555314006
 10
64.6436702738
 20
43.4597771407
 10
64.6556449655
 20
43.4657748495
 10
64.6591365197
 20
43.4679511202
 10
64.6623727035
 20
43.4703828715
 10
64.6650544888
 20
43.4731120756
 10
64.6668828473
 20
43.4761807049
 10
64.6675587508
 20
43.4796307315
  0
LINE
  5
283
100
AcDbEntity
  8
0
100
AcDbLine
 62
2
  6
CONTINUOUS
 10
62.5342254175
 20
45.6048460875
 11
62.5342254175
 21
43.4796307315
  0
LINE
  5
284
100
AcDbEntity
  8
0
100
AcDbLine
 62
2
  6
CONTINUOUS
 10
64.6675587508
 20
45.6048460875
 11
64.6675587508
 21
43.4796307315
  0
LWPOLYLINE
  5
285
100
AcDbEntity
  8
0
100
AcDbPolyline
 62
2
  6
CONTINUOUS
 90
38
 70
0
 10
62.5342254175
 20
45.6048460875
 10
62.534901321
 20
45.6013960608
 10
62.5367296796
 20
45.5983274316
 10
62.5394114648
 20
45.5955982275
 10
62.5426476487
 20
45.5931664762
 10
62.5461392029
 20
45.5909902054
 10
62.5581138945
 20
45.5849924966
 10
62.5698454498
 20
45.5807467565
 10
62.5816144247
 20
45.5774438409
 10
62.6103373192
 20
45.5705310712
 10
62.6398586251
 20
45.5645095973
 10
62.6797393544
 20
45.5578799897
 10
62.7195707249
 20
45.5524764042
 10
62.8189700876
 20
45.5416130633
 10
62.9358362955
 20
45.5321622437
 10
63.0675587508
 20
45.524335061
 10
63.2111949915
 20
45.5183063616
 10
63.3635364213
 20
45.5142108167
 10
63.5211799843
 20
45.512139914
 10
63.680604184
 20
45.512139914
 10
63.8382477471
 20
45.5142108167
 10
63.9905891768
 20
45.5183063616
 10
64.1342254175
 20
45.524335061
 10
64.2659478728
 20
45.5321622437
 10
64.3828140808
 20
45.5416130633
 10
64.4822134434
 20
45.5524764042
 10
64.5220448139
 20
45.5578799897
 10
64.5619255433
 20
45.5645095973
 10
64.5914468492
 20
45.5705310712
 10
64.6201697437
 20
45.5774438409
 10
64.6319387185
 20
45.5807467565
 10
64.6436702738
 20
45.5849924966
 10
64.6556449655
 20
45.5909902054
 10
64.6591365197
 20
45.5931664762
 10
64.6623727035
 20
45.5955982275
 10
64.6650544888
 20
45.5983274316
 10
64.6668828473
 20
45.6013960608
 10
64.6675587508
 20
45.6048460875
  0
LWPOLYLINE
  5
286
100
AcDbEntity
  8
0
100
AcDbPolyline
 62
2
  6
CONTINUOUS
 90
39
 70
0
 10
62.5342254175
 20
45.6048460875
 10
62.5343706836
 20
45.6064642425
 10
62.5347877599
 20
45.6079988663
 10
62.5354485633
 20
45.6094539005
 10
62.5363250108
 20
45.6108332871
 10
62.5373890194
 20
45.6121409678
 10
62.538612506
 20
45.6133808845
 10
62.5399673875
 20
45.6145569788
 10
62.541425581
 20
45.6156731927
 10
62.5429590035
 20
45.6167334679
 10
62.5445395718
 20
45.6177417463
 10
62.5461392029
 20
45.6187019695
 10
62.5506760135
 20
45.6212077808
 10
62.5551539748
 20
45.6233961054
 10
62.5595878819
 20
45.6253096128
 10
62.5639925295
 20
45.6269909729
 10
62.5683827126
 20
45.6284828554
 10
62.5727732262
 20
45.6298279299
 10
62.5771788653
 20
45.6310688662
 10
62.5816144247
 20
45.632248334
 10
62.5929458389
 20
45.6351108745
 10
62.6044979003
 20
45.637845092
 10
62.6162086745
 20
45.6404414636
 10
62.6280162275
 20
45.6428904665
 10
62.6398586251
 20
45.6451825777
 10
62.6558334636
 20
45.6480246054
 10
62.6717754691
 20
45.6506058765
 10
62.6877012654
 20
45.6529694531
 10
62.7036274761
 20
45.6551583972
 10
62.7195707249
 20
45.6572157707
 10
62.7443487212
 20
45.6602214358
 10
62.7691878226
 20
45.6630260641
 10
62.7940682159
 20
45.665641381
 10
62.8189700876
 20
45.6680791116
 10
62.8481760003
 20
45.6707277313
 10
62.8773870845
 20
45.6731707654
 10
62.9066062223
 20
45.6754306774
 10
62.9358362955
 20
45.6775299313
 10
62.9648674668
 20
45.6794746919
  0
LWPOLYLINE
  5
287
100
AcDbEntity
  8
0
100
AcDbPolyline
 62
2
  6
CONTINUOUS
 90
47
 70
0
 10
63.0942937899
 20
45.9409638779
 10
63.0942277717
 20
45.9343712003
 10
63.0940298839
 20
45.9277779021
 10
63.0937003769
 20
45.921187058
 10
63.0932395009
 20
45.9146017426
 10
63.0926475064
 20
45.9080250306
 10
63.0919246437
 20
45.9014599966
 10
63.0910711631
 20
45.8949097152
 10
63.0900873149
 20
45.8883772612
 10
63.0889733496
 20
45.8818657092
 10
63.0877295173
 20
45.8753781339
 10
63.0863405798
 20
45.8688477636
 10
63.0848199414
 20
45.8623475842
 10
63.0831683377
 20
45.8558801464
 10
63.0813865043
 20
45.8494480014
 10
63.0794751769
 20
45.8430536999
 10
63.0774350911
 20
45.8366997931
 10
63.0752669825
 20
45.8303888317
 10
63.0729715867
 20
45.8241233668
 10
63.0705496394
 20
45.8179059494
 10
63.0680018762
 20
45.8117391303
 10
63.0653908279
 20
45.8057628019
 10
63.0626616057
 20
45.7998395517
 10
63.0598155343
 20
45.7939716799
 10
63.0568539387
 20
45.7881614871
 10
63.0537781438
 20
45.7824112736
 10
63.0505894745
 20
45.7767233398
 10
63.0472892557
 20
45.7710999863
 10
63.0438788123
 20
45.7655435133
 10
63.0403594692
 20
45.7600562214
 10
63.0366976021
 20
45.7545894829
 10
63.0329267578
 20
45.7491977718
 10
63.0290475791
 20
45.743883275
 10
63.025060709
 20
45.7386481793
 10
63.0209667906
 20
45.7334946715
 10
63.0167664667
 20
45.7284249386
 10
63.0124603805
 20
45.7234411672
 10
63.0080491748
 20
45.7185455443
 10
63.0035334926
 20
45.7137402567
 10
62.998913977
 20
45.7090274913
 10
62.9942940112
 20
45.7045070812
 10
62.9895817939
 20
45.7000806903
 10
62.9847839117
 20
45.6957516233
 10
62.9799069513
 20
45.6915231852
 10
62.9749574993
 20
45.6873986807
 10
62.9699421422
 20
45.6833814147
 10
62.9648674668
 20
45.6794746919
  0
LWPOLYLINE
  5
288
100
AcDbEntity
  8
0
100
AcDbPolyline
 62
2
  6
CONTINUOUS
 90
53
 70
0
 10
64.1074903784
 20
45.9409638779
 10
64.1075707113
 20
45.9482387881
 10
64.1078115087
 20
45.955514019
 10
64.1082124682
 20
45.9627854478
 10
64.1087732876
 20
45.9700489517
 10
64.1094936648
 20
45.977300408
 10
64.1103732976
 20
45.9845356939
 10
64.1114118836
 20
45.9917506866
 10
64.1126091208
 20
45.9989412633
 10
64.1139647069
 20
46.0061033013
 10
64.1154967537
 20
46.0133155631
 10
64.1171894658
 20
46.0204909375
 10
64.1190417624
 20
46.0276259632
 10
64.1210525625
 20
46.0347171789
 10
64.1232207851
 20
46.0417611231
 10
64.1255453495
 20
46.0487543347
 10
64.1280251747
 20
46.0556933521
 10
64.1306591798
 20
46.0625747142
 10
64.1334462839
 20
46.0693949596
 10
64.1363511495
 20
46.0760743987
 10
64.1394031742
 20
46.0826876041
 10
64.1426009285
 20
46.0892314632
 10
64.1459429831
 20
46.0957028634
 10
64.1494279085
 20
46.1020986922
 10
64.1530542753
 20
46.108415837
 10
64.1568206542
 20
46.1146511852
 10
64.1607256157
 20
46.1208016243
 10
64.1647644644
 20
46.1268594161
 10
64.1689380806
 20
46.1328260552
 10
64.1732442883
 20
46.1386982762
 10
64.1776809113
 20
46.1444728135
 10
64.1822457735
 20
46.1501464019
 10
64.1869366988
 20
46.1557157757
 10
64.191751511
 20
46.1611776696
 10
64.1966880341
 20
46.1665288181
 10
64.2017440918
 20
46.1717659558
 10
64.2067806749
 20
46.1767534277
 10
64.2119264596
 20
46.1816268451
 10
64.2171793491
 20
46.1863833735
 10
64.2225372466
 20
46.1910201787
 10
64.2279980553
 20
46.1955344265
 10
64.2335596783
 20
46.1999232827
 10
64.239220019
 20
46.2041839129
 10
64.2446722151
 20
46.2080996809
 10
64.2502093479
 20
46.2118941975
 10
64.2558296168
 20
46.2155638647
 10
64.2615312213
 20
46.2191050845
 10
64.267312361
 20
46.222514259
 10
64.2731712353
 20
46.2257877904
 10
64.278889378
 20
46.2288099892
 10
64.2846770465
 20
46.2316949788
 10
64.2905332463
 20
46.2344348641
 10
64.2964569824
 20
46.2370217504
  0
LWPOLYLINE
  5
289
100
AcDbEntity
  8
0
100
AcDbPolyline
 62
2
  6
CONTINUOUS
 90
54
 70
0
 10
64.4008920842
 20
46.3854317223
 10
64.4008474255
 20
46.3817417927
 10
64.4007136212
 20
46.3780516238
 10
64.4004909282
 20
46.3743637381
 10
64.4001796041
 20
46.3706806577
 10
64.3997799058
 20
46.3670049049
 10
64.3992920908
 20
46.3633390021
 10
64.3987164163
 20
46.3596854716
 10
64.3980531394
 20
46.3560468355
 10
64.3973025175
 20
46.3524256163
 10
64.396546781
 20
46.3491596646
 10
64.3957200178
 20
46.3459115009
 10
64.3948227823
 20
46.3426825247
 10
64.3938556291
 20
46.339474135
 10
64.3928191125
 20
46.3362877312
 10
64.3917137871
 20
46.3331247127
 10
64.3905402075
 20
46.3299864785
 10
64.3892989279
 20
46.3268744281
 10
64.3879905031
 20
46.3237899606
 10
64.3866154873
 20
46.3207344754
 10
64.3851122491
 20
46.3175823796
 10
64.3835383325
 20
46.3144647384
 10
64.3818947866
 20
46.3113830064
 10
64.3801826605
 20
46.3083386385
 10
64.3784030032
 20
46.3053330894
 10
64.3765568639
 20
46.3023678137
 10
64.3746452916
 20
46.2994442663
 10
64.3726693354
 20
46.2965639018
 10
64.3706300443
 20
46.2937281749
 10
64.3685284675
 20
46.2909385405
 10
64.3662197382
 20
46.2880156964
 10
64.363843088
 20
46.285148065
 10
64.3614002491
 20
46.2823367771
 10
64.3588929536
 20
46.2795829633
 10
64.3563229339
 20
46.2768877545
 10
64.3536919219
 20
46.2742522812
 10
64.3510016501
 20
46.2716776743
 10
64.3482538505
 20
46.2691650643
 10
64.3454502554
 20
46.266715582
 10
64.34258484
 20
46.2643238313
 10
64.3396670517
 20
46.2619968229
 10
64.3366988734
 20
46.2597346926
 10
64.3336822883
 20
46.2575375765
 10
64.3306192794
 20
46.2554056105
 10
64.3275118298
 20
46.2533389306
 10
64.3243619225
 20
46.2513376728
 10
64.3211715405
 20
46.249401973
 10
64.3177508678
 20
46.2474233474
 10
64.3142896116
 20
46.2455170874
 10
64.3107903602
 20
46.2436818766
 10
64.3072557019
 20
46.2419163986
 10
64.3036882252
 20
46.240219337
 10
64.3000905185
 20
46.2385893754
 10
64.2964651701
 20
46.2370251974
  0
LWPOLYLINE
  5
28A
100
AcDbEntity
  8
0
100
AcDbPolyline
 62
2
  6
CONTINUOUS
 90
54
 70
0
 10
64.2964528502
 20
46.5338434336
 10
64.3000846469
 20
46.532276761
 10
64.3036885027
 20
46.5306443043
 10
64.3072618247
 20
46.5289446369
 10
64.31080202
 20
46.5271763324
 10
64.314306496
 20
46.5253379644
 10
64.3177726596
 20
46.5234281063
 10
64.3212315847
 20
46.5214255905
 10
64.3246463165
 20
46.519348562
 10
64.3280143796
 20
46.5171968726
 10
64.3313332981
 20
46.5149703742
 10
64.3346005964
 20
46.5126689188
 10
64.3378137988
 20
46.510292358
 10
64.340664167
 20
46.5080838901
 10
64.3434668233
 20
46.5058148354
 10
64.3462200988
 20
46.5034858551
 10
64.3489223247
 20
46.5010976102
 10
64.3515718321
 20
46.4986507617
 10
64.3541669519
 20
46.4961459707
 10
64.3567060154
 20
46.4935838982
 10
64.3591845661
 20
46.4909683653
 10
64.361604077
 20
46.4882976745
 10
64.3639631012
 20
46.4855731577
 10
64.3662601912
 20
46.4827961471
 10
64.3684938999
 20
46.4799679748
 10
64.3706627802
 20
46.4770899729
 10
64.3727653847
 20
46.4741634735
 10
64.3748002663
 20
46.4711898086
 10
64.3767478945
 20
46.468198945
 10
64.378626667
 20
46.4651646221
 10
64.3804356036
 20
46.4620883562
 10
64.3821737242
 20
46.4589716636
 10
64.3838400487
 20
46.4558160607
 10
64.385433597
 20
46.4526230637
 10
64.3869533889
 20
46.449394189
 10
64.3883254307
 20
46.4463009336
 10
64.389629654
 20
46.4431782007
 10
64.3908654302
 20
46.4400274045
 10
64.3920321305
 20
46.4368499593
 10
64.3931291263
 20
46.4336472792
 10
64.3941557889
 20
46.4304207784
 10
64.3951114896
 20
46.4271718712
 10
64.3959955997
 20
46.4239019718
 10
64.3968074905
 20
46.4206124944
 10
64.3975800876
 20
46.4171464956
 10
64.3982724518
 20
46.4136628381
 10
64.3988843256
 20
46.4101638039
 10
64.3994154515
 20
46.4066516753
 10
64.3998655721
 20
46.4031287344
 10
64.4002344299
 20
46.3995972635
 10
64.4005217674
 20
46.3960595446
 10
64.4007273273
 20
46.39251786
 10
64.4008508521
 20
46.3889744919
 10
64.4008920842
 20
46.3854317223
  0
LWPOLYLINE
  5
28B
100
AcDbEntity
  8
0
100
AcDbPolyline
 62
2
  6
CONTINUOUS
 90
34
 70
0
 10
62.9053263323
 20
46.5338413349
 10
62.9417969307
 20
46.5487243933
 10
62.9785874737
 20
46.5628033265
 10
63.0145555257
 20
46.575682259
 10
63.0507895315
 20
46.5877916942
 10
63.0914134064
 20
46.6003588068
 10
63.1323241505
 20
46.6119590453
 10
63.1704406502
 20
46.6218321691
 10
63.2087644526
 20
46.6308657517
 10
63.2449998781
 20
46.6385957184
 10
63.281387119
 20
46.645575209
 10
63.3140670583
 20
46.6511825155
 10
63.3468448866
 20
46.6561844502
 10
63.4057460784
 20
46.6636231692
 10
63.4567727539
 20
46.6684735932
 10
63.5015017773
 20
46.6715186041
 10
63.5419896723
 20
46.6733079028
 10
63.5808142571
 20
46.6741633662
 10
63.6189397245
 20
46.6741849546
 10
63.6566657423
 20
46.6734080207
 10
63.6948511447
 20
46.6718119097
 10
63.7351772656
 20
46.6692394951
 10
63.7799739543
 20
46.6653090299
 10
63.8312558002
 20
46.6594137966
 10
63.8850935175
 20
46.6516057522
 10
63.9404314407
 20
46.6418288761
 10
63.9962543146
 20
46.6301375587
 10
64.05301045
 20
46.6163295145
 10
64.1087688368
 20
46.600832866
 10
64.1397464665
 20
46.5913772116
 10
64.170548112
 20
46.5813635554
 10
64.2270392578
 20
46.5613760686
 10
64.2618925717
 20
46.5479699097
 10
64.2964578361
 20
46.5338413349
  0
LWPOLYLINE
  5
28C
100
AcDbEntity
  8
0
100
AcDbPolyline
 62
2
  6
CONTINUOUS
 90
42
 70
0
 10
62.8905747163
 20
46.5212899856
 10
62.8911291347
 20
46.5186649802
 10
62.8926254836
 20
46.5163817887
 10
62.8948134036
 20
46.5143921239
 10
62.8974425353
 20
46.5126476983
 10
62.9002625194
 20
46.5111002246
 10
62.9077379152
 20
46.5076349143
 10
62.9149285449
 20
46.5050005517
 10
62.9219859496
 20
46.5029380728
 10
62.9290616706
 20
46.5011884137
 10
62.9443980899
 20
46.4977806469
 10
62.9602012916
 20
46.4946472863
 10
62.9761866041
 20
46.4918249212
 10
63.008326273
 20
46.4870860818
 10
63.0403518747
 20
46.483265159
 10
63.080010956
 20
46.479219594
 10
63.1198072209
 20
46.4757426148
 10
63.2123853081
 20
46.4694624842
 10
63.3155608475
 20
46.4645960728
 10
63.4265194791
 20
46.4612761234
 10
63.5422345409
 20
46.4595931959
 10
63.6595496275
 20
46.4595931959
 10
63.7752646892
 20
46.4612761234
 10
63.8862233209
 20
46.4645960728
 10
63.9893988602
 20
46.4694624842
 10
64.0819769474
 20
46.4757426148
 10
64.1217732123
 20
46.479219594
 10
64.1614322937
 20
46.483265159
 10
64.1934578954
 20
46.4870860818
 10
64.2255975642
 20
46.4918249212
 10
64.2415828768
 20
46.4946472863
 10
64.2573860785
 20
46.4977806469
 10
64.2727224978
 20
46.5011884137
 10
64.2797982187
 20
46.5029380728
 10
64.2868556235
 20
46.5050005517
 10
64.2940462531
 20
46.5076349143
 10
64.3015216489
 20
46.5111002246
 10
64.304341633
 20
46.5126476983
 10
64.3069707647
 20
46.5143921239
 10
64.3091586847
 20
46.5163817887
 10
64.3106550336
 20
46.5186649802
 10
64.311209452
 20
46.5212899856
  0
LWPOLYLINE
  5
28D
100
AcDbEntity
  8
0
100
AcDbPolyline
 62
2
  6
CONTINUOUS
 90
42
 70
0
 10
62.8905747163
 20
46.249573459
 10
62.8911291347
 20
46.2469484536
 10
62.8926254836
 20
46.2446652621
 10
62.8948134036
 20
46.2426755973
 10
62.8974425353
 20
46.2409311717
 10
62.9002625194
 20
46.239383698
 10
62.9077379152
 20
46.2359183877
 10
62.9149285449
 20
46.2332840251
 10
62.9219859496
 20
46.2312215462
 10
62.9290616706
 20
46.229471887
 10
62.9443980899
 20
46.2260641202
 10
62.9602012916
 20
46.2229307597
 10
62.9761866041
 20
46.2201083946
 10
63.008326273
 20
46.2153695552
 10
63.0403518747
 20
46.2115486323
 10
63.080010956
 20
46.2075030674
 10
63.1198072209
 20
46.2040260882
 10
63.2123853081
 20
46.1977459576
 10
63.3155608475
 20
46.1928795461
 10
63.4265194791
 20
46.1895595968
 10
63.5422345409
 20
46.1878766692
 10
63.6595496275
 20
46.1878766692
 10
63.7752646892
 20
46.1895595968
 10
63.8862233209
 20
46.1928795461
 10
63.9893988602
 20
46.1977459576
 10
64.0819769474
 20
46.2040260882
 10
64.1217732123
 20
46.2075030674
 10
64.1614322937
 20
46.2115486323
 10
64.1934578954
 20
46.2153695552
 10
64.2255975642
 20
46.2201083946
 10
64.2415828768
 20
46.2229307597
 10
64.2573860785
 20
46.2260641202
 10
64.2727224978
 20
46.229471887
 10
64.2797982187
 20
46.2312215462
 10
64.2868556235
 20
46.2332840251
 10
64.2940462531
 20
46.2359183877
 10
64.3015216489
 20
46.239383698
 10
64.304341633
 20
46.2409311717
 10
64.3069707647
 20
46.2426755973
 10
64.3091586847
 20
46.2446652621
 10
64.3106550336
 20
46.2469484536
 10
64.311209452
 20
46.249573459
  0
LWPOLYLINE
  5
28E
100
AcDbEntity
  8
0
100
AcDbPolyline
 62
2
  6
CONTINUOUS
 90
38
 70
0
 10
62.5342254175
 20
43.4796307315
 10
62.534901321
 20
43.4761807049
 10
62.5367296796
 20
43.4731120756
 10
62.5394114648
 20
43.4703828715
 10
62.5426476487
 20
43.4679511202
 10
62.5461392029
 20
43.4657748495
 10
62.5581138945
 20
43.4597771407
 10
62.5698454498
 20
43.4555314006
 10
62.5816144247
 20
43.452228485
 10
62.6103373192
 20
43.4453157153
 10
62.6398586251
 20
43.4392942414
 10
62.6797393544
 20
43.4326646338
 10
62.7195707249
 20
43.4272610483
 10
62.8189700876
 20
43.4163977074
 10
62.9358362955
 20
43.4069468877
 10
63.0675587508
 20
43.3991197051
 10
63.2111949915
 20
43.3930910057
 10
63.3635364213
 20
43.3889954608
 10
63.5211799843
 20
43.3869245581
 10
63.680604184
 20
43.3869245581
 10
63.8382477471
 20
43.3889954608
 10
63.9905891768
 20
43.3930910057
 10
64.1342254175
 20
43.3991197051
 10
64.2659478728
 20
43.4069468877
 10
64.3828140808
 20
43.4163977074
 10
64.4822134434
 20
43.4272610483
 10
64.5220448139
 20
43.4326646338
 10
64.5619255433
 20
43.4392942414
 10
64.5914468492
 20
43.4453157153
 10
64.6201697437
 20
43.452228485
 10
64.6319387185
 20
43.4555314006
 10
64.6436702738
 20
43.4597771407
 10
64.6556449655
 20
43.4657748495
 10
64.6591365197
 20
43.4679511202
 10
64.6623727035
 20
43.4703828715
 10
64.6650544888
 20
43.4731120756
 10
64.6668828473
 20
43.4761807049
 10
64.6675587508
 20
43.4796307315
  0
LINE
  5
28F
100
AcDbEntity
  8
0
100
AcDbLine
 62
2
  6
CONTINUOUS
 10
64.6675587508
 20
45.6048460875
 11
64.6675587508
 21
43.4796307315
  0
LINE
  5
290
100
AcDbEntity
  8
0
100
AcDbLine
 62
2
  6
CONTINUOUS
 10
62.5342254175
 20
45.6048460875
 11
62.5342254175
 21
43.4796307315
  0
LWPOLYLINE
  5
291
100
AcDbEntity
  8
0
100
AcDbPolyline
 62
2
  6
CONTINUOUS
 90
38
 70
0
 10
62.5342254175
 20
45.6048460875
 10
62.534901321
 20
45.6013960608
 10
62.5367296796
 20
45.5983274316
 10
62.5394114648
 20
45.5955982275
 10
62.5426476487
 20
45.5931664762
 10
62.5461392029
 20
45.5909902054
 10
62.5581138945
 20
45.5849924966
 10
62.5698454498
 20
45.5807467565
 10
62.5816144247
 20
45.5774438409
 10
62.6103373192
 20
45.5705310712
 10
62.6398586251
 20
45.5645095973
 10
62.6797393544
 20
45.5578799897
 10
62.7195707249
 20
45.5524764042
 10
62.8189700876
 20
45.5416130633
 10
62.9358362955
 20
45.5321622437
 10
63.0675587508
 20
45.524335061
 10
63.2111949915
 20
45.5183063616
 10
63.3635364213
 20
45.5142108167
 10
63.5211799843
 20
45.512139914
 10
63.680604184
 20
45.512139914
 10
63.8382477471
 20
45.5142108167
 10
63.9905891768
 20
45.5183063616
 10
64.1342254175
 20
45.524335061
 10
64.2659478728
 20
45.5321622437
 10
64.3828140808
 20
45.5416130633
 10
64.4822134434
 20
45.5524764042
 10
64.5220448139
 20
45.5578799897
 10
64.5619255433
 20
45.5645095973
 10
64.5914468492
 20
45.5705310712
 10
64.6201697437
 20
45.5774438409
 10
64.6319387185
 20
45.5807467565
 10
64.6436702738
 20
45.5849924966
 10
64.6556449655
 20
45.5909902054
 10
64.6591365197
 20
45.5931664762
 10
64.6623727035
 20
45.5955982275
 10
64.6650544888
 20
45.5983274316
 10
64.6668828473
 20
45.6013960608
 10
64.6675587508
 20
45.6048460875
  0
LWPOLYLINE
  5
292
100
AcDbEntity
  8
0
100
AcDbPolyline
 62
2
  6
CONTINUOUS
 90
39
 70
0
 10
64.2369265165
 20
45.6794740568
 10
64.2659478728
 20
45.6775299313
 10
64.2951779461
 20
45.6754306774
 10
64.3243970838
 20
45.6731707654
 10
64.3536081681
 20
45.6707277313
 10
64.3828140808
 20
45.6680791116
 10
64.4077159525
 20
45.665641381
 10
64.4325963457
 20
45.6630260641
 10
64.4574354471
 20
45.6602214358
 10
64.4822134434
 20
45.6572157707
 10
64.4981566923
 20
45.6551583972
 10
64.514082903
 20
45.6529694531
 10
64.5300086992
 20
45.6506058765
 10
64.5459507047
 20
45.6480246054
 10
64.5619255433
 20
45.6451825777
 10
64.5737679408
 20
45.6428904665
 10
64.5855754938
 20
45.6404414636
 10
64.5972862681
 20
45.637845092
 10
64.6088383294
 20
45.6351108745
 10
64.6201697437
 20
45.632248334
 10
64.6246053031
 20
45.6310688662
 10
64.6290109421
 20
45.6298279299
 10
64.6334014557
 20
45.6284828554
 10
64.6377916389
 20
45.6269909729
 10
64.6421962865
 20
45.6253096128
 10
64.6466301935
 20
45.6233961054
 10
64.6511081549
 20
45.6212077808
 10
64.6556449655
 20
45.6187019695
 10
64.6572445966
 20
45.6177417463
 10
64.6588251649
 20
45.6167334679
 10
64.6603585873
 20
45.6156731927
 10
64.6618167808
 20
45.6145569788
 10
64.6631716624
 20
45.6133808845
 10
64.664395149
 20
45.6121409678
 10
64.6654591575
 20
45.6108332871
 10
64.6663356051
 20
45.6094539005
 10
64.6669964085
 20
45.6079988663
 10
64.6674134847
 20
45.6064642425
 10
64.6675587508
 20
45.6048460875
  0
LWPOLYLINE
  5
293
100
AcDbEntity
  8
0
100
AcDbPolyline
 62
2
  6
CONTINUOUS
 90
48
 70
0
 10
64.2369265165
 20
45.6794740568
 10
64.2289991819
 20
45.6855884085
 10
64.2242568557
 20
45.6894512092
 10
64.2196032964
 20
45.693402269
 10
64.2150364594
 20
45.6974405809
 10
64.2105543002
 20
45.7015651381
 10
64.2061547744
 20
45.7057749336
 10
64.2018358373
 20
45.7100689603
 10
64.1975288077
 20
45.7145168477
 10
64.1933049052
 20
45.7190484356
 10
64.1891661746
 20
45.7236615107
 10
64.1851146609
 20
45.7283538601
 10
64.1811524089
 20
45.7331232707
 10
64.1772814634
 20
45.7379675293
 10
64.1735038695
 20
45.7428844229
 10
64.1698216718
 20
45.7478717383
 10
64.1661229639
 20
45.7530911367
 10
64.1625288489
 20
45.7583813313
 10
64.1590401067
 20
45.763740449
 10
64.1556575172
 20
45.7691666171
 10
64.1523818604
 20
45.7746579627
 10
64.1492139163
 20
45.7802126129
 10
64.1459898601
 20
45.7861383917
 10
64.1428877602
 20
45.7921298026
 10
64.1399088523
 20
45.7981841222
 10
64.1370543719
 20
45.8042986268
 10
64.1343255545
 20
45.8104705929
 10
64.1317236359
 20
45.8166972971
 10
64.1292498515
 20
45.8229760156
 10
64.1270656193
 20
45.8288584984
 10
64.1249938345
 20
45.8347815641
 10
64.1230350921
 20
45.840743179
 10
64.1211899872
 20
45.8467413094
 10
64.1194591147
 20
45.8527739215
 10
64.1178430696
 20
45.8588389817
 10
64.1163424471
 20
45.8649344562
 10
64.114957842
 20
45.8710583114
 10
64.1136898494
 20
45.8772085135
 10
64.1125152227
 20
45.8835177609
 10
64.1114632116
 20
45.8898494875
 10
64.1105340586
 20
45.8962007876
 10
64.1097280062
 20
45.9025687557
 10
64.1090452967
 20
45.9089504862
 10
64.1084861726
 20
45.9153430734
 10
64.1080508763
 20
45.9217436118
 10
64.1077396502
 20
45.9281491958
 10
64.1075527368
 20
45.9345569196
 10
64.1074903784
 20
45.9409638779
  0
LWPOLYLINE
  5
294
100
AcDbEntity
  8
0
100
AcDbPolyline
 62
2
  6
CONTINUOUS
 90
50
 70
0
 10
62.9053408791
 20
46.2370159877
 10
62.9130417706
 20
46.233615068
 10
62.9206268136
 20
46.2299596962
 10
62.9279738412
 20
46.2261342884
 10
62.9352044237
 20
46.222092599
 10
62.9423155844
 20
46.2178440479
 10
62.9494120195
 20
46.2133267816
 10
62.956378728
 20
46.2086121384
 10
62.9632122192
 20
46.203706374
 10
62.9689106053
 20
46.1993928745
 10
62.9745081877
 20
46.1949490364
 10
62.9800028383
 20
46.1903779569
 10
62.9853924293
 20
46.1856827336
 10
62.9912857342
 20
46.1802951851
 10
62.9970422365
 20
46.1747607589
 10
63.0026588695
 20
46.1690836046
 10
63.0081325664
 20
46.1632678717
 10
63.0134602604
 20
46.1573177099
 10
63.0180912386
 20
46.1518949405
 10
63.0226014864
 20
46.1463713479
 10
63.0269891073
 20
46.140749964
 10
63.0312522049
 20
46.1350338209
 10
63.0353888828
 20
46.1292259503
 10
63.0393972448
 20
46.1233293842
 10
63.0433194271
 20
46.1172776388
 10
63.0471068861
 20
46.1111411178
 10
63.0507581314
 20
46.1049226964
 10
63.0542716726
 20
46.0986252497
 10
63.0576460191
 20
46.0922516528
 10
63.0610127846
 20
46.0855317947
 10
63.0642252513
 20
46.0787361355
 10
63.0672819047
 20
46.0718684508
 10
63.0701812305
 20
46.0649325166
 10
63.0729217142
 20
46.0579321087
 10
63.0755018414
 20
46.0508710027
 10
63.0779288511
 20
46.0437264478
 10
63.0801918139
 20
46.0365281123
 10
63.0822897563
 20
46.0292795605
 10
63.0842217045
 20
46.0219843568
 10
63.0859866848
 20
46.0146460655
 10
63.0875837236
 20
46.0072682508
 10
63.089011847
 20
45.9998544772
 10
63.0902470541
 20
45.9925553667
 10
63.0913186588
 20
45.9852295765
 10
63.0922263245
 20
45.9778815587
 10
63.0929697147
 20
45.9705157653
 10
63.0935484928
 20
45.9631366485
 10
63.0939623224
 20
45.9557486603
 10
63.094210867
 20
45.9483562527
 10
63.0942937899
 20
45.9409638779
  0
LWPOLYLINE
  5
295
100
AcDbEntity
  8
0
100
AcDbPolyline
 62
2
  6
CONTINUOUS
 90
54
 70
0
 10
62.9053313182
 20
46.237020011
 10
62.9016995214
 20
46.2385866836
 10
62.8980956657
 20
46.2402191403
 10
62.8945223437
 20
46.2419188077
 10
62.8909821483
 20
46.2436871122
 10
62.8874776724
 20
46.2455254802
 10
62.8840115087
 20
46.2474353383
 10
62.8805525837
 20
46.2494378541
 10
62.8771378518
 20
46.2515148826
 10
62.8737697888
 20
46.253666572
 10
62.8704508703
 20
46.2558930704
 10
62.8671835719
 20
46.2581945259
 10
62.8639703695
 20
46.2605710866
 10
62.8611200014
 20
46.2627795545
 10
62.8583173451
 20
46.2650486092
 10
62.8555640695
 20
46.2673775895
 10
62.8528618436
 20
46.2697658344
 10
62.8502123363
 20
46.2722126829
 10
62.8476172164
 20
46.2747174739
 10
62.8450781529
 20
46.2772795464
 10
62.8425996023
 20
46.2798950793
 10
62.8401800913
 20
46.2825657702
 10
62.8378210672
 20
46.2852902869
 10
62.8355239772
 20
46.2880672975
 10
62.8332902684
 20
46.2908954698
 10
62.8311213882
 20
46.2937734717
 10
62.8290187837
 20
46.2966999711
 10
62.826983902
 20
46.299673636
 10
62.8250362738
 20
46.3026644996
 10
62.8231575014
 20
46.3056988225
 10
62.8213485648
 20
46.3087750884
 10
62.8196104441
 20
46.311891781
 10
62.8179441196
 20
46.3150473839
 10
62.8163505713
 20
46.3182403809
 10
62.8148307794
 20
46.3214692556
 10
62.8134587376
 20
46.324562511
 10
62.8121545143
 20
46.3276852439
 10
62.8109187382
 20
46.3308360401
 10
62.8097520378
 20
46.3340134853
 10
62.808655042
 20
46.3372161654
 10
62.8076283795
 20
46.3404426662
 10
62.8066726788
 20
46.3436915734
 10
62.8057885687
 20
46.3469614728
 10
62.8049766778
 20
46.3502509502
 10
62.8042040807
 20
46.353716949
 10
62.8035117165
 20
46.3572006065
 10
62.8028998428
 20
46.3606996407
 10
62.8023687169
 20
46.3642117693
 10
62.8019185963
 20
46.3677347102
 10
62.8015497385
 20
46.3712661811
 10
62.8012624009
 20
46.3748039
 10
62.801056841
 20
46.3783455846
 10
62.8009333163
 20
46.3818889528
 10
62.8008920842
 20
46.3854317223
  0
LWPOLYLINE
  5
296
100
AcDbEntity
  8
0
100
AcDbPolyline
 62
2
  6
CONTINUOUS
 90
54
 70
0
 10
62.8008920842
 20
46.3854317223
 10
62.8009367428
 20
46.3891216519
 10
62.8010705472
 20
46.3928118208
 10
62.8012932401
 20
46.3964997065
 10
62.8016045643
 20
46.4001827869
 10
62.8020042625
 20
46.4038585397
 10
62.8024920775
 20
46.4075244425
 10
62.8030677521
 20
46.411177973
 10
62.8037310289
 20
46.4148166091
 10
62.8044816509
 20
46.4184378283
 10
62.8052373873
 20
46.42170378
 10
62.8060641505
 20
46.4249519437
 10
62.806961386
 20
46.42818092
 10
62.8079285393
 20
46.4313893096
 10
62.8089650558
 20
46.4345757134
 10
62.8100703812
 20
46.437738732
 10
62.8112439609
 20
46.4408769661
 10
62.8124852404
 20
46.4439890165
 10
62.8137936653
 20
46.447073484
 10
62.815168681
 20
46.4501289692
 10
62.8166719192
 20
46.453281065
 10
62.8182458359
 20
46.4563987062
 10
62.8198893818
 20
46.4594804382
 10
62.8216015079
 20
46.4625248061
 10
62.8233811652
 20
46.4655303552
 10
62.8252273045
 20
46.4684956309
 10
62.8271388768
 20
46.4714191784
 10
62.829114833
 20
46.4742995429
 10
62.831154124
 20
46.4771352697
 10
62.8332557008
 20
46.4799249041
 10
62.8355644301
 20
46.4828477483
 10
62.8379410803
 20
46.4857153796
 10
62.8403839193
 20
46.4885266675
 10
62.8428912147
 20
46.4912804813
 10
62.8454612345
 20
46.4939756901
 10
62.8480922464
 20
46.4966111634
 10
62.8507825182
 20
46.4991857703
 10
62.8535303178
 20
46.5016983803
 10
62.8563339129
 20
46.5041478626
 10
62.8591993283
 20
46.5065396133
 10
62.8621171167
 20
46.5088666218
 10
62.8650852949
 20
46.511128752
 10
62.86810188
 20
46.5133258681
 10
62.8711648889
 20
46.5154578341
 10
62.8742723385
 20
46.517524514
 10
62.8774222459
 20
46.5195257718
 10
62.8806126278
 20
46.5214614716
 10
62.8840333005
 20
46.5234400972
 10
62.8874945567
 20
46.5253463573
 10
62.8909938082
 20
46.527181568
 10
62.8945284664
 20
46.528947046
 10
62.8980959431
 20
46.5306441076
 10
62.9016936499
 20
46.5322740692
 10
62.9053189983
 20
46.5338382472
  0
LWPOLYLINE
  5
297
100
AcDbEntity
  8
0
100
AcDbPolyline
 62
2
  6
CONTINUOUS
 90
34
 70
0
 10
62.9053263323
 20
46.5338413349
 10
62.9417969307
 20
46.5487243933
 10
62.9785874737
 20
46.5628033265
 10
63.0145555257
 20
46.575682259
 10
63.0507895315
 20
46.5877916942
 10
63.0914134064
 20
46.6003588068
 10
63.1323241505
 20
46.6119590453
 10
63.1704406502
 20
46.6218321691
 10
63.2087644526
 20
46.6308657517
 10
63.2449998781
 20
46.6385957184
 10
63.281387119
 20
46.645575209
 10
63.3140670583
 20
46.6511825155
 10
63.3468448866
 20
46.6561844502
 10
63.4057460784
 20
46.6636231692
 10
63.4567727539
 20
46.6684735932
 10
63.5015017773
 20
46.6715186041
 10
63.5419896723
 20
46.6733079028
 10
63.5808142571
 20
46.6741633662
 10
63.6189397245
 20
46.6741849546
 10
63.6566657423
 20
46.6734080207
 10
63.6948511447
 20
46.6718119097
 10
63.7351772656
 20
46.6692394951
 10
63.7799739543
 20
46.6653090299
 10
63.8312558002
 20
46.6594137966
 10
63.8850935175
 20
46.6516057522
 10
63.9404314407
 20
46.6418288761
 10
63.9962543146
 20
46.6301375587
 10
64.05301045
 20
46.6163295145
 10
64.1087688368
 20
46.600832866
 10
64.1397464665
 20
46.5913772116
 10
64.170548112
 20
46.5813635554
 10
64.2270392578
 20
46.5613760686
 10
64.2618925717
 20
46.5479699097
 10
64.2964578361
 20
46.5338413349
  0
LWPOLYLINE
  5
298
100
AcDbEntity
  8
0
100
AcDbPolyline
 62
2
  6
CONTINUOUS
 90
42
 70
0
 10
62.8905747163
 20
46.5212899856
 10
62.8911291347
 20
46.5186649802
 10
62.8926254836
 20
46.5163817887
 10
62.8948134036
 20
46.5143921239
 10
62.8974425353
 20
46.5126476983
 10
62.9002625194
 20
46.5111002246
 10
62.9077379152
 20
46.5076349143
 10
62.9149285449
 20
46.5050005517
 10
62.9219859496
 20
46.5029380728
 10
62.9290616706
 20
46.5011884137
 10
62.9443980899
 20
46.4977806469
 10
62.9602012916
 20
46.4946472863
 10
62.9761866041
 20
46.4918249212
 10
63.008326273
 20
46.4870860818
 10
63.0403518747
 20
46.483265159
 10
63.080010956
 20
46.479219594
 10
63.1198072209
 20
46.4757426148
 10
63.2123853081
 20
46.4694624842
 10
63.3155608475
 20
46.4645960728
 10
63.4265194791
 20
46.4612761234
 10
63.5422345409
 20
46.4595931959
 10
63.6595496275
 20
46.4595931959
 10
63.7752646892
 20
46.4612761234
 10
63.8862233209
 20
46.4645960728
 10
63.9893988602
 20
46.4694624842
 10
64.0819769474
 20
46.4757426148
 10
64.1217732123
 20
46.479219594
 10
64.1614322937
 20
46.483265159
 10
64.1934578954
 20
46.4870860818
 10
64.2255975642
 20
46.4918249212
 10
64.2415828768
 20
46.4946472863
 10
64.2573860785
 20
46.4977806469
 10
64.2727224978
 20
46.5011884137
 10
64.2797982187
 20
46.5029380728
 10
64.2868556235
 20
46.5050005517
 10
64.2940462531
 20
46.5076349143
 10
64.3015216489
 20
46.5111002246
 10
64.304341633
 20
46.5126476983
 10
64.3069707647
 20
46.5143921239
 10
64.3091586847
 20
46.5163817887
 10
64.3106550336
 20
46.5186649802
 10
64.311209452
 20
46.5212899856
  0
LWPOLYLINE
  5
299
100
AcDbEntity
  8
0
100
AcDbPolyline
 62
2
  6
CONTINUOUS
 90
42
 70
0
 10
62.8905747163
 20
46.249573459
 10
62.8911291347
 20
46.2469484536
 10
62.8926254836
 20
46.2446652621
 10
62.8948134036
 20
46.2426755973
 10
62.8974425353
 20
46.2409311717
 10
62.9002625194
 20
46.239383698
 10
62.9077379152
 20
46.2359183877
 10
62.9149285449
 20
46.2332840251
 10
62.9219859496
 20
46.2312215462
 10
62.9290616706
 20
46.229471887
 10
62.9443980899
 20
46.2260641202
 10
62.9602012916
 20
46.2229307597
 10
62.9761866041
 20
46.2201083946
 10
63.008326273
 20
46.2153695552
 10
63.0403518747
 20
46.2115486323
 10
63.080010956
 20
46.2075030674
 10
63.1198072209
 20
46.2040260882
 10
63.2123853081
 20
46.1977459576
 10
63.3155608475
 20
46.1928795461
 10
63.4265194791
 20
46.1895595968
 10
63.5422345409
 20
46.1878766692
 10
63.6595496275
 20
46.1878766692
 10
63.7752646892
 20
46.1895595968
 10
63.8862233209
 20
46.1928795461
 10
63.9893988602
 20
46.1977459576
 10
64.0819769474
 20
46.2040260882
 10
64.1217732123
 20
46.2075030674
 10
64.1614322937
 20
46.2115486323
 10
64.1934578954
 20
46.2153695552
 10
64.2255975642
 20
46.2201083946
 10
64.2415828768
 20
46.2229307597
 10
64.2573860785
 20
46.2260641202
 10
64.2727224978
 20
46.229471887
 10
64.2797982187
 20
46.2312215462
 10
64.2868556235
 20
46.2332840251
 10
64.2940462531
 20
46.2359183877
 10
64.3015216489
 20
46.239383698
 10
64.304341633
 20
46.2409311717
 10
64.3069707647
 20
46.2426755973
 10
64.3091586847
 20
46.2446652621
 10
64.3106550336
 20
46.2469484536
 10
64.311209452
 20
46.249573459
  0
LWPOLYLINE
  5
29A
100
AcDbEntity
  8
0
100
AcDbPolyline
 62
2
  6
CONTINUOUS
 90
53
 70
0
 10
64.1074903784
 20
45.9409638779
 10
64.1075707113
 20
45.9482387881
 10
64.1078115087
 20
45.955514019
 10
64.1082124682
 20
45.9627854478
 10
64.1087732876
 20
45.9700489517
 10
64.1094936648
 20
45.977300408
 10
64.1103732976
 20
45.9845356939
 10
64.1114118836
 20
45.9917506866
 10
64.1126091208
 20
45.9989412633
 10
64.1139647069
 20
46.0061033013
 10
64.1154967537
 20
46.0133155631
 10
64.1171894658
 20
46.0204909375
 10
64.1190417624
 20
46.0276259632
 10
64.1210525625
 20
46.0347171789
 10
64.1232207851
 20
46.0417611231
 10
64.1255453495
 20
46.0487543347
 10
64.1280251747
 20
46.0556933521
 10
64.1306591798
 20
46.0625747142
 10
64.1334462839
 20
46.0693949596
 10
64.1363511495
 20
46.0760743987
 10
64.1394031742
 20
46.0826876041
 10
64.1426009285
 20
46.0892314632
 10
64.1459429831
 20
46.0957028634
 10
64.1494279085
 20
46.1020986922
 10
64.1530542753
 20
46.108415837
 10
64.1568206542
 20
46.1146511852
 10
64.1607256157
 20
46.1208016243
 10
64.1647644644
 20
46.1268594161
 10
64.1689380806
 20
46.1328260552
 10
64.1732442883
 20
46.1386982762
 10
64.1776809113
 20
46.1444728135
 10
64.1822457735
 20
46.1501464019
 10
64.1869366988
 20
46.1557157757
 10
64.191751511
 20
46.1611776696
 10
64.1966880341
 20
46.1665288181
 10
64.2017440918
 20
46.1717659558
 10
64.2067806749
 20
46.1767534277
 10
64.2119264596
 20
46.1816268451
 10
64.2171793491
 20
46.1863833735
 10
64.2225372466
 20
46.1910201787
 10
64.2279980553
 20
46.1955344265
 10
64.2335596783
 20
46.1999232827
 10
64.239220019
 20
46.2041839129
 10
64.2446722151
 20
46.2080996809
 10
64.2502093479
 20
46.2118941975
 10
64.2558296168
 20
46.2155638647
 10
64.2615312213
 20
46.2191050845
 10
64.267312361
 20
46.222514259
 10
64.2731712353
 20
46.2257877904
 10
64.278889378
 20
46.2288099892
 10
64.2846770465
 20
46.2316949788
 10
64.2905332463
 20
46.2344348641
 10
64.2964569824
 20
46.2370217504
  0
LWPOLYLINE
  5
29B
100
AcDbEntity
  8
0
100
AcDbPolyline
 62
2
  6
CONTINUOUS
 90
54
 70
0
 10
64.4008920842
 20
46.3854317223
 10
64.4008474255
 20
46.3817417927
 10
64.4007136212
 20
46.3780516238
 10
64.4004909282
 20
46.3743637381
 10
64.4001796041
 20
46.3706806577
 10
64.3997799058
 20
46.3670049049
 10
64.3992920908
 20
46.3633390021
 10
64.3987164163
 20
46.3596854716
 10
64.3980531394
 20
46.3560468355
 10
64.3973025175
 20
46.3524256163
 10
64.396546781
 20
46.3491596646
 10
64.3957200178
 20
46.3459115009
 10
64.3948227823
 20
46.3426825247
 10
64.3938556291
 20
46.339474135
 10
64.3928191125
 20
46.3362877312
 10
64.3917137871
 20
46.3331247127
 10
64.3905402075
 20
46.3299864785
 10
64.3892989279
 20
46.3268744281
 10
64.3879905031
 20
46.3237899606
 10
64.3866154873
 20
46.3207344754
 10
64.3851122491
 20
46.3175823796
 10
64.3835383325
 20
46.3144647384
 10
64.3818947866
 20
46.3113830064
 10
64.3801826605
 20
46.3083386385
 10
64.3784030032
 20
46.3053330894
 10
64.3765568639
 20
46.3023678137
 10
64.3746452916
 20
46.2994442663
 10
64.3726693354
 20
46.2965639018
 10
64.3706300443
 20
46.2937281749
 10
64.3685284675
 20
46.2909385405
 10
64.3662197382
 20
46.2880156964
 10
64.363843088
 20
46.285148065
 10
64.3614002491
 20
46.2823367771
 10
64.3588929536
 20
46.2795829633
 10
64.3563229339
 20
46.2768877545
 10
64.3536919219
 20
46.2742522812
 10
64.3510016501
 20
46.2716776743
 10
64.3482538505
 20
46.2691650643
 10
64.3454502554
 20
46.266715582
 10
64.34258484
 20
46.2643238313
 10
64.3396670517
 20
46.2619968229
 10
64.3366988734
 20
46.2597346926
 10
64.3336822883
 20
46.2575375765
 10
64.3306192794
 20
46.2554056105
 10
64.3275118298
 20
46.2533389306
 10
64.3243619225
 20
46.2513376728
 10
64.3211715405
 20
46.249401973
 10
64.3177508678
 20
46.2474233474
 10
64.3142896116
 20
46.2455170874
 10
64.3107903602
 20
46.2436818766
 10
64.3072557019
 20
46.2419163986
 10
64.3036882252
 20
46.240219337
 10
64.3000905185
 20
46.2385893754
 10
64.2964651701
 20
46.2370251974
  0
LWPOLYLINE
  5
29C
100
AcDbEntity
  8
0
100
AcDbPolyline
 62
2
  6
CONTINUOUS
 90
54
 70
0
 10
64.2964528502
 20
46.5338434336
 10
64.3000846469
 20
46.532276761
 10
64.3036885027
 20
46.5306443043
 10
64.3072618247
 20
46.5289446369
 10
64.31080202
 20
46.5271763324
 10
64.314306496
 20
46.5253379644
 10
64.3177726596
 20
46.5234281063
 10
64.3212315847
 20
46.5214255905
 10
64.3246463165
 20
46.519348562
 10
64.3280143796
 20
46.5171968726
 10
64.3313332981
 20
46.5149703742
 10
64.3346005964
 20
46.5126689188
 10
64.3378137988
 20
46.510292358
 10
64.340664167
 20
46.5080838901
 10
64.3434668233
 20
46.5058148354
 10
64.3462200988
 20
46.5034858551
 10
64.3489223247
 20
46.5010976102
 10
64.3515718321
 20
46.4986507617
 10
64.3541669519
 20
46.4961459707
 10
64.3567060154
 20
46.4935838982
 10
64.3591845661
 20
46.4909683653
 10
64.361604077
 20
46.4882976745
 10
64.3639631012
 20
46.4855731577
 10
64.3662601912
 20
46.4827961471
 10
64.3684938999
 20
46.4799679748
 10
64.3706627802
 20
46.4770899729
 10
64.3727653847
 20
46.4741634735
 10
64.3748002663
 20
46.4711898086
 10
64.3767478945
 20
46.468198945
 10
64.378626667
 20
46.4651646221
 10
64.3804356036
 20
46.4620883562
 10
64.3821737242
 20
46.4589716636
 10
64.3838400487
 20
46.4558160607
 10
64.385433597
 20
46.4526230637
 10
64.3869533889
 20
46.449394189
 10
64.3883254307
 20
46.4463009336
 10
64.389629654
 20
46.4431782007
 10
64.3908654302
 20
46.4400274045
 10
64.3920321305
 20
46.4368499593
 10
64.3931291263
 20
46.4336472792
 10
64.3941557889
 20
46.4304207784
 10
64.3951114896
 20
46.4271718712
 10
64.3959955997
 20
46.4239019718
 10
64.3968074905
 20
46.4206124944
 10
64.3975800876
 20
46.4171464956
 10
64.3982724518
 20
46.4136628381
 10
64.3988843256
 20
46.4101638039
 10
64.3994154515
 20
46.4066516753
 10
64.3998655721
 20
46.4031287344
 10
64.4002344299
 20
46.3995972635
 10
64.4005217674
 20
46.3960595446
 10
64.4007273273
 20
46.39251786
 10
64.4008508521
 20
46.3889744919
 10
64.4008920842
 20
46.3854317223
  0
ENDBLK
  5
29D
100
AcDbEntity
  8
0
  6
BYBLOCK
 62
0
100
AcDbBlockEnd
  0
BLOCK
  5
29E
100
AcDbEntity
  8
0
100
AcDbBlockBegin
 62
2
  6
CONTINUOUS
  2
PROJEKTION_BL0
 70
64
 10
90.3860895974
 20
50.858115361
  3
PROJEKTION_BL0
  1

  0
LINE
  5
29F
100
AcDbEntity
  8
DEFAULT_1
100
AcDbLine
 62
2
  6
CENTER
 10
93.1995255315
 20
48.608115361
 11
93.1995255315
 21
53.108115361
  0
LINE
  5
2A0
100
AcDbEntity
  8
DEFAULT_1
100
AcDbLine
 62
2
  6
CENTER
 10
90.9495255315
 20
50.858115361
 11
95.4495255315
 21
50.858115361
  0
LINE
  5
2A1
100
AcDbEntity
  8
DEFAULT_1
100
AcDbLine
 62
2
  6
CENTER
 10
85.3226536634
 20
50.8792673392
 11
90.3251797677
 21
50.8792673392
  0
LINE
  5
2A2
100
AcDbEntity
  8
0
100
AcDbLine
 62
2
  6
CONTINUOUS
 10
93.1995255315
 20
50.858115361
 11
93.1995255315
 21
50.8812192916
  0
LINE
  5
2A3
100
AcDbEntity
  8
0
100
AcDbLine
 62
2
  6
CONTINUOUS
 10
90.0351475586
 20
48.889365361
 11
90.0351475586
 21
52.826865361
  0
CIRCLE
  5
2A4
100
AcDbEntity
  8
0
100
AcDbCircle
 62
2
  6
CONTINUOUS
 10
93.1995255315
 20
50.858115361
 40
1.125
  0
LINE
  5
2A5
100
AcDbEntity
  8
0
100
AcDbLine
 62
2
  6
CONTINUOUS
 10
85.7457695858
 20
49.733115361
 11
85.7457695858
 21
51.983115361
  0
CIRCLE
  5
2A6
100
AcDbEntity
  8
0
100
AcDbCircle
 62
2
  6
CONTINUOUS
 10
93.1995255315
 20
50.858115361
 40
1.96875
  0
LINE
  5
2A7
100
AcDbEntity
  8
0
100
AcDbLine
 62
2
  6
CONTINUOUS
 10
85.7457695858
 20
51.983115361
 11
90.0351475586
 21
52.826865361
  0
LINE
  5
2A8
100
AcDbEntity
  8
0
100
AcDbLine
 62
2
  6
CONTINUOUS
 10
85.7457695858
 20
49.733115361
 11
90.0351475586
 21
48.889365361
  0
ENDBLK
  5
2A9
100
AcDbEntity
  8
0
  6
BYBLOCK
 62
0
100
AcDbBlockEnd
  0
BLOCK
  5
2AA
100
AcDbEntity
  8
0
100
AcDbBlockBegin
  2
_FILLED
 70
64
 10
0.0
 20
0.0
  3
_FILLED
  1

  0
SOLID
  5
2AB
100
AcDbEntity
  8
0
  6
BYBLOCK
 62
0
100
AcDbTrace
 10
0.0
 20
0.0
 11
-1.0
 21
0.125
 12
-1.0
 22
-0.125
 13
-1.0
 23
-0.125
  0
ENDBLK
  5
2AC
100
AcDbEntity
  8
0
  6
BYBLOCK
 62
0
100
AcDbBlockEnd
  0
BLOCK
  5
2AD
100
AcDbEntity
  8
ZEICHNUNGSBEMASSUNGEN
100
AcDbBlockBegin
 62
2
  6
CONTINUOUS
  2
*D0
 70
65
 10
0.0
 20
0.0
  3
*D0
  1

  0
MTEXT
  5
2AE
100
AcDbEntity
  8
ZEICHNUNGSBEMASSUNGEN
100
AcDbMText
 62
5
  6
CONTINUOUS
  7
STANDARD
 71
2
 72
1
 10
23.7506459533
 20
176.2148477752
 30
0.0
 11
0.0
 21
1.0
 31
0.0
 73
2
 44
0.9
  1
\Q15.0;80{\ftxt.shx;\W1.000000;\H3.500000; }[3.15]
 40
3.5
 41
31.5
  0
LINE
  5
2AF
100
AcDbEntity
  8
ZEICHNUNGSBEMASSUNGEN
100
AcDbLine
 62
2
  6
CONTINUOUS
 10
43.1352514484
 20
134.7117396338
 11
26.6565126111
 21
134.7117396338
  0
LINE
  5
2B0
100
AcDbEntity
  8
ZEICHNUNGSBEMASSUNGEN
100
AcDbLine
 62
2
  6
CONTINUOUS
 10
43.1352514484
 20
214.7117396338
 11
26.6565126111
 21
214.7117396338
  0
LINE
  5
2B1
100
AcDbEntity
  8
ZEICHNUNGSBEMASSUNGEN
100
AcDbLine
 62
2
  6
CONTINUOUS
 10
28.1565126111
 20
134.7117396338
 11
28.1565126111
 21
174.7117396338
  0
LINE
  5
2B2
100
AcDbEntity
  8
ZEICHNUNGSBEMASSUNGEN
100
AcDbLine
 62
2
  6
CONTINUOUS
 10
28.1565126111
 20
214.7117396338
 11
28.1565126111
 21
174.7117396338
  0
INSERT
  5
2B3
100
AcDbEntity
  8
ZEICHNUNGSBEMASSUNGEN
100
AcDbBlockReference
 62
2
  6
CONTINUOUS
  2
_FILLED
 10
28.1565126111
 20
134.7117396338
 41
3.5
 42
3.5
 43
3.5
 50
270.0
  0
INSERT
  5
2B4
100
AcDbEntity
  8
ZEICHNUNGSBEMASSUNGEN
100
AcDbBlockReference
 62
2
  6
CONTINUOUS
  2
_FILLED
 10
28.1565126111
 20
214.7117396338
 41
3.5
 42
3.5
 43
3.5
 50
90.0
  0
ENDBLK
  5
2B5
100
AcDbEntity
  8
0
  6
BYBLOCK
 62
0
100
AcDbBlockEnd
  0
BLOCK
  5
2B6
100
AcDbEntity
  8
ZEICHNUNGSBEMASSUNGEN
100
AcDbBlockBegin
 62
2
  6
CONTINUOUS
  2
*D1
 70
65
 10
0.0
 20
0.0
  3
*D1
  1

  0
MTEXT
  5
2B7
100
AcDbEntity
  8
ZEICHNUNGSBEMASSUNGEN
100
AcDbMText
 62
5
  6
CONTINUOUS
  7
TEXTSTYLE_2
 71
2
 72
1
 10
61.6580715913
 20
231.1177293464
 30
0.0
 11
1.0
 21
0.0
 31
0.0
 73
2
 44
0.9
  1
\Q15.0;{\fgdt;n}\ftxt;40{\ftxt.shx;\W1.000000;\H3.500000; }[1.57]
 40
3.5
 41
38.875
  0
LINE
  5
2B8
100
AcDbEntity
  8
ZEICHNUNGSBEMASSUNGEN
100
AcDbLine
 62
2
  6
CONTINUOUS
 10
40.1352514484
 20
211.7117396338
 11
40.1352514484
 21
228.2118626885
  0
LINE
  5
2B9
100
AcDbEntity
  8
ZEICHNUNGSBEMASSUNGEN
100
AcDbLine
 62
2
  6
CONTINUOUS
 10
80.1352514484
 20
211.7117396338
 11
80.1352514484
 21
228.2118626885
  0
LINE
  5
2BA
100
AcDbEntity
  8
ZEICHNUNGSBEMASSUNGEN
100
AcDbLine
 62
2
  6
CONTINUOUS
 10
40.1352514484
 20
226.7118626885
 11
60.1352514484
 21
226.7118626885
  0
LINE
  5
2BB
100
AcDbEntity
  8
ZEICHNUNGSBEMASSUNGEN
100
AcDbLine
 62
2
  6
CONTINUOUS
 10
80.1352514484
 20
226.7118626885
 11
60.1352514484
 21
226.7118626885
  0
INSERT
  5
2BC
100
AcDbEntity
  8
ZEICHNUNGSBEMASSUNGEN
100
AcDbBlockReference
 62
2
  6
CONTINUOUS
  2
_FILLED
 10
40.1352514484
 20
226.7118626885
 41
3.5
 42
3.5
 43
3.5
 50
180.0
  0
INSERT
  5
2BD
100
AcDbEntity
  8
ZEICHNUNGSBEMASSUNGEN
100
AcDbBlockReference
 62
2
  6
CONTINUOUS
  2
_FILLED
 10
80.1352514484
 20
226.7118626885
 41
3.5
 42
3.5
 43
3.5
  0
ENDBLK
  5
2BE
100
AcDbEntity
  8
0
  6
BYBLOCK
 62
0
100
AcDbBlockEnd
  0
BLOCK
  5
2BF
100
AcDbEntity
  8
0
100
AcDbBlockBegin
  2
*T1
 70
1
 10
0.0
 20
0.0
  3
*T1
  1

  0
LINE
  5
2C0
100
AcDbEntity
  8
0
100
AcDbLine
 62
7
  6
CONTINUOUS
 10
0.0
 20
0.0
 11
138.6
 21
0.0
  0
LINE
  5
2C1
100
AcDbEntity
  8
0
100
AcDbLine
 62
7
  6
CONTINUOUS
 10
0.0
 20
0.0
 11
0.0
 21
-46.0
  0
LINE
  5
2C2
100
AcDbEntity
  8
0
100
AcDbLine
 62
7
  6
CONTINUOUS
 10
0.0
 20
-8.0
 11
138.6
 21
-8.0
  0
LINE
  5
2C3
100
AcDbEntity
  8
0
100
AcDbLine
 62
7
  6
CONTINUOUS
 10
0.0
 20
-14.0
 11
138.6
 21
-14.0
  0
LINE
  5
2C4
100
AcDbEntity
  8
0
100
AcDbLine
 62
7
  6
CONTINUOUS
 10
0.0
 20
-20.0
 11
138.6
 21
-20.0
  0
LINE
  5
2C5
100
AcDbEntity
  8
0
100
AcDbLine
 62
7
  6
CONTINUOUS
 10
0.0
 20
-26.0
 11
138.6
 21
-26.0
  0
LINE
  5
2C6
100
AcDbEntity
  8
0
100
AcDbLine
 62
7
  6
CONTINUOUS
 10
69.3
 20
-32.0
 11
138.6
 21
-32.0
  0
LINE
  5
2C7
100
AcDbEntity
  8
0
100
AcDbLine
 62
7
  6
CONTINUOUS
 10
0.0
 20
-38.0
 11
138.6
 21
-38.0
  0
LINE
  5
2C8
100
AcDbEntity
  8
0
100
AcDbLine
 62
7
  6
CONTINUOUS
 10
0.0
 20
-46.0
 11
138.6
 21
-46.0
  0
LINE
  5
2C9
100
AcDbEntity
  8
0
100
AcDbLine
 62
7
  6
CONTINUOUS
 10
23.1
 20
0.0
 11
23.1
 21
-26.0
  0
LINE
  5
2CA
100
AcDbEntity
  8
0
100
AcDbLine
 62
7
  6
CONTINUOUS
 10
46.2
 20
0.0
 11
46.2
 21
-14.0
  0
LINE
  5
2CB
100
AcDbEntity
  8
0
100
AcDbLine
 62
7
  6
CONTINUOUS
 10
46.2
 20
-20.0
 11
46.2
 21
-26.0
  0
LINE
  5
2CC
100
AcDbEntity
  8
0
100
AcDbLine
 62
7
  6
CONTINUOUS
 10
46.2
 20
-38.0
 11
46.2
 21
-46.0
  0
LINE
  5
2CD
100
AcDbEntity
  8
0
100
AcDbLine
 62
7
  6
CONTINUOUS
 10
69.3
 20
0.0
 11
69.3
 21
-46.0
  0
LINE
  5
2CE
100
AcDbEntity
  8
0
100
AcDbLine
 62
7
  6
CONTINUOUS
 10
92.4
 20
0.0
 11
92.4
 21
-38.0
  0
LINE
  5
2CF
100
AcDbEntity
  8
0
100
AcDbLine
 62
7
  6
CONTINUOUS
 10
115.5
 20
-8.0
 11
115.5
 21
-26.0
  0
LINE
  5
2D0
100
AcDbEntity
  8
0
100
AcDbLine
 62
7
  6
CONTINUOUS
 10
115.5
 20
-38.0
 11
115.5
 21
-46.0
  0
LINE
  5
2D1
100
AcDbEntity
  8
0
100
AcDbLine
 62
7
  6
CONTINUOUS
 10
138.6
 20
0.0
 11
138.6
 21
-46.0
  0
MTEXT
  5
2D2
100
AcDbEntity
  8
3D_NOTIZEN
100
AcDbMText
 62
5
  6
CONTINUOUS
  7
STANDARD
 71
1
 72
1
 10
1.05
 20
-0.7764571353
 30
0.0
 11
1.0
 21
0.0
 31
0.0
 73
2
 44
0.9
  1
\Q15.0;Sheet Number
 40
1.5
 41
26.9285714286
  0
MTEXT
  5
2D3
100
AcDbEntity
  8
3D_NOTIZEN
100
AcDbMText
 62
5
  6
CONTINUOUS
  7
STANDARD
 71
1
 72
1
 10
24.15
 20
-0.7764571353
 30
0.0
 11
1.0
 21
0.0
 31
0.0
 73
2
 44
0.9
  1
\Q15.0;Projection
 40
1.5
 41
20.1428571429
  0
MTEXT
  5
2D4
100
AcDbEntity
  8
3D_NOTIZEN
100
AcDbMText
 62
5
  6
CONTINUOUS
  7
STANDARD
 71
1
 72
1
 10
47.25
 20
-0.7764571353
 30
0.0
 11
1.0
 21
0.0
 31
0.0
 73
2
 44
0.9
  1
\Q15.0;Scale
 40
1.5
 41
10.6428571429
  0
MTEXT
  5
2D5
100
AcDbEntity
  8
3D_NOTIZEN
100
AcDbMText
 62
5
  6
CONTINUOUS
  7
STANDARD
 71
1
 72
1
 10
70.35
 20
-0.7764571353
 30
0.0
 11
1.0
 21
0.0
 31
0.0
 73
2
 44
0.9
  1
\Q15.0;Format
 40
1.5
 41
13.4285714286
  0
MTEXT
  5
2D6
100
AcDbEntity
  8
3D_NOTIZEN
100
AcDbMText
 62
5
  6
CONTINUOUS
  7
STANDARD
 71
1
 72
1
 10
93.45
 20
-0.7764571353
 30
0.0
 11
1.0
 21
0.0
 31
0.0
 73
2
 44
0.9
  1
\Q15.0;Tolerancing
 40
1.5
 41
22.9285714286
  0
MTEXT
  5
2D7
100
AcDbEntity
  8
3D_NOTIZEN
100
AcDbMText
 62
5
  6
CONTINUOUS
  7
STANDARD
 71
1
 72
1
 10
1.05
 20
-4.5352761804
 30
0.0
 11
1.0
 21
0.0
 31
0.0
 73
2
 44
0.9
  1
\Q15.0;1/1
 40
2.0
 41
8.380952381
  0
MTEXT
  5
2D8
100
AcDbEntity
  8
3D_NOTIZEN
100
AcDbMText
 62
5
  6
CONTINUOUS
  7
STANDARD
 71
1
 72
1
 10
47.25
 20
-4.5352761804
 30
0.0
 11
1.0
 21
0.0
 31
0.0
 73
2
 44
0.9
  1
\Q15.0;1:1
 40
2.0
 41
6.7619047619
  0
MTEXT
  5
2D9
100
AcDbEntity
  8
3D_NOTIZEN
100
AcDbMText
 62
5
  6
CONTINUOUS
  7
STANDARD
 71
1
 72
1
 10
70.35
 20
-4.5352761804
 30
0.0
 11
1.0
 21
0.0
 31
0.0
 73
2
 44
0.9
  1
\Q15.0;A4
 40
2.0
 41
7.3333333333
  0
MTEXT
  5
2DA
100
AcDbEntity
  8
3D_NOTIZEN
100
AcDbMText
 62
5
  6
CONTINUOUS
  7
STANDARD
 71
1
 72
1
 10
93.45
 20
-4.5352761804
 30
0.0
 11
1.0
 21
0.0
 31
0.0
 73
2
 44
0.9
  1
\Q15.0;ISO 2768-mK
 40
2.0
 41
35.0476190476
  0
MTEXT
  5
2DB
100
AcDbEntity
  8
3D_NOTIZEN
100
AcDbMText
 62
5
  6
CONTINUOUS
  7
STANDARD
 71
1
 72
1
 10
1.05
 20
-10.0352761804
 30
0.0
 11
1.0
 21
0.0
 31
0.0
 73
2
 44
0.9
  1
\Q15.0;   635.09 g
 40
2.0
 41
33.619047619
  0
MTEXT
  5
2DC
100
AcDbEntity
  8
3D_NOTIZEN
100
AcDbMText
 62
5
  6
CONTINUOUS
  7
STANDARD
 71
1
 72
1
 10
24.15
 20
-10.0352761804
 30
0.0
 11
1.0
 21
0.0
 31
0.0
 73
2
 44
0.9
  1
\Q15.0;   -[.2] cm²
 40
2.0
 41
34.1333333333
  0
MTEXT
  5
2DD
100
AcDbEntity
  8
3D_NOTIZEN
100
AcDbMText
 62
5
  6
CONTINUOUS
  7
STANDARD
 71
1
 72
1
 10
47.25
 20
-10.0352761804
 30
0.0
 11
1.0
 21
0.0
 31
0.0
 73
2
 44
0.9
  1
\Q15.0;   -[.2] cm³
 40
2.0
 41
34.1333333333
  0
MTEXT
  5
2DE
100
AcDbEntity
  8
3D_NOTIZEN
100
AcDbMText
 62
5
  6
CONTINUOUS
  7
STANDARD
 71
1
 72
1
 10
70.35
 20
-10.2764571353
 30
0.0
 11
1.0
 21
0.0
 31
0.0
 73
2
 44
0.9
  1
\Q15.0;Created
 40
1.5
 41
15.2857142857
  0
MTEXT
  5
2DF
100
AcDbEntity
  8
3D_NOTIZEN
100
AcDbMText
 62
5
  6
CONTINUOUS
  7
STANDARD
 71
1
 72
1
 10
93.45
 20
-10.0352761804
 30
0.0
 11
1.0
 21
0.0
 31
0.0
 73
2
 44
0.9
  1
\Q15.0;15.11.2006
 40
2.0
 41
27.619047619
  0
MTEXT
  5
2E0
100
AcDbEntity
  8
3D_NOTIZEN
100
AcDbMText
 62
5
  6
CONTINUOUS
  7
STANDARD
 71
1
 72
1
 10
116.55
 20
-10.0352761804
 30
0.0
 11
1.0
 21
0.0
 31
0.0
 73
2
 44
0.9
  1
\Q15.0;Jutz B.
 40
2.0
 41
19.9047619048
  0
MTEXT
  5
2E1
100
AcDbEntity
  8
3D_NOTIZEN
100
AcDbMText
 62
5
  6
CONTINUOUS
  7
STANDARD
 71
1
 72
1
 10
1.05
 20
-16.2764571353
 30
0.0
 11
1.0
 21
0.0
 31
0.0
 73
2
 44
0.9
  1
\Q15.0;Material
 40
1.5
 41
16.2857142857
  0
MTEXT
  5
2E2
100
AcDbEntity
  8
3D_NOTIZEN
100
AcDbMText
 62
5
  6
CONTINUOUS
  7
STANDARD
 71
1
 72
1
 10
24.15
 20
-16.0352761804
 30
0.0
 11
1.0
 21
0.0
 31
0.0
 73
2
 44
0.9
  1
\Q15.0;Alu
 40
2.0
 41
9.0476190476
  0
MTEXT
  5
2E3
100
AcDbEntity
  8
3D_NOTIZEN
100
AcDbMText
 62
5
  6
CONTINUOUS
  7
STANDARD
 71
1
 72
1
 10
70.35
 20
-16.2764571353
 30
0.0
 11
1.0
 21
0.0
 31
0.0
 73
2
 44
0.9
  1
\Q15.0;Modified
 40
1.5
 41
16.5714285714
  0
MTEXT
  5
2E4
100
AcDbEntity
  8
3D_NOTIZEN
100
AcDbMText
 62
5
  6
CONTINUOUS
  7
STANDARD
 71
1
 72
1
 10
93.45
 20
-16.0352761804
 30
0.0
 11
1.0
 21
0.0
 31
0.0
 73
2
 44
0.9
  1
\Q15.0;n.a.
 40
2.0
 41
11.0476190476
  0
MTEXT
  5
2E5
100
AcDbEntity
  8
3D_NOTIZEN
100
AcDbMText
 62
5
  6
CONTINUOUS
  7
STANDARD
 71
1
 72
1
 10
116.55
 20
-16.0352761804
 30
0.0
 11
1.0
 21
0.0
 31
0.0
 73
2
 44
0.9
  1
\Q15.0;n.a.
 40
2.0
 41
11.0476190476
  0
MTEXT
  5
2E6
100
AcDbEntity
  8
3D_NOTIZEN
100
AcDbMText
 62
5
  6
CONTINUOUS
  7
STANDARD
 71
1
 72
1
 10
1.05
 20
-22.2764571353
 30
0.0
 11
1.0
 21
0.0
 31
0.0
 73
2
 44
0.9
  1
\Q15.0;Material addition
 40
1.5
 41
34.2142857143
  0
MTEXT
  5
2E7
100
AcDbEntity
  8
3D_NOTIZEN
100
AcDbMText
 62
5
  6
CONTINUOUS
  7
STANDARD
 71
1
 72
1
 10
24.15
 20
-22.0352761804
 30
0.0
 11
1.0
 21
0.0
 31
0.0
 73
2
 44
0.9
  1
\Q15.0;nextel beschichtet
 40
2.0
 41
48.5714285714
  0
MTEXT
  5
2E8
100
AcDbEntity
  8
3D_NOTIZEN
100
AcDbMText
 62
5
  6
CONTINUOUS
  7
STANDARD
 71
1
 72
1
 10
47.25
 20
-22.0352761804
 30
0.0
 11
1.0
 21
0.0
 31
0.0
 73
2
 44
0.9
  1
\Q15.0;-
 40
2.0
 41
3.619047619
  0
MTEXT
  5
2E9
100
AcDbEntity
  8
3D_NOTIZEN
100
AcDbMText
 62
5
  6
CONTINUOUS
  7
STANDARD
 71
1
 72
1
 10
70.35
 20
-22.2764571353
 30
0.0
 11
1.0
 21
0.0
 31
0.0
 73
2
 44
0.9
  1
\Q15.0;Approved
 40
1.5
 41
17.9285714286
  0
MTEXT
  5
2EA
100
AcDbEntity
  8
3D_NOTIZEN
100
AcDbMText
 62
5
  6
CONTINUOUS
  7
STANDARD
 71
1
 72
1
 10
93.45
 20
-22.0352761804
 30
0.0
 11
1.0
 21
0.0
 31
0.0
 73
2
 44
0.9
  1
\Q15.0;n.a.
 40
2.0
 41
11.0476190476
  0
MTEXT
  5
2EB
100
AcDbEntity
  8
3D_NOTIZEN
100
AcDbMText
 62
5
  6
CONTINUOUS
  7
STANDARD
 71
1
 72
1
 10
116.55
 20
-22.0352761804
 30
0.0
 11
1.0
 21
0.0
 31
0.0
 73
2
 44
0.9
  1
\Q15.0;n.a.
 40
2.0
 41
11.0476190476
  0
MTEXT
  5
2EC
100
AcDbEntity
  8
3D_NOTIZEN
100
AcDbMText
 62
5
  6
CONTINUOUS
  7
STANDARD
 71
1
 72
1
 10
1.05
 20
-26.7764571353
 30
0.0
 11
1.0
 21
0.0
 31
0.0
 73
2
 44
0.9
  1
\Q15.0;Description
 40
1.5
 41
22.7142857143
  0
MTEXT
  5
2ED
100
AcDbEntity
  8
3D_NOTIZEN
100
AcDbMText
 62
5
  6
CONTINUOUS
  7
STANDARD
 71
1
 72
1
 10
70.35
 20
-28.2764571353
 30
0.0
 11
1.0
 21
0.0
 31
0.0
 73
2
 44
0.9
  1
\Q15.0;ECN Number
 40
1.5
 41
23.4285714286
  0
MTEXT
  5
2EE
100
AcDbEntity
  8
3D_NOTIZEN
100
AcDbMText
 62
5
  6
CONTINUOUS
  7
STANDARD
 71
1
 72
1
 10
93.45
 20
-28.0352761804
 30
0.0
 11
1.0
 21
0.0
 31
0.0
 73
2
 44
0.9
  1
\Q15.0;-
 40
2.0
 41
3.619047619
  0
MTEXT
  5
2EF
100
AcDbEntity
  8
3D_NOTIZEN
100
AcDbMText
 62
5
  6
CONTINUOUS
  7
STANDARD
 71
1
 72
1
 10
1.05
 20
-30.588190451
 30
0.0
 11
1.0
 21
0.0
 31
0.0
 73
2
 44
0.9
  1
\Q15.0;HTX
 40
2.5
 41
13.4523809524
  0
MTEXT
  5
2F0
100
AcDbEntity
  8
3D_NOTIZEN
100
AcDbMText
 62
5
  6
CONTINUOUS
  7
STANDARD
 71
1
 72
1
 10
70.35
 20
-34.2764571353
 30
0.0
 11
1.0
 21
0.0
 31
0.0
 73
2
 44
0.9
  1
\Q15.0;Status
 40
1.5
 41
12.7857142857
  0
MTEXT
  5
2F1
100
AcDbEntity
  8
3D_NOTIZEN
100
AcDbMText
 62
5
  6
CONTINUOUS
  7
STANDARD
 71
1
 72
1
 10
93.45
 20
-34.0352761804
 30
0.0
 11
1.0
 21
0.0
 31
0.0
 73
2
 44
0.9
  1
\Q15.0;Rework
 40
2.0
 41
19.0476190476
  0
MTEXT
  5
2F2
100
AcDbEntity
  8
3D_NOTIZEN
100
AcDbMText
 62
5
  6
CONTINUOUS
  7
STANDARD
 71
1
 72
1
 10
47.25
 20
-38.7764571353
 30
0.0
 11
1.0
 21
0.0
 31
0.0
 73
2
 44
0.9
  1
\Q15.0;3D Model ID
 40
1.5
 41
25.2857142857
  0
MTEXT
  5
2F3
100
AcDbEntity
  8
3D_NOTIZEN
100
AcDbMText
 62
5
  6
CONTINUOUS
  7
STANDARD
 71
1
 72
1
 10
70.35
 20
-38.7764571353
 30
0.0
 11
1.0
 21
0.0
 31
0.0
 73
2
 44
0.9
  1
\Q15.0;Document ID
 40
1.5
 41
25.2857142857
  0
MTEXT
  5
2F4
100
AcDbEntity
  8
3D_NOTIZEN
100
AcDbMText
 62
5
  6
CONTINUOUS
  7
STANDARD
 71
1
 72
1
 10
116.55
 20
-38.7764571353
 30
0.0
 11
1.0
 21
0.0
 31
0.0
 73
2
 44
0.9
  1
\Q15.0;Revision
 40
1.5
 41
16.7857142857
  0
MTEXT
  5
2F5
100
AcDbEntity
  8
3D_NOTIZEN
100
AcDbMText
 62
5
  6
CONTINUOUS
  7
STANDARD
 71
1
 72
1
 10
47.25
 20
-42.5352761804
 30
0.0
 11
1.0
 21
0.0
 31
0.0
 73
2
 44
0.9
  1
\Q15.0;93001044
 40
2.0
 41
24.7619047619
  0
MTEXT
  5
2F6
100
AcDbEntity
  8
3D_NOTIZEN
100
AcDbMText
 62
5
  6
CONTINUOUS
  7
STANDARD
 71
1
 72
1
 10
70.35
 20
-42.0529142706
 30
0.0
 11
1.0
 21
0.0
 31
0.0
 73
2
 44
0.9
  1
\Q15.0;ST-HTXP
 40
3.0
 41
35.0
  0
MTEXT
  5
2F7
100
AcDbEntity
  8
3D_NOTIZEN
100
AcDbMText
 62
5
  6
CONTINUOUS
  7
STANDARD
 71
1
 72
1
 10
116.55
 20
-42.0529142706
 30
0.0
 11
1.0
 21
0.0
 31
0.0
 73
2
 44
0.9
  1
\Q15.0;-
 40
3.0
 41
5.4285714286
  0
ENDBLK
  5
2F8
100
AcDbEntity
  8
0
  6
BYBLOCK
 62
0
100
AcDbBlockEnd
  0
ENDSEC
  0
SECTION
  2
ENTITIES
  0
MTEXT
  5
2F9
100
AcDbEntity
  8
0
100
AcDbMText
 62
5
  6
CONTINUOUS
  7
STANDARD
 71
1
 72
1
 10
202.3
 20
10.6200152467
 30
0.0
 11
0.0
 21
1.0
 31
0.0
 73
2
 44
0.9
  1
\Q15.0;Copyright © Neutrik AG / Im alten Riet 143 / 9494 Schaan / Liechtenstein
 40
1.7
 41
130.3171428571
  0
INSERT
  5
2FA
100
AcDbEntity
  8
0
100
AcDbBlockReference
 62
2
  6
CONTINUOUS
  2
PROJEKTION_BL0
 10
90.3860895974
 20
50.858115361
  0
INSERT
  5
2FB
100
AcDbEntity
  8
0
100
AcDbBlockReference
 62
2
  6
CONTINUOUS
  2
GEWICHT_BL1
 10
63.6008920842
 20
45.0305547563
  0
INSERT
  5
2FC
100
AcDbEntity
  8
0
100
AcDbBlockReference
 62
2
  6
CONTINUOUS
  2
OBERFLÄCHE_BL2
 10
86.8835037733
 20
44.9777543704
  0
INSERT
  5
2FD
100
AcDbEntity
  8
0
100
AcDbBlockReference
 62
2
  6
CONTINUOUS
  2
VOLUMEN_BL3
 10
110.151481625
 20
44.9679082823
  0
INSERT
  5
2FE
100
AcDbEntity
  8
0
100
AcDbBlockReference
 62
2
  6
CONTINUOUS
  2
NEUTRIK_BL4
 10
84.2614090897
 20
13.9058200948
  0
HATCH
  5
2FF
100
AcDbEntity
  8
0
100
AcDbHatch
 62
2
  6
CONTINUOUS
 10
0.0
 20
0.0
 30
0.0
210
0.0
220
0.0
230
1.0
  2
C
 70
0
 71
0
 91
2
 92
2
 72
0
 73
0
 93
368
 10
43.1352514484
 20
134.7117396338
 10
45.4702259523
 20
134.7117396338
 10
40.1352514484
 20
137.7117396338
 10
40.1356447974
 20
137.6631604274
 10
40.1368247413
 20
137.61459396
 10
40.1387909706
 20
137.5660529674
 10
40.1415429697
 20
137.5175501787
 10
40.145080017
 20
137.4690983127
 10
40.1494011849
 20
137.4207100752
 10
40.1545053403
 20
137.3723981552
 10
40.1603911447
 20
137.3241752216
 10
40.1670570547
 20
137.27605392
 10
40.1745013222
 20
137.2280468695
 10
40.1827219951
 20
137.180166659
 10
40.1917169177
 20
137.1324258444
 10
40.2014837312
 20
137.0848369447
 10
40.2120198745
 20
137.0374124394
 10
40.2233225845
 20
136.9901647647
 10
40.2353888975
 20
136.9431063105
 10
40.2482156491
 20
136.8962494171
 10
40.2617994759
 20
136.8496063718
 10
40.2761368156
 20
136.8031894061
 10
40.2912239085
 20
136.7570106919
 10
40.3070567985
 20
136.7110823388
 10
40.3236313334
 20
136.6654163908
 10
40.340943167
 20
136.6200248229
 10
40.3589877595
 20
136.5749195383
 10
40.377760379
 20
136.530112365
 10
40.3972561028
 20
136.4856150531
 10
40.4174698184
 20
136.441439271
 10
40.4383962252
 20
136.3975966032
 10
40.4600298354
 20
136.3540985466
 10
40.4823649762
 20
136.3109565079
 10
40.5053957905
 20
136.2681818003
 10
40.5291162389
 20
136.2257856407
 10
40.553520101
 20
136.1837791468
 10
40.5786009774
 20
136.142173334
 10
40.6043522912
 20
136.1009791128
 10
40.6307672893
 20
136.0602072857
 10
40.6578390451
 20
136.0198685442
 10
40.6855604592
 20
135.9799734667
 10
40.7139242624
 20
135.9405325148
 10
40.7429230167
 20
135.9015560312
 10
40.7725491177
 20
135.863054237
 10
40.8027947964
 20
135.8250372284
 10
40.8336521214
 20
135.7875149749
 10
40.865113001
 20
135.7504973159
 10
40.897169185
 20
135.7139939587
 10
40.9298122673
 20
135.6780144758
 10
40.9630336878
 20
135.6425683019
 10
40.9968247348
 20
135.6076647325
 10
41.0311765471
 20
135.5733129201
 10
41.0660801166
 20
135.5395218732
 10
41.1015262904
 20
135.5063004527
 10
41.1375057734
 20
135.4736573703
 10
41.1740091305
 20
135.4416011863
 10
41.2110267895
 20
135.4101403068
 10
41.2485490431
 20
135.3792829817
 10
41.2865660516
 20
135.349037303
 10
41.3250678459
 20
135.3194112021
 10
41.3640443294
 20
135.2904124478
 10
41.4034852813
 20
135.2620486446
 10
41.4433803589
 20
135.2343272304
 10
41.4837191003
 20
135.2072554747
 10
41.5244909275
 20
135.1808404765
 10
41.5656851487
 20
135.1550891628
 10
41.6072909614
 20
135.1300082864
 10
41.6492974553
 20
135.1056044242
 10
41.6916936149
 20
135.0818839759
 10
41.7344683226
 20
135.0588531616
 10
41.7776103613
 20
135.0365180208
 10
41.8211084178
 20
135.0148844105
 10
41.8649510856
 20
134.9939580038
 10
41.9091268677
 20
134.9737442882
 10
41.9536241797
 20
134.9542485644
 10
41.9984313529
 20
134.9354759448
 10
42.0435366375
 20
134.9174313523
 10
42.0889282054
 20
134.9001195188
 10
42.1345941535
 20
134.8835449838
 10
42.1805225065
 20
134.8677120939
 10
42.2267012207
 20
134.8526250009
 10
42.2731181865
 20
134.8382876612
 10
42.3197612317
 20
134.8247038345
 10
42.3666181251
 20
134.8118770828
 10
42.4136765793
 20
134.7998107699
 10
42.460924254
 20
134.7885080598
 10
42.5083487593
 20
134.7779719166
 10
42.555937659
 20
134.7682051031
 10
42.6036784737
 20
134.7592101805
 10
42.6515586842
 20
134.7509895076
 10
42.6995657347
 20
134.7435452401
 10
42.7476870362
 20
134.7368793301
 10
42.7959099698
 20
134.7309935257
 10
42.8442218899
 20
134.7258893703
 10
42.8926101273
 20
134.7215682024
 10
42.9410619933
 20
134.7180311551
 10
42.9895647821
 20
134.7152791559
 10
43.0381057747
 20
134.7133129266
 10
43.086672242
 20
134.7121329828
 10
43.1352514484
 20
134.7117396338
 10
40.1352514484
 20
211.7117396338
 10
40.1352514484
 20
137.7117396338
 10
43.1352514484
 20
214.7117396338
 10
43.086672242
 20
214.7113462848
 10
43.0381057747
 20
214.7101663409
 10
42.9895647821
 20
214.7082001116
 10
42.9410619933
 20
214.7054481125
 10
42.8926101273
 20
214.7019110652
 10
42.8442218899
 20
214.6975898973
 10
42.7959099698
 20
214.6924857419
 10
42.7476870362
 20
214.6865999375
 10
42.6995657347
 20
214.6799340275
 10
42.6515586842
 20
214.67248976
 10
42.6036784737
 20
214.6642690871
 10
42.555937659
 20
214.6552741645
 10
42.5083487593
 20
214.645507351
 10
42.460924254
 20
214.6349712077
 10
42.4136765793
 20
214.6236684977
 10
42.3666181251
 20
214.6116021847
 10
42.3197612317
 20
214.5987754331
 10
42.2731181865
 20
214.5851916063
 10
42.2267012207
 20
214.5708542666
 10
42.1805225065
 20
214.5557671736
 10
42.1345941535
 20
214.5399342837
 10
42.0889282054
 20
214.5233597488
 10
42.0435366375
 20
214.5060479152
 10
41.9984313529
 20
214.4880033227
 10
41.9536241797
 20
214.4692307032
 10
41.9091268677
 20
214.4497349794
 10
41.8649510856
 20
214.4295212638
 10
41.8211084178
 20
214.408594857
 10
41.7776103613
 20
214.3869612468
 10
41.7344683226
 20
214.364626106
 10
41.6916936149
 20
214.3415952917
 10
41.6492974553
 20
214.3178748433
 10
41.6072909614
 20
214.2934709812
 10
41.5656851487
 20
214.2683901047
 10
41.5244909275
 20
214.242638791
 10
41.4837191003
 20
214.2162237929
 10
41.4433803589
 20
214.1891520371
 10
41.4034852813
 20
214.1614306229
 10
41.3640443294
 20
214.1330668198
 10
41.3250678459
 20
214.1040680655
 10
41.2865660516
 20
214.0744419645
 10
41.2485490431
 20
214.0441962858
 10
41.2110267895
 20
214.0133389608
 10
41.1740091305
 20
213.9818780812
 10
41.1375057734
 20
213.9498218972
 10
41.1015262904
 20
213.9171788149
 10
41.0660801166
 20
213.8839573944
 10
41.0311765471
 20
213.8501663474
 10
40.9968247348
 20
213.8158145351
 10
40.9630336878
 20
213.7809109656
 10
40.9298122673
 20
213.7454647918
 10
40.897169185
 20
213.7094853088
 10
40.865113001
 20
213.6729819516
 10
40.8336521214
 20
213.6359642927
 10
40.8027947964
 20
213.5984420391
 10
40.7725491177
 20
213.5604250306
 10
40.7429230167
 20
213.5219232363
 10
40.7139242624
 20
213.4829467528
 10
40.6855604592
 20
213.4435058009
 10
40.6578390451
 20
213.4036107233
 10
40.6307672893
 20
213.3632719819
 10
40.6043522912
 20
213.3225001547
 10
40.5786009774
 20
213.2813059335
 10
40.553520101
 20
213.2397001208
 10
40.5291162389
 20
213.1976936268
 10
40.5053957905
 20
213.1552974672
 10
40.4823649762
 20
213.1125227596
 10
40.4600298354
 20
213.0693807209
 10
40.4383962252
 20
213.0258826643
 10
40.4174698184
 20
212.9820399965
 10
40.3972561028
 20
212.9378642145
 10
40.377760379
 20
212.8933669025
 10
40.3589877595
 20
212.8485597293
 10
40.340943167
 20
212.8034544447
 10
40.3236313334
 20
212.7580628768
 10
40.3070567985
 20
212.7123969287
 10
40.2912239085
 20
212.6664685757
 10
40.2761368156
 20
212.6202898615
 10
40.2617994759
 20
212.5738728957
 10
40.2482156491
 20
212.5272298505
 10
40.2353888975
 20
212.4803729571
 10
40.2233225845
 20
212.4333145029
 10
40.2120198745
 20
212.3860668282
 10
40.2014837312
 20
212.3386423229
 10
40.1917169177
 20
212.2910534232
 10
40.1827219951
 20
212.2433126085
 10
40.1745013222
 20
212.195432398
 10
40.1670570547
 20
212.1474253475
 10
40.1603911447
 20
212.099304046
 10
40.1545053403
 20
212.0510811124
 10
40.1494011849
 20
212.0027691923
 10
40.145080017
 20
211.9543809549
 10
40.1415429697
 20
211.9059290889
 10
40.1387909706
 20
211.8574263001
 10
40.1368247413
 20
211.8088853075
 10
40.1356447974
 20
211.7603188402
 10
40.1352514484
 20
211.7117396338
 10
43.1352514484
 20
214.7117396338
 10
48.4717258218
 20
214.7117396338
 10
48.4717258218
 20
214.7117396338
 10
48.5520259635
 20
214.7080470608
 10
48.6318061987
 20
214.6969135467
 10
48.710170507
 20
214.6782553987
 10
48.7744123192
 20
214.6567456081
 10
48.8367999754
 20
214.630294259
 10
48.8971164648
 20
214.5993474303
 10
48.9551447766
 20
214.564351201
 10
49.0130963049
 20
214.5239874404
 10
49.0684630591
 20
214.4801815489
 10
49.1213889445
 20
214.4334161735
 10
49.1720178662
 20
214.3841739616
 10
49.2421851065
 20
214.3086350458
 10
49.3083030778
 20
214.2295649674
 10
49.370919988
 20
214.147690804
 10
49.4502883898
 20
214.0344837956
 10
49.5249491723
 20
213.9180849063
 10
49.5955123936
 20
213.7990426563
 10
49.6625881119
 20
213.6779055657
 10
49.7267863854
 20
213.5552221546
 10
49.8223673065
 20
213.3617686728
 10
49.9131757991
 20
213.1662129168
 10
49.9999565879
 20
212.9688805251
 10
50.1248031091
 20
212.6683245466
 10
50.2437222713
 20
212.3653107312
 10
50.3702963923
 20
212.0274404089
 10
50.4923997195
 20
211.6879502955
 10
50.6501524207
 20
211.2318604062
 10
50.8027186402
 20
210.7739952467
 10
50.9942915578
 20
210.1791102649
 10
51.1803179072
 20
209.5824742804
 10
51.1803179072
 20
209.5824742804
 10
51.2398800526
 20
209.3879123375
 10
51.2599651013
 20
209.3219439827
 10
51.2605891305
 20
209.3198915923
 10
51.2605890738
 20
209.319891575
 10
51.3709764086
 20
208.9609394266
 10
51.4841003447
 20
208.6028371335
 10
51.5708312797
 20
208.3361953946
 10
51.6602664778
 20
208.0704550487
 10
51.7291425664
 20
207.8733511565
 10
51.800546227
 20
207.6771400177
 10
51.8681144779
 20
207.5000797265
 10
51.9392119051
 20
207.3244315594
 10
51.9892289232
 20
207.2080373296
 10
52.0417334472
 20
207.0927265159
 10
52.0972020485
 20
206.9787319391
 10
52.1444578493
 20
206.888006864
 10
52.1945083594
 20
206.7988067354
 10
52.2479117352
 20
206.711649553
 10
52.3052261333
 20
206.6270533166
 10
52.3512101192
 20
206.5655357801
 10
52.4000285751
 20
206.506241008
 10
52.4519931799
 20
206.449653741
 10
52.5121441783
 20
206.3920090012
 10
52.5764048076
 20
206.3389797419
 10
52.6448263348
 20
206.2914347861
 10
52.7011571664
 20
206.2586334262
 10
52.7597300284
 20
206.2299486222
 10
52.8202154004
 20
206.20561831
 10
52.8822837622
 20
206.1858804256
 10
52.9628690454
 20
206.1676558974
 10
53.0448222507
 20
206.1567921881
 10
53.1274900348
 20
206.1528609787
 10
53.1352514484
 20
206.1528325278
 10
54.1593804673
 20
206.1528325278
 10
54.1593804673
 20
206.1528325278
 10
56.0352514484
 20
186.6711675174
 10
56.0352514484
 20
166.0089994025
 10
56.0352514484
 20
186.6711675174
 10
56.0352514484
 20
166.0089994025
 10
52.9760972991
 20
146.8027522443
 10
52.9760972991
 20
146.8027522443
 10
51.8352514484
 20
146.8027522443
 10
51.8249028442
 20
146.8027247732
 10
51.7325297326
 20
146.8000252011
 10
51.6404065696
 20
146.7928510614
 10
51.5487581358
 20
146.7811166021
 10
51.4555933049
 20
146.7642942305
 10
51.3634308715
 20
146.7426173663
 10
51.2725389841
 20
146.7161083238
 10
51.1837391534
 20
146.6850132794
 10
51.0967103132
 20
146.6492648564
 10
51.0117040078
 20
146.6089593712
 10
50.9291200918
 20
146.564311891
 10
50.8489463747
 20
146.5154570854
 10
50.7713282157
 20
146.4626302523
 10
50.6960131617
 20
146.4057534455
 10
50.6235288014
 20
146.3453177362
 10
50.5539761741
 20
146.2815407099
 10
50.4871296198
 20
146.2143375584
 10
50.423278425
 20
146.1442752597
 10
50.3623572202
 20
146.0716471935
 10
50.2762975382
 20
145.9584691276
 10
50.1963781129
 20
145.8408839394
 10
50.1235943323
 20
145.7219120763
 10
50.0558618567
 20
145.5999895404
 10
49.9937292256
 20
145.4779466555
 10
49.9354489939
 20
145.3540204798
 10
49.8798891599
 20
145.2269962802
 10
49.8273421124
 20
145.0986951902
 10
49.7774600356
 20
144.9695622336
 10
49.7298529714
 20
144.8395743789
 10
49.6482475019
 20
144.6013867152
 10
49.5822094878
 20
144.3947643449
 10
49.524013068
 20
144.2037765965
 10
49.4677095262
 20
144.012056602
 10
49.4125421146
 20
143.8178762412
 10
49.3589844475
 20
143.623759069
 10
49.3068237064
 20
143.4302170243
 10
49.255376724
 20
143.2357235942
 10
49.2026858428
 20
143.0333786769
 10
49.1465493694
 20
142.8147248673
 10
49.0847046673
 20
142.5707154986
 10
49.0150154972
 20
142.2927359831
 10
48.9352514484
 20
141.9717396338
 10
48.9352514484
 20
141.9717396338
 10
48.8503152694
 20
141.6298930328
 10
48.7613393845
 20
141.2798916165
 10
48.6717680438
 20
140.9357281656
 10
48.584843816
 20
140.6094515762
 10
48.5025736323
 20
140.3076386416
 10
48.4251923728
 20
140.0300103569
 10
48.3524902144
 20
139.7747136057
 10
48.2828674335
 20
139.5352521161
 10
48.2141039185
 20
139.303509098
 10
48.1442498825
 20
139.0729022057
 10
48.0728313054
 20
138.8421506172
 10
48.0000143586
 20
138.6122163596
 10
47.9253119565
 20
138.3822033702
 10
47.8475465381
 20
138.1493239514
 10
47.7639002309
 20
137.9064229511
 10
47.6722058458
 20
137.6490107191
 10
47.5754868134
 20
137.3874110338
 10
47.4745129441
 20
137.1255849953
 10
47.3544325486
 20
136.8306023092
 10
47.2872245432
 20
136.673648866
 10
47.2178339508
 20
136.5176470334
 10
47.1468413404
 20
136.3642866595
 10
47.073265118
 20
136.2121493406
 10
47.0037296652
 20
136.0748643292
 10
46.9314105665
 20
135.9390273258
 10
46.8657784637
 20
135.821999196
 10
46.7974303988
 20
135.7065369444
 10
46.7325117482
 20
135.6029397943
 10
46.6647444192
 20
135.5011855055
 10
46.5999891088
 20
135.4100553758
 10
46.5322498327
 20
135.3211214087
 10
46.4678430324
 20
135.2425951129
 10
46.4003671389
 20
135.1666958174
 10
46.3374613619
 20
135.101779145
 10
46.2716517587
 20
135.0398126057
 10
46.2125011866
 20
134.9891969226
 10
46.1509417638
 20
134.9415518911
 10
46.0967031102
 20
134.9037405703
 10
46.0406736129
 20
134.8686428927
 10
45.9905789189
 20
134.8405667441
 10
45.9391966457
 20
134.814930398
 10
45.891661404
 20
134.794003448
 10
45.8431922368
 20
134.7753458942
 10
45.7962795592
 20
134.7597882261
 10
45.7486995227
 20
134.7464096259
 10
45.7017351073
 20
134.7354726864
 10
45.6543343642
 20
134.7266203598
 10
45.5611795958
 20
134.7153200989
 10
45.4702259523
 20
134.7117396335
 97
0
 92
2
 72
0
 73
0
 93
368
 10
74.8002769445
 20
134.7117396338
 10
77.1352514484
 20
134.7117396338
 10
74.8002769445
 20
134.7117396335
 10
74.7093233011
 20
134.7153200989
 10
74.6161685326
 20
134.7266203598
 10
74.5687677896
 20
134.7354726864
 10
74.5218033742
 20
134.7464096259
 10
74.4742233376
 20
134.7597882261
 10
74.4273106601
 20
134.7753458942
 10
74.3788414929
 20
134.794003448
 10
74.3313062512
 20
134.814930398
 10
74.2799239779
 20
134.8405667441
 10
74.2298292839
 20
134.8686428927
 10
74.1737997866
 20
134.9037405703
 10
74.119561133
 20
134.9415518911
 10
74.0580017103
 20
134.9891969226
 10
73.9988511381
 20
135.0398126057
 10
73.9330415349
 20
135.101779145
 10
73.8701357579
 20
135.1666958174
 10
73.8026598644
 20
135.2425951129
 10
73.7382530641
 20
135.3211214087
 10
73.670513788
 20
135.4100553758
 10
73.6057584777
 20
135.5011855055
 10
73.5379911487
 20
135.6029397943
 10
73.473072498
 20
135.7065369444
 10
73.4047244331
 20
135.821999196
 10
73.3390923304
 20
135.9390273258
 10
73.2667732317
 20
136.0748643292
 10
73.1972377788
 20
136.2121493406
 10
73.1236615564
 20
136.3642866595
 10
73.052668946
 20
136.5176470334
 10
72.9832783536
 20
136.673648866
 10
72.9160703482
 20
136.8306023092
 10
72.7959899528
 20
137.1255849953
 10
72.6950160834
 20
137.3874110338
 10
72.598297051
 20
137.6490107191
 10
72.5066026659
 20
137.9064229511
 10
72.4229563588
 20
138.1493239514
 10
72.3451909403
 20
138.3822033702
 10
72.2704885382
 20
138.6122163596
 10
72.1976715914
 20
138.8421506172
 10
72.1262530143
 20
139.0729022057
 10
72.0563989783
 20
139.303509098
 10
71.9876354633
 20
139.5352521161
 10
71.9180126824
 20
139.7747136057
 10
71.845310524
 20
140.0300103569
 10
71.7679292645
 20
140.3076386416
 10
71.6856590808
 20
140.6094515762
 10
71.598734853
 20
140.9357281656
 10
71.5091635123
 20
141.2798916165
 10
71.4201876274
 20
141.6298930328
 10
71.3352514484
 20
141.9717396338
 10
71.3352514484
 20
141.9717396338
 10
71.2554873996
 20
142.2927359831
 10
71.1857982295
 20
142.5707154986
 10
71.1239535274
 20
142.8147248673
 10
71.0678170541
 20
143.0333786769
 10
71.0151261728
 20
143.2357235942
 10
70.9636791904
 20
143.4302170243
 10
70.9115184494
 20
143.623759069
 10
70.8579607822
 20
143.8178762412
 10
70.8027933706
 20
144.012056602
 10
70.7464898288
 20
144.2037765965
 10
70.688293409
 20
144.3947643449
 10
70.6222553949
 20
144.6013867152
 10
70.5406499255
 20
144.8395743789
 10
70.4930428612
 20
144.9695622336
 10
70.4431607844
 20
145.0986951902
 10
70.390613737
 20
145.2269962802
 10
70.335053903
 20
145.3540204798
 10
70.2767736712
 20
145.4779466555
 10
70.2146410401
 20
145.5999895404
 10
70.1469085645
 20
145.7219120763
 10
70.074124784
 20
145.8408839394
 10
69.9942053586
 20
145.9584691276
 10
69.9081456767
 20
146.0716471935
 10
69.8472244718
 20
146.1442752597
 10
69.783373277
 20
146.2143375584
 10
69.7165267227
 20
146.2815407099
 10
69.6469740954
 20
146.3453177362
 10
69.5744897351
 20
146.4057534455
 10
69.4991746812
 20
146.4626302523
 10
69.4215565221
 20
146.5154570854
 10
69.3413828051
 20
146.564311891
 10
69.258798889
 20
146.6089593712
 10
69.1737925836
 20
146.6492648564
 10
69.0867637434
 20
146.6850132794
 10
68.9979639128
 20
146.7161083238
 10
68.9070720254
 20
146.7426173663
 10
68.8149095919
 20
146.7642942305
 10
68.721744761
 20
146.7811166021
 10
68.6300963272
 20
146.7928510614
 10
68.5379731643
 20
146.8000252011
 10
68.4456000526
 20
146.8027247732
 10
68.4352514484
 20
146.8027522443
 10
67.2944055977
 20
146.8027522443
 10
64.2352514484
 20
166.0089994025
 10
67.2944055977
 20
146.8027522443
 10
64.2352514484
 20
166.0089994025
 10
64.2352514484
 20
186.6711675174
 10
66.1111224296
 20
206.1528325278
 10
64.2352514484
 20
186.6711675174
 10
66.1111224296
 20
206.1528325278
 10
67.1352514484
 20
206.1528325278
 10
67.143012862
 20
206.1528609787
 10
67.2256806461
 20
206.1567921881
 10
67.3076338514
 20
206.1676558974
 10
67.3882191347
 20
206.1858804256
 10
67.4502874964
 20
206.20561831
 10
67.5107728685
 20
206.2299486222
 10
67.5693457304
 20
206.2586334262
 10
67.625676562
 20
206.2914347861
 10
67.6940980892
 20
206.3389797419
 10
67.7583587185
 20
206.3920090012
 10
67.8185097169
 20
206.449653741
 10
67.8704743217
 20
206.506241008
 10
67.9192927777
 20
206.5655357801
 10
67.9652767635
 20
206.6270533166
 10
68.0225911616
 20
206.711649553
 10
68.0759945374
 20
206.7988067354
 10
68.1260450475
 20
206.888006864
 10
68.1733008483
 20
206.9787319391
 10
68.2287694496
 20
207.0927265159
 10
68.2812739736
 20
207.2080373296
 10
68.3312909917
 20
207.3244315594
 10
68.402388419
 20
207.5000797265
 10
68.4699566698
 20
207.6771400177
 10
68.5413603304
 20
207.8733511565
 10
68.610236419
 20
208.0704550487
 10
68.6996716172
 20
208.3361953946
 10
68.7864025522
 20
208.6028371335
 10
68.8995264882
 20
208.9609394266
 10
69.009913823
 20
209.319891575
 10
69.0099137663
 20
209.3198915923
 10
69.0105377955
 20
209.3219439827
 10
69.0306228442
 20
209.3879123375
 10
69.0901849896
 20
209.5824742804
 10
69.0901849896
 20
209.5824742804
 10
69.276211339
 20
210.1791102649
 10
69.4677842566
 20
210.7739952467
 10
69.6203504761
 20
211.2318604062
 10
69.7781031774
 20
211.6879502955
 10
69.9002065046
 20
212.0274404089
 10
70.0267806255
 20
212.3653107312
 10
70.1456997877
 20
212.6683245466
 10
70.2705463089
 20
212.9688805251
 10
70.3573270977
 20
213.1662129168
 10
70.4481355903
 20
213.3617686728
 10
70.5437165114
 20
213.5552221546
 10
70.607914785
 20
213.6779055657
 10
70.6749905033
 20
213.7990426563
 10
70.7455537245
 20
213.9180849063
 10
70.820214507
 20
214.0344837956
 10
70.8995829089
 20
214.147690804
 10
70.962199819
 20
214.2295649674
 10
71.0283177903
 20
214.3086350458
 10
71.0984850306
 20
214.3841739616
 10
71.1491139524
 20
214.4334161735
 10
71.2020398377
 20
214.4801815489
 10
71.257406592
 20
214.5239874404
 10
71.3153581202
 20
214.564351201
 10
71.373386432
 20
214.5993474303
 10
71.4337029214
 20
214.630294259
 10
71.4960905776
 20
214.6567456081
 10
71.5603323898
 20
214.6782553987
 10
71.6386966981
 20
214.6969135467
 10
71.7184769334
 20
214.7080470608
 10
71.7987770751
 20
214.7117396338
 10
71.7987770751
 20
214.7117396338
 10
77.1352514484
 20
214.7117396338
 10
77.1352514484
 20
214.7117396338
 10
77.1838306548
 20
214.7113462848
 10
77.2323971222
 20
214.7101663409
 10
77.2809381148
 20
214.7082001116
 10
77.3294409035
 20
214.7054481125
 10
77.3778927695
 20
214.7019110652
 10
77.426281007
 20
214.6975898973
 10
77.474592927
 20
214.6924857419
 10
77.5228158606
 20
214.6865999375
 10
77.5709371622
 20
214.6799340275
 10
77.6189442127
 20
214.67248976
 10
77.6668244232
 20
214.6642690871
 10
77.7145652378
 20
214.6552741645
 10
77.7621541375
 20
214.645507351
 10
77.8095786428
 20
214.6349712077
 10
77.8568263175
 20
214.6236684977
 10
77.9038847717
 20
214.6116021847
 10
77.9507416651
 20
214.5987754331
 10
77.9973847104
 20
214.5851916063
 10
78.0438016761
 20
214.5708542666
 10
78.0899803903
 20
214.5557671736
 10
78.1359087434
 20
214.5399342837
 10
78.1815746914
 20
214.5233597488
 10
78.2269662593
 20
214.5060479152
 10
78.2720715439
 20
214.4880033227
 10
78.3168787172
 20
214.4692307032
 10
78.3613760291
 20
214.4497349794
 10
78.4055518112
 20
214.4295212638
 10
78.449394479
 20
214.408594857
 10
78.4928925355
 20
214.3869612468
 10
78.5360345743
 20
214.364626106
 10
78.5788092819
 20
214.3415952917
 10
78.6212054415
 20
214.3178748433
 10
78.6632119354
 20
214.2934709812
 10
78.7048177482
 20
214.2683901047
 10
78.7460119694
 20
214.242638791
 10
78.7867837965
 20
214.2162237929
 10
78.827122538
 20
214.1891520371
 10
78.8670176155
 20
214.1614306229
 10
78.9064585674
 20
214.1330668198
 10
78.945435051
 20
214.1040680655
 10
78.9839368452
 20
214.0744419645
 10
79.0219538538
 20
214.0441962858
 10
79.0594761073
 20
214.0133389608
 10
79.0964937663
 20
213.9818780812
 10
79.1329971235
 20
213.9498218972
 10
79.1689766064
 20
213.9171788149
 10
79.2044227802
 20
213.8839573944
 10
79.2393263497
 20
213.8501663474
 10
79.2736781621
 20
213.8158145351
 10
79.307469209
 20
213.7809109656
 10
79.3406906295
 20
213.7454647918
 10
79.3733337118
 20
213.7094853088
 10
79.4053898959
 20
213.6729819516
 10
79.4368507754
 20
213.6359642927
 10
79.4677081005
 20
213.5984420391
 10
79.4979537791
 20
213.5604250306
 10
79.5275798801
 20
213.5219232363
 10
79.5565786344
 20
213.4829467528
 10
79.5849424376
 20
213.4435058009
 10
79.6126638518
 20
213.4036107233
 10
79.6397356075
 20
213.3632719819
 10
79.6661506057
 20
213.3225001547
 10
79.6919019194
 20
213.2813059335
 10
79.7169827958
 20
213.2397001208
 10
79.741386658
 20
213.1976936268
 10
79.7651071063
 20
213.1552974672
 10
79.7881379206
 20
213.1125227596
 10
79.8104730614
 20
213.0693807209
 10
79.8321066717
 20
213.0258826643
 10
79.8530330784
 20
212.9820399965
 10
79.873246794
 20
212.9378642145
 10
79.8927425178
 20
212.8933669025
 10
79.9115151373
 20
212.8485597293
 10
79.9295597298
 20
212.8034544447
 10
79.9468715634
 20
212.7580628768
 10
79.9634460984
 20
212.7123969287
 10
79.9792789883
 20
212.6664685757
 10
79.9943660813
 20
212.6202898615
 10
80.008703421
 20
212.5738728957
 10
80.0222872477
 20
212.5272298505
 10
80.0351139994
 20
212.4803729571
 10
80.0471803123
 20
212.4333145029
 10
80.0584830224
 20
212.3860668282
 10
80.0690191656
 20
212.3386423229
 10
80.0787859791
 20
212.2910534232
 10
80.0877809017
 20
212.2433126085
 10
80.0960015746
 20
212.195432398
 10
80.1034458421
 20
212.1474253475
 10
80.1101117521
 20
212.099304046
 10
80.1159975565
 20
212.0510811124
 10
80.1211017119
 20
212.0027691923
 10
80.1254228798
 20
211.9543809549
 10
80.1289599271
 20
211.9059290889
 10
80.1317119263
 20
211.8574263001
 10
80.1336781556
 20
211.8088853075
 10
80.1348580994
 20
211.7603188402
 10
80.1352514484
 20
211.7117396338
 10
80.1352514484
 20
211.7117396338
 10
80.1352514484
 20
137.7117396338
 10
80.1352514484
 20
137.7117396338
 10
80.1348580994
 20
137.6631604274
 10
80.1336781556
 20
137.61459396
 10
80.1317119263
 20
137.5660529674
 10
80.1289599271
 20
137.5175501787
 10
80.1254228798
 20
137.4690983127
 10
80.1211017119
 20
137.4207100752
 10
80.1159975565
 20
137.3723981552
 10
80.1101117521
 20
137.3241752216
 10
80.1034458421
 20
137.27605392
 10
80.0960015746
 20
137.2280468695
 10
80.0877809017
 20
137.180166659
 10
80.0787859791
 20
137.1324258444
 10
80.0690191656
 20
137.0848369447
 10
80.0584830224
 20
137.0374124394
 10
80.0471803123
 20
136.9901647647
 10
80.0351139994
 20
136.9431063105
 10
80.0222872477
 20
136.8962494171
 10
80.008703421
 20
136.8496063718
 10
79.9943660813
 20
136.8031894061
 10
79.9792789883
 20
136.7570106919
 10
79.9634460984
 20
136.7110823388
 10
79.9468715634
 20
136.6654163908
 10
79.9295597298
 20
136.6200248229
 10
79.9115151373
 20
136.5749195383
 10
79.8927425178
 20
136.530112365
 10
79.873246794
 20
136.4856150531
 10
79.8530330784
 20
136.441439271
 10
79.8321066717
 20
136.3975966032
 10
79.8104730614
 20
136.3540985466
 10
79.7881379206
 20
136.3109565079
 10
79.7651071063
 20
136.2681818003
 10
79.741386658
 20
136.2257856407
 10
79.7169827958
 20
136.1837791468
 10
79.6919019194
 20
136.142173334
 10
79.6661506057
 20
136.1009791128
 10
79.6397356075
 20
136.0602072857
 10
79.6126638518
 20
136.0198685442
 10
79.5849424376
 20
135.9799734667
 10
79.5565786344
 20
135.9405325148
 10
79.5275798801
 20
135.9015560312
 10
79.4979537791
 20
135.863054237
 10
79.4677081005
 20
135.8250372284
 10
79.4368507754
 20
135.7875149749
 10
79.4053898959
 20
135.7504973159
 10
79.3733337118
 20
135.7139939587
 10
79.3406906295
 20
135.6780144758
 10
79.307469209
 20
135.6425683019
 10
79.2736781621
 20
135.6076647325
 10
79.2393263497
 20
135.5733129201
 10
79.2044227802
 20
135.5395218732
 10
79.1689766064
 20
135.5063004527
 10
79.1329971235
 20
135.4736573703
 10
79.0964937663
 20
135.4416011863
 10
79.0594761073
 20
135.4101403068
 10
79.0219538538
 20
135.3792829817
 10
78.9839368452
 20
135.349037303
 10
78.945435051
 20
135.3194112021
 10
78.9064585674
 20
135.2904124478
 10
78.8670176155
 20
135.2620486446
 10
78.827122538
 20
135.2343272304
 10
78.7867837965
 20
135.2072554747
 10
78.7460119694
 20
135.1808404765
 10
78.7048177482
 20
135.1550891628
 10
78.6632119354
 20
135.1300082864
 10
78.6212054415
 20
135.1056044242
 10
78.5788092819
 20
135.0818839759
 10
78.5360345743
 20
135.0588531616
 10
78.4928925355
 20
135.0365180208
 10
78.449394479
 20
135.0148844105
 10
78.4055518112
 20
134.9939580038
 10
78.3613760291
 20
134.9737442882
 10
78.3168787172
 20
134.9542485644
 10
78.2720715439
 20
134.9354759448
 10
78.2269662593
 20
134.9174313523
 10
78.1815746914
 20
134.9001195188
 10
78.1359087434
 20
134.8835449838
 10
78.0899803903
 20
134.8677120939
 10
78.0438016761
 20
134.8526250009
 10
77.9973847104
 20
134.8382876612
 10
77.9507416651
 20
134.8247038345
 10
77.9038847717
 20
134.8118770828
 10
77.8568263175
 20
134.7998107699
 10
77.8095786428
 20
134.7885080598
 10
77.7621541375
 20
134.7779719166
 10
77.7145652378
 20
134.7682051031
 10
77.6668244232
 20
134.7592101805
 10
77.6189442127
 20
134.7509895076
 10
77.5709371622
 20
134.7435452401
 10
77.5228158606
 20
134.7368793301
 10
77.474592927
 20
134.7309935257
 10
77.426281007
 20
134.7258893703
 10
77.3778927695
 20
134.7215682024
 10
77.3294409035
 20
134.7180311551
 10
77.2809381148
 20
134.7152791559
 10
77.2323971222
 20
134.7133129266
 10
77.1838306548
 20
134.7121329828
 10
77.1352514484
 20
134.7117396338
 97
0
 75
0
 76
0
 52
45.0
 41
6.3367991373
 77
0
 78
1
 53
45.0
 43
0.0
 44
0.0
 45
-4.480793641
 46
4.480793641
 79
0
 98
1
 10
0.0
 20
0.0
  0
DIMENSION
  5
300
100
AcDbEntity
  8
ZEICHNUNGSBEMASSUNGEN
100
AcDbDimension
 62
2
  6
CONTINUOUS
  2
*D0
 10
28.1565126111
 20
214.7117396338
 11
28.1565126111
 21
176.2148477752
 70
160
 71
2
 72
2
 41
0.9
 42
80.0
  3
DIMSTYLE_1
100
AcDbAlignedDimension
 13
43.1352514484
 23
134.7117396338
 14
43.1352514484
 24
214.7117396338
 50
90.0
100
AcDbRotatedDimension
  0
DIMENSION
  5
301
100
AcDbEntity
  8
ZEICHNUNGSBEMASSUNGEN
100
AcDbDimension
 62
2
  6
CONTINUOUS
  2
*D1
 10
80.1352514484
 20
226.7118626885
 11
61.6580715913
 21
226.7118626885
 70
160
 71
2
 72
2
 41
0.9
 42
40.0
  1
%%c<>
  3
DIMSTYLE_1
100
AcDbAlignedDimension
 13
40.1352514484
 23
211.7117396338
 14
80.1352514484
 24
211.7117396338
100
AcDbRotatedDimension
  0
ACAD_TABLE
  5
302
100
AcDbEntity
  8
0
 62
2
  6
CONTINUOUS
100
AcDbBlockReference
  2
*T1
 10
61.4
 20
56.0
 30
0.0
100
AcDbTable
342
       52F
343
218
 11
1.0
 21
0.0
 31
0.0
 90
22
 91
11
 92
6
 93
0
 94
0
 95
0
 96
0
141
3.0
141
5.0
141
6.0
141
6.0
141
6.0
141
3.0
141
3.0
141
3.0
141
3.0
141
3.0
141
5.0
142
23.1
142
23.1
142
23.1
142
23.1
142
23.1
142
23.1
171
1
172
0
173
0
174
0
175
1
176
1
177
41
178
0
145
0.0
  1
\Q15.0;Sheet Number
170
4
140
1.5
 64
5
171
1
172
0
173
0
174
0
175
1
176
1
177
41
178
0
145
0.0
  1
\Q15.0;Projection
170
4
140
1.5
 64
5
171
1
172
0
173
0
174
0
175
1
176
1
177
41
178
0
145
0.0
  1
\Q15.0;Scale
170
4
140
1.5
 64
5
171
1
172
0
173
0
174
0
175
1
176
1
177
41
178
0
145
0.0
  1
\Q15.0;Format
170
4
140
1.5
 64
5
171
1
172
0
173
0
174
0
175
2
176
1
177
41
178
0
145
0.0
  1
\Q15.0;Tolerancing
170
4
140
1.5
 64
5
171
1
172
0
173
1
174
0
175
1
176
1
177
1
178
0
145
0.0
170
1
171
1
172
0
173
0
174
0
175
1
176
1
177
41
178
0
145
0.0
  1
\Q15.0;1/1
170
4
140
2.0
 64
5
171
1
172
0
173
0
174
0
175
1
176
1
177
33
178
0
145
0.0
  1
 
170
1
140
3.0
171
1
172
0
173
0
174
0
175
1
176
1
177
41
178
0
145
0.0
  1
\Q15.0;1:1
170
4
140
2.0
 64
5
171
1
172
0
173
0
174
0
175
1
176
1
177
41
178
0
145
0.0
  1
\Q15.0;A4
170
4
140
2.0
 64
5
171
1
172
0
173
0
174
0
175
2
176
1
177
41
178
0
145
0.0
  1
\Q15.0;ISO 2768-mK
170
4
140
2.0
 64
5
171
1
172
0
173
1
174
0
175
1
176
1
177
1
178
0
145
0.0
170
1
171
1
172
0
173
0
174
0
175
1
176
1
177
41
178
0
145
0.0
  1
\Q15.0;   635.09 g
170
4
140
2.0
 64
5
171
1
172
0
173
0
174
0
175
1
176
1
177
41
178
0
145
0.0
  1
\Q15.0;   -[.2] cm²
170
4
140
2.0
 64
5
171
1
172
0
173
0
174
0
175
1
176
1
177
41
178
0
145
0.0
  1
\Q15.0;   -[.2] cm³
170
4
140
2.0
 64
5
171
1
172
0
173
0
174
0
175
1
176
1
177
41
178
0
145
0.0
  1
\Q15.0;Created
170
4
140
1.5
 64
5
171
1
172
0
173
0
174
0
175
1
176
1
177
41
178
0
145
0.0
  1
\Q15.0;15.11.2006
170
4
140
2.0
 64
5
171
1
172
0
173
0
174
0
175
1
176
1
177
41
178
0
145
0.0
  1
\Q15.0;Jutz B.
170
4
140
2.0
 64
5
171
1
172
0
173
0
174
0
175
1
176
1
177
41
178
0
145
0.0
  1
\Q15.0;Material
170
4
140
1.5
 64
5
171
1
172
0
173
0
174
0
175
2
176
1
177
41
178
0
145
0.0
  1
\Q15.0;Alu
170
4
140
2.0
 64
5
171
1
172
0
173
1
174
0
175
1
176
1
177
1
178
0
145
0.0
170
1
171
1
172
0
173
0
174
0
175
1
176
1
177
41
178
0
145
0.0
  1
\Q15.0;Modified
170
4
140
1.5
 64
5
171
1
172
0
173
0
174
0
175
1
176
1
177
41
178
0
145
0.0
  1
\Q15.0;n.a.
170
4
140
2.0
 64
5
171
1
172
0
173
0
174
0
175
1
176
1
177
41
178
0
145
0.0
  1
\Q15.0;n.a.
170
4
140
2.0
 64
5
171
1
172
0
173
0
174
0
175
1
176
1
177
41
178
0
145
0.0
  1
\Q15.0;Material addition
170
4
140
1.5
 64
5
171
1
172
0
173
0
174
0
175
1
176
1
177
41
178
0
145
0.0
  1
\Q15.0;nextel beschichtet
170
4
140
2.0
 64
5
171
1
172
0
173
0
174
0
175
1
176
1
177
41
178
0
145
0.0
  1
\Q15.0;-
170
4
140
2.0
 64
5
171
1
172
0
173
0
174
0
175
1
176
1
177
41
178
0
145
0.0
  1
\Q15.0;Approved
170
4
140
1.5
 64
5
171
1
172
0
173
0
174
0
175
1
176
1
177
41
178
0
145
0.0
  1
\Q15.0;n.a.
170
4
140
2.0
 64
5
171
1
172
0
173
0
174
0
175
1
176
1
177
41
178
0
145
0.0
  1
\Q15.0;n.a.
170
4
140
2.0
 64
5
171
1
172
0
173
0
174
0
175
3
176
1
177
41
178
0
145
0.0
  1
\Q15.0;Description
170
4
140
1.5
 64
5
171
1
172
0
173
1
174
0
175
1
176
1
177
1
178
0
145
0.0
170
1
171
1
172
0
173
1
174
0
175
1
176
1
177
1
178
0
145
0.0
170
1
171
1
172
0
173
0
174
0
175
1
176
2
177
41
178
0
145
0.0
  1
\Q15.0;ECN Number
170
4
140
1.5
 64
5
171
1
172
0
173
0
174
0
175
2
176
2
177
41
178
0
145
0.0
  1
\Q15.0;-
170
4
140
2.0
 64
5
171
1
172
0
173
1
174
0
175
1
176
1
177
1
178
0
145
0.0
170
1
171
1
172
0
173
0
174
0
175
3
176
3
177
41
178
0
145
0.0
  1
\Q15.0;HTX
170
1
140
2.5
 64
5
171
1
172
0
173
1
174
0
175
1
176
1
177
1
178
0
145
0.0
170
1
171
1
172
0
173
1
174
0
175
1
176
1
177
1
178
0
145
0.0
170
1
171
1
172
0
173
1
174
0
175
1
176
1
177
1
178
0
145
0.0
170
1
171
1
172
0
173
1
174
0
175
1
176
1
177
1
178
0
145
0.0
170
1
171
1
172
0
173
1
174
0
175
1
176
1
177
1
178
0
145
0.0
170
1
171
1
172
0
173
1
174
0
175
1
176
1
177
1
178
0
145
0.0
170
1
171
1
172
0
173
1
174
0
175
1
176
1
177
1
178
0
145
0.0
170
1
171
1
172
0
173
1
174
0
175
1
176
1
177
1
178
0
145
0.0
170
1
171
1
172
0
173
0
174
0
175
1
176
2
177
41
178
0
145
0.0
  1
\Q15.0;Status
170
4
140
1.5
 64
5
171
1
172
0
173
0
174
0
175
2
176
2
177
41
178
0
145
0.0
  1
\Q15.0;Rework
170
4
140
2.0
 64
5
171
1
172
0
173
1
174
0
175
1
176
1
177
1
178
0
145
0.0
170
1
171
1
172
0
173
1
174
0
175
1
176
1
177
1
178
0
145
0.0
170
1
171
1
172
0
173
1
174
0
175
1
176
1
177
1
178
0
145
0.0
170
1
171
1
172
0
173
1
174
0
175
1
176
1
177
1
178
0
145
0.0
170
1
171
1
172
0
173
1
174
0
175
1
176
1
177
1
178
0
145
0.0
170
1
171
1
172
0
173
1
174
0
175
1
176
1
177
1
178
0
145
0.0
170
1
171
1
172
0
173
1
174
0
175
1
176
1
177
1
178
0
145
0.0
170
1
171
1
172
0
173
0
174
0
175
2
176
2
177
33
178
0
145
0.0
  1
 
170
1
140
3.0
171
1
172
0
173
1
174
0
175
1
176
1
177
1
178
0
145
0.0
170
1
171
1
172
0
173
0
174
0
175
1
176
1
177
41
178
0
145
0.0
  1
\Q15.0;3D Model ID
170
4
140
1.5
 64
5
171
1
172
0
173
0
174
0
175
2
176
1
177
41
178
0
145
0.0
  1
\Q15.0;Document ID
170
4
140
1.5
 64
5
171
1
172
0
173
1
174
0
175
1
176
1
177
1
178
0
145
0.0
170
1
171
1
172
0
173
0
174
0
175
1
176
1
177
41
178
0
145
0.0
  1
\Q15.0;Revision
170
4
140
1.5
 64
5
171
1
172
0
173
1
174
0
175
1
176
1
177
1
178
0
145
0.0
170
1
171
1
172
0
173
1
174
0
175
1
176
1
177
1
178
0
145
0.0
170
1
171
1
172
0
173
0
174
0
175
1
176
1
177
41
178
0
145
0.0
  1
\Q15.0;93001044
170
4
140
2.0
 64
5
171
1
172
0
173
0
174
0
175
2
176
1
177
41
178
0
145
0.0
  1
\Q15.0;ST-HTXP
170
4
140
3.0
 64
5
171
1
172
0
173
1
174
0
175
1
176
1
177
1
178
0
145
0.0
170
1
171
1
172
0
173
0
174
0
175
1
176
1
177
41
178
0
145
0.0
  1
\Q15.0;-
170
4
140
3.0
 64
5
  0
MTEXT
  5
303
100
AcDbEntity
  8
0
100
AcDbMText
 62
5
  6
CONTINUOUS
  7
TEXTSTYLE_3
 71
1
 72
1
 10
156.2171125347
 20
173.423026998
 30
0.0
 11
1.0
 21
0.0
 31
0.0
 73
2
 44
0.9
  1
\Q15.0;BPX
 40
5.0
 41
20.9444444444
  0
MTEXT
  5
304
100
AcDbEntity
  8
0
100
AcDbMText
 62
5
  6
CONTINUOUS
  7
TEXTSTYLE_3
 71
1
 72
1
 10
157.4379004898
 20
264.1553101128
 30
0.0
 11
1.0
 21
0.0
 31
0.0
 73
2
 44
0.9
  1
\Q15.0;BXX
 40
5.0
 41
20.9444444444
  0
LINE
  5
305
100
AcDbEntity
  8
0
100
AcDbLine
 62
7
  6
CONTINUOUS
 10
0.0
 20
0.0
 11
210.0
 21
0.0
  0
LINE
  5
306
100
AcDbEntity
  8
0
100
AcDbLine
 62
7
  6
CONTINUOUS
 10
12.5
 20
10.0
 11
200.0
 21
10.0
  0
LINE
  5
307
100
AcDbEntity
  8
0
100
AcDbLine
 62
7
  6
CONTINUOUS
 10
-0.0
 20
-0.0
 11
0.0
 21
297.0
  0
LINE
  5
308
100
AcDbEntity
  8
0
100
AcDbLine
 62
7
  6
CONTINUOUS
 10
12.5
 20
10.0
 11
12.5
 21
287.0
  0
LINE
  5
309
100
AcDbEntity
  8
0
100
AcDbLine
 62
7
  6
CONTINUOUS
 10
200.0
 20
10.0
 11
200.0
 21
287.0
  0
LINE
  5
30A
100
AcDbEntity
  8
0
100
AcDbLine
 62
7
  6
CONTINUOUS
 10
210.0
 20
0.0
 11
210.0
 21
297.0
  0
LINE
  5
30B
100
AcDbEntity
  8
0
100
AcDbLine
 62
7
  6
CONTINUOUS
 10
12.5
 20
287.0
 11
200.0
 21
287.0
  0
LINE
  5
30C
100
AcDbEntity
  8
0
100
AcDbLine
 62
7
  6
CONTINUOUS
 10
0.0
 20
297.0
 11
210.0
 21
297.0
  0
LWPOLYLINE
  5
30D
100
AcDbEntity
  8
FASEN
100
AcDbPolyline
 62
9
  6
CONTINUOUS
 90
33
 70
0
 10
148.9528312052
 20
150.8885458212
 10
148.1390297376
 20
149.9254413619
 10
147.4065691396
 20
148.930657787
 10
146.7608835136
 20
147.9102358446
 10
146.2051966336
 20
146.870788678
 10
145.7438656056
 20
145.8186996568
 10
145.3789245366
 20
144.7606988501
 10
145.1136095214
 20
143.7034168176
 10
144.9486717024
 20
142.6535354571
 10
144.8861330355
 20
141.6178147767
 10
144.9254171756
 20
140.6026510053
 10
145.0672401977
 20
139.6147161411
 10
145.3097467967
 20
138.6599428853
 10
145.6523528618
 20
137.7446892427
 10
146.0919608855
 20
136.8743513007
 10
146.6266970883
 20
136.0548872799
 10
147.2523061748
 20
135.2909687857
 10
147.9656799106
 20
134.5879695786
 10
148.7615033327
 20
133.9497414139
 10
149.6354993816
 20
133.3809538616
 10
150.5814461134
 20
132.8845272368
 10
151.5940385216
 20
132.4642933912
 10
152.6662487352
 20
132.122187284
 10
153.791772291
 20
131.8611311103
 10
154.9631339591
 20
131.6819950144
 10
156.1735150147
 20
131.5866892664
 10
157.4146414783
 20
131.5750156844
 10
158.6784582504
 20
131.6477970164
 10
159.9574899662
 20
131.8038807425
 10
161.2453653849
 20
132.0435192862
 10
162.5307170355
 20
132.363320565
 10
163.7983672977
 20
132.7595631449
 10
165.0533753784
 20
133.2334875039
  0
LINE
  5
30E
100
AcDbEntity
  8
0
100
AcDbLine
 62
7
  6
CONTINUOUS
 10
144.0354810691
 20
134.2103135515
 11
149.5609591652
 21
122.950573038
  0
LWPOLYLINE
  5
30F
100
AcDbEntity
  8
RUNDUNGEN
100
AcDbPolyline
 62
7
  6
CONTINUOUS
 90
41
 70
0
 10
144.0354810691
 20
134.2103135515
 10
143.5718973398
 20
135.286376114
 10
143.212345744
 20
136.4172156932
 10
142.9621375069
 20
137.5966538001
 10
142.8260275604
 20
138.8160551058
 10
142.8073035616
 20
140.0665682571
 10
142.9080888733
 20
141.3408369805
 10
143.130325061
 20
142.6337935133
 10
143.4730012357
 20
143.9301030236
 10
143.9309561655
 20
145.2128754006
 10
144.503889032
 20
146.4833449822
 10
145.1940110333
 20
147.7425040028
 10
145.9938830463
 20
148.9735189234
 10
146.8943003724
 20
150.1629077167
 10
147.8896725192
 20
151.3048828853
 10
148.9720383242
 20
152.3916961112
 10
150.1346728505
 20
153.4178618503
 10
151.3704707462
 20
154.3779703465
 10
152.6702151865
 20
155.2656556898
 10
154.0236363971
 20
156.0749499139
 10
155.4238811384
 20
156.8026450375
 10
156.8631784151
 20
157.4451321387
 10
158.3336471775
 20
157.9990089014
 10
159.8286022048
 20
158.4614555782
 10
161.3364092123
 20
158.8285254844
 10
162.8454906654
 20
159.0974692743
 10
164.3487462803
 20
159.2670592018
 10
165.8393466612
 20
159.3360795318
 10
167.3056698258
 20
159.3035276092
 10
168.7388404723
 20
159.1693633194
 10
170.1256412594
 20
158.9350932372
 10
171.4507542725
 20
158.6050396442
 10
172.7163602125
 20
158.1802788985
 10
173.9236361171
 20
157.6597309878
 10
175.0572933032
 20
157.0491906631
 10
176.1052493417
 20
156.3566684673
 10
177.065638502
 20
155.585570211
 10
177.9345171098
 20
154.7405463338
 10
178.7066047294
 20
153.8283731876
 10
179.3776733288
 20
152.8564001566
 10
179.9447472075
 20
151.8320219079
  0
LINE
  5
310
100
AcDbEntity
  8
0
100
AcDbLine
 62
7
  6
CONTINUOUS
 10
176.8670724216
 20
117.820860256
 11
176.9237518248
 21
117.8235291534
  0
LINE
  5
311
100
AcDbEntity
  8
0
100
AcDbLine
 62
7
  6
CONTINUOUS
 10
176.9237518248
 20
117.8235291534
 11
177.3306704142
 21
117.8038099609
  0
LINE
  5
312
100
AcDbEntity
  8
0
100
AcDbLine
 62
2
  6
CONTINUOUS
 10
167.936975648
 20
119.3721425729
 11
177.2432298467
 21
117.7555164667
  0
LINE
  5
313
100
AcDbEntity
  8
0
100
AcDbLine
 62
2
  6
CONTINUOUS
 10
158.2691657918
 20
122.9723429201
 11
167.936975648
 21
119.3721425729
  0
LINE
  5
314
100
AcDbEntity
  8
0
100
AcDbLine
 62
2
  6
CONTINUOUS
 10
149.5609591652
 20
122.950573038
 11
158.2691657918
 21
122.9723429201
  0
LWPOLYLINE
  5
315
100
AcDbEntity
  8
0
100
AcDbPolyline
 62
7
  6
CONTINUOUS
 90
43
 70
0
 10
154.7656867663
 20
144.7279345921
 10
154.7527279178
 20
144.6772056696
 10
154.7414428285
 20
144.6250794063
 10
154.731800393
 20
144.5717516862
 10
154.7238721539
 20
144.5166733402
 10
154.7176895519
 20
144.4595926541
 10
154.7133983997
 20
144.399820655
 10
154.7110942273
 20
144.3367442584
 10
154.7110464713
 20
144.2699011697
 10
154.7134434203
 20
144.1987749048
 10
154.7186748208
 20
144.1229356107
 10
154.7270924497
 20
144.0418564732
 10
154.7390083285
 20
143.9553339417
 10
154.7548192785
 20
143.8628160707
 10
154.7745981724
 20
143.7648373434
 10
154.7985389254
 20
143.6616320561
 10
154.8265641689
 20
143.5535358185
 10
154.8586798031
 20
143.4407960919
 10
154.8947553868
 20
143.3238932476
 10
154.9347664809
 20
143.2031356364
 10
154.9783209466
 20
143.0792575232
 10
155.0250662765
 20
142.9531025117
 10
155.0748006653
 20
142.8246138807
 10
155.1272395138
 20
142.69399479
 10
155.1823231286
 20
142.5613089818
 10
155.2398735553
 20
142.4268078348
 10
155.2999738788
 20
142.2901280568
 10
155.3625563127
 20
142.1512584163
 10
155.4279417477
 20
142.0094113863
 10
155.4963649746
 20
141.8640014897
 10
155.5680922873
 20
141.7144538068
 10
155.6433986125
 20
141.560167744
 10
155.7225620977
 20
141.4006810939
 10
155.805924762
 20
141.2353951245
 10
155.8936190154
 20
141.064161453
 10
155.9858654339
 20
140.8866676444
 10
156.0827694591
 20
140.7028390139
 10
156.1844683295
 20
140.5125524798
 10
156.2911041944
 20
140.3156675235
 10
156.4028178494
 20
140.1120585387
 10
156.5197718988
 20
139.9015902415
 10
156.6421823111
 20
139.6840364059
 10
156.8295526015
 20
139.3560291437
  0
LWPOLYLINE
  5
316
100
AcDbEntity
  8
0
100
AcDbPolyline
 62
7
  6
CONTINUOUS
 90
5
 70
0
 10
154.7656867663
 20
144.7279345921
 10
154.7879603608
 20
144.8067059985
 10
154.8116666171
 20
144.8856508148
 10
154.8368055352
 20
144.964769041
 10
154.8633771152
 20
145.044060677
  0
LWPOLYLINE
  5
317
100
AcDbEntity
  8
BEZUGSACHSEN
100
AcDbPolyline
 62
9
  6
CONTINUOUS
 90
27
 70
0
 10
161.5496773517
 20
151.3463751388
 10
161.4403203485
 20
151.2637828789
 10
161.336614684
 20
151.1654083223
 10
161.2429475501
 20
151.0529696241
 10
161.161412401
 20
150.9293180399
 10
161.0926620268
 20
150.7973565644
 10
161.0351097198
 20
150.6587150408
 10
160.9870049467
 20
150.5140436896
 10
160.9467727666
 20
150.3642148906
 10
160.9135537663
 20
150.2096329359
 10
160.8864787766
 20
150.0499400939
 10
160.8643787737
 20
149.8847956287
 10
160.8463255059
 20
149.7144285314
 10
160.8320764912
 20
149.5388334229
 10
160.8213247224
 20
149.3577037614
 10
160.8137480808
 20
149.1708603133
 10
160.8090856251
 20
148.9779570229
 10
160.8070052506
 20
148.7786543994
 10
160.8073147828
 20
148.5727754276
 10
160.8099250817
 20
148.3601497473
 10
160.8147180775
 20
148.1404412523
 10
160.8216450855
 20
147.91338222
 10
160.8306547004
 20
147.6786851387
 10
160.8416615277
 20
147.4360694824
 10
160.8546481651
 20
147.1852251336
 10
160.8696444168
 20
146.9257181764
 10
160.8866223475
 20
146.6576949672
  0
LWPOLYLINE
  5
318
100
AcDbEntity
  8
BEZUGSACHSEN
100
AcDbPolyline
 62
9
  6
CONTINUOUS
 90
28
 70
0
 10
153.0787420241
 20
143.5918343632
 10
152.6659907787
 20
143.2887199802
 10
152.2887339977
 20
142.9592696261
 10
151.9442506259
 20
142.6006707963
 10
151.6407038295
 20
142.2213610043
 10
151.3848461375
 20
141.8273189394
 10
151.178188406
 20
141.4231085704
 10
151.0241540274
 20
141.0135352627
 10
150.9237579217
 20
140.6038535161
 10
150.8793177435
 20
140.1992392946
 10
150.8903486812
 20
139.8047335707
 10
150.9577689534
 20
139.4256404354
 10
151.0796871249
 20
139.0663464973
 10
151.2555859728
 20
138.731756905
 10
151.4822610787
 20
138.4256201304
 10
151.7577905466
 20
138.1523851162
 10
152.0778095865
 20
137.9148555988
 10
152.4390572183
 20
137.7167419579
 10
152.8363001159
 20
137.5597732056
 10
153.2652337155
 20
137.4467107904
 10
153.7198107498
 20
137.3781677841
 10
154.1946406993
 20
137.3558813307
 10
154.6834487571
 20
137.3792406621
 10
155.1802165251
 20
137.4487635761
 10
155.6787842582
 20
137.5628015192
 10
156.1737590868
 20
137.7212690346
 10
156.6568219873
 20
137.9199946303
 10
157.1165917319
 20
138.1542533317
  0
LINE
  5
319
100
AcDbEntity
  8
BEZUGSACHSEN
100
AcDbLine
 62
9
  6
CONTINUOUS
 10
153.0787420241
 20
143.5918343632
 11
154.7656867663
 21
144.7279345921
  0
LINE
  5
31A
100
AcDbEntity
  8
BEZUGSACHSEN
100
AcDbLine
 62
9
  6
CONTINUOUS
 10
162.9061702713
 20
150.2102749098
 11
164.5931150135
 21
151.3463751388
  0
LWPOLYLINE
  5
31B
100
AcDbEntity
  8
BEZUGSACHSEN
100
AcDbPolyline
 62
9
  6
CONTINUOUS
 90
29
 70
0
 10
164.5931150135
 20
151.3463751388
 10
165.0395951259
 20
151.6207787594
 10
165.5027410807
 20
151.8564066583
 10
165.9856125797
 20
152.0543711857
 10
166.4790305175
 20
152.2113352909
 10
166.976930988
 20
152.3245324014
 10
167.4730280949
 20
152.3933634327
 10
167.9609907282
 20
152.4161169505
 10
168.4348906239
 20
152.3933634327
 10
168.8884469359
 20
152.3245324014
 10
169.3163863007
 20
152.2113352909
 10
169.7127930842
 20
152.0543711857
 10
170.0733132515
 20
151.8564066583
 10
170.392693015
 20
151.6191803151
 10
170.6677159981
 20
151.3463751388
 10
170.8940537068
 20
151.0407820768
 10
171.069788705
 20
150.7068158422
 10
171.1917348409
 20
150.3481797737
 10
171.2593697676
 20
149.9697989425
 10
171.2708094424
 20
149.5761033774
 10
171.2269527998
 20
149.1722815443
 10
171.1273123804
 20
148.7632680223
 10
170.9741633239
 20
148.3542545003
 10
170.7684391969
 20
147.9504326673
 10
170.5136772596
 20
147.5567371022
 10
170.2121852918
 20
147.178356271
 10
169.868585301
 20
146.8197202024
 10
169.4889424631
 20
146.4877583538
 10
169.0712350527
 20
146.1801609059
  0
LINE
  5
31C
100
AcDbEntity
  8
BEZUGSACHSEN
100
AcDbLine
 62
9
  6
CONTINUOUS
 10
153.9622982298
 20
142.2953993183
 11
154.1659296357
 21
141.9598877559
  0
LINE
  5
31D
100
AcDbEntity
  8
BEZUGSACHSEN
100
AcDbLine
 62
9
  6
CONTINUOUS
 10
154.1659296357
 20
141.9598877559
 11
154.3790681599
 21
141.6031629859
  0
LINE
  5
31E
100
AcDbEntity
  8
BEZUGSACHSEN
100
AcDbLine
 62
9
  6
CONTINUOUS
 10
154.3790681599
 20
141.6031629859
 11
154.7200433234
 21
141.0241136239
  0
LINE
  5
31F
100
AcDbEntity
  8
0
100
AcDbLine
 62
7
  6
CONTINUOUS
 10
157.0240666446
 20
139.0209324822
 11
157.2819459603
 21
138.5826471327
  0
LINE
  5
320
100
AcDbEntity
  8
BEZUGSACHSEN
100
AcDbLine
 62
9
  6
CONTINUOUS
 10
154.7200433234
 20
141.0241136239
 11
155.222701534
 21
140.1588414444
  0
LINE
  5
321
100
AcDbEntity
  8
0
100
AcDbLine
 62
7
  6
CONTINUOUS
 10
156.8295526015
 20
139.3560291437
 11
157.0240666446
 21
139.0209324822
  0
LINE
  5
322
100
AcDbEntity
  8
BEZUGSACHSEN
100
AcDbLine
 62
9
  6
CONTINUOUS
 10
155.222701534
 20
140.1588414444
 11
156.3959820752
 21
138.1130044869
  0
LINE
  5
323
100
AcDbEntity
  8
BEZUGSACHSEN
100
AcDbLine
 62
9
  6
CONTINUOUS
 10
160.8866223475
 20
146.6576949672
 11
160.9154729507
 21
146.2285710793
  0
LWPOLYLINE
  5
324
100
AcDbEntity
  8
BEZUGSACHSEN
100
AcDbPolyline
 62
9
  6
CONTINUOUS
 90
18
 70
0
 10
160.9154729507
 20
146.2285710793
 10
160.9284297434
 20
146.0131816489
 10
160.939351828
 20
145.8055787691
 10
160.9480499894
 20
145.6052466174
 10
160.9541780594
 20
145.4117546711
 10
160.9573738447
 20
145.2247312372
 10
160.957157211
 20
145.0436952184
 10
160.9527488019
 20
144.8683768291
 10
160.9431015579
 20
144.698203221
 10
160.9270255142
 20
144.5333742833
 10
160.9032606249
 20
144.3744320157
 10
160.8692749015
 20
144.2207855163
 10
160.8229987786
 20
144.0730091701
 10
160.7612113209
 20
143.9302394372
 10
160.6816474098
 20
143.7942233124
 10
160.5820642473
 20
143.6659232592
 10
160.4615420664
 20
143.5470793852
 10
160.3249613866
 20
143.4429660477
  0
LWPOLYLINE
  5
325
100
AcDbEntity
  8
BEZUGSACHSEN
100
AcDbPolyline
 62
9
  6
CONTINUOUS
 90
6
 70
0
 10
156.0615496335
 20
138.6970897177
 10
155.8319860723
 20
138.5208339518
 10
155.6300773067
 20
138.3237737477
 10
155.4606727554
 20
138.1107948281
 10
155.3281101775
 20
137.8868206138
 10
155.2849176577
 20
137.7792597088
  0
LWPOLYLINE
  5
326
100
AcDbEntity
  8
BEZUGSACHSEN
100
AcDbPolyline
 62
9
  6
CONTINUOUS
 90
7
 70
0
 10
155.9438366361
 20
138.9031541917
 10
155.7038700178
 20
138.7204309239
 10
155.492923771
 20
138.5155440554
 10
155.3161920922
 20
138.2935385808
 10
155.1780267021
 20
138.0598810118
 10
155.0818296909
 20
137.8203247732
 10
155.0658920864
 20
137.7467043174
  0
LINE
  5
327
100
AcDbEntity
  8
BEZUGSACHSEN
100
AcDbLine
 62
9
  6
CONTINUOUS
 10
167.5759226228
 20
146.4516304933
 11
166.7498944062
 21
145.8930835826
  0
LINE
  5
328
100
AcDbEntity
  8
BEZUGSACHSEN
100
AcDbLine
 62
9
  6
CONTINUOUS
 10
167.4582096254
 20
146.6576949672
 11
166.631999295
 21
146.1012702533
  0
LINE
  5
329
100
AcDbEntity
  8
BEZUGSACHSEN
100
AcDbLine
 62
9
  6
CONTINUOUS
 10
156.7700469665
 20
139.4595789056
 11
155.9438366361
 21
138.9031541917
  0
LINE
  5
32A
100
AcDbEntity
  8
BEZUGSACHSEN
100
AcDbLine
 62
9
  6
CONTINUOUS
 10
156.8894292001
 20
139.2523937615
 11
156.0615496335
 21
138.6970897177
  0
LWPOLYLINE
  5
32B
100
AcDbEntity
  8
BEZUGSACHSEN
100
AcDbPolyline
 62
9
  6
CONTINUOUS
 90
20
 70
0
 10
160.3249613866
 20
143.4429660477
 10
160.1931342192
 20
143.3641377955
 10
160.0600031005
 20
143.3049707398
 10
159.9303625942
 20
143.267116491
 10
159.8040887113
 20
143.2488014286
 10
159.680568544
 20
143.2484537704
 10
159.5605478234
 20
143.2639974895
 10
159.4427349934
 20
143.2932403337
 10
159.3264422442
 20
143.3342514175
 10
159.2101390043
 20
143.3857538594
 10
159.0935396029
 20
143.4457707157
 10
158.9761077633
 20
143.5134424031
 10
158.8574771282
 20
143.5878555536
 10
158.7374633422
 20
143.6681290739
 10
158.615307895
 20
143.7538420133
 10
158.4906092767
 20
143.8447629481
 10
158.3629431473
 20
143.940747339
 10
158.2319666463
 20
144.0417131411
 10
158.0973014826
 20
144.1475752799
 10
157.9586051073
 20
144.2584493706
  0
LWPOLYLINE
  5
32C
100
AcDbEntity
  8
BEZUGSACHSEN
100
AcDbPolyline
 62
9
  6
CONTINUOUS
 90
11
 70
0
 10
153.0787420241
 20
143.5918343632
 10
153.1478055803
 20
143.5092421033
 10
153.2250124874
 20
143.4108675468
 10
153.3085239291
 20
143.2984288485
 10
153.3962758382
 20
143.1747772643
 10
153.4864481746
 20
143.0428157888
 10
153.5783909244
 20
142.9041742652
 10
153.6720575024
 20
142.7595029141
 10
153.7672381238
 20
142.609674115
 10
153.8638602243
 20
142.4550921604
 10
153.9622982298
 20
142.2953993183
  0
LINE
  5
32D
100
AcDbEntity
  8
0
100
AcDbLine
 62
7
  6
CONTINUOUS
 10
161.3724296443
 20
146.0493873231
 11
161.3993395719
 21
145.6689081401
  0
LWPOLYLINE
  5
32E
100
AcDbEntity
  8
0
100
AcDbPolyline
 62
7
  6
CONTINUOUS
 90
35
 70
0
 10
161.3993395719
 20
145.6689081401
 10
161.4134300145
 20
145.451712147
 10
161.4258313531
 20
145.241622685
 10
161.4360437488
 20
145.0383049795
 10
161.443850612
 20
144.8415028673
 10
161.4485780312
 20
144.6510453179
 10
161.4499390906
 20
144.4667157191
 10
161.4466475686
 20
144.2882949869
 10
161.438083576
 20
144.1155640053
 10
161.4221244383
 20
143.9481167306
 10
161.3976865303
 20
143.7850274162
 10
161.3613384937
 20
143.6272591679
 10
161.3103190498
 20
143.4746465905
 10
161.2419942883
 20
143.3289467455
 10
161.1509892304
 20
143.1899701865
 10
161.0432585619
 20
143.062504528
 10
160.9213535234
 20
142.9520432339
 10
160.7889725867
 20
142.8574576918
 10
160.6492009866
 20
142.7784515199
 10
160.5055349411
 20
142.7192399622
 10
160.3611255358
 20
142.6853979794
 10
160.2186532615
 20
142.674046253
 10
160.0827471666
 20
142.6858672401
 10
159.950404157
 20
142.7163473671
 10
159.8210132943
 20
142.7615669397
 10
159.6928982878
 20
142.8196926494
 10
159.5646336224
 20
142.8875625689
 10
159.4354192616
 20
142.9646971505
 10
159.3041569921
 20
143.0496636891
 10
159.1705721862
 20
143.1418790622
 10
159.0341624411
 20
143.2402845749
 10
158.894646245
 20
143.3447280041
 10
158.7516676139
 20
143.4547118569
 10
158.6050211038
 20
143.5701247768
 10
158.4543577824
 20
143.6906506849
  0
LINE
  5
32F
100
AcDbEntity
  8
BEZUGSACHSEN
100
AcDbLine
 62
7
  6
CONTINUOUS
 10
157.3162672955
 20
138.6074837165
 11
157.3163049347
 21
138.6075091066
  0
LINE
  5
330
100
AcDbEntity
  8
0
100
AcDbLine
 62
7
  6
CONTINUOUS
 10
168.830677924
 20
146.3620498822
 11
167.5988808871
 21
145.532476239
  0
LINE
  5
331
100
AcDbEntity
  8
0
100
AcDbLine
 62
7
  6
CONTINUOUS
 10
158.5481019716
 20
139.4370827498
 11
157.3163049347
 21
138.6075091066
  0
LINE
  5
332
100
AcDbEntity
  8
BEZUGSACHSEN
100
AcDbLine
 62
9
  6
CONTINUOUS
 10
157.5568620633
 20
138.4256201304
 11
159.2438068055
 21
139.5617203593
  0
LINE
  5
333
100
AcDbEntity
  8
BEZUGSACHSEN
100
AcDbLine
 62
9
  6
CONTINUOUS
 10
167.3842903105
 20
145.044060677
 11
169.0712350527
 21
146.1801609059
  0
LWPOLYLINE
  5
334
100
AcDbEntity
  8
BEZUGSACHSEN
100
AcDbPolyline
 62
7
  6
CONTINUOUS
 90
18
 70
0
 10
157.3162672955
 20
138.6074837165
 10
157.1950949581
 20
138.5282578663
 10
156.8806905646
 20
138.343332426
 10
156.557054584
 20
138.1809870305
 10
156.2311566551
 20
138.0434379831
 10
155.9089709188
 20
137.9313230028
 10
155.5965256865
 20
137.844393185
 10
155.2994911561
 20
137.7814258757
 10
155.0219331805
 20
137.74017038
 10
154.7680015919
 20
137.7178870012
 10
154.5389266407
 20
137.7112585605
 10
154.3368385333
 20
137.7169521743
 10
154.1604474253
 20
137.731797746
 10
154.0085682628
 20
137.7530278757
 10
153.8813020326
 20
137.7778656855
 10
153.7752982532
 20
137.804530697
 10
153.7001592618
 20
137.8277140536
 10
153.6667232861
 20
137.8396530205
  0
LINE
  5
335
100
AcDbEntity
  8
BEZUGSACHSEN
100
AcDbLine
 62
9
  6
CONTINUOUS
 10
157.1165917319
 20
138.1542533317
 11
157.5568620633
 21
138.4256201304
  0
LWPOLYLINE
  5
336
100
AcDbEntity
  8
0
100
AcDbPolyline
 62
7
  6
CONTINUOUS
 90
9
 70
0
 10
158.5481593706
 20
139.4370493864
 10
158.5926083106
 20
139.464089487
 10
158.6556639951
 20
139.4932191959
 10
158.7300313695
 20
139.5178696375
 10
158.8149247334
 20
139.5374740276
 10
158.9111698727
 20
139.5511998211
 10
159.0160288171
 20
139.5597316103
 10
159.1266179653
 20
139.5632147776
 10
159.2438068055
 20
139.5617203593
  0
LWPOLYLINE
  5
337
100
AcDbEntity
  8
BEZUGSACHSEN
100
AcDbPolyline
 62
9
  6
CONTINUOUS
 90
10
 70
0
 10
157.3163049347
 20
138.6075091066
 10
157.3256213839
 20
138.6116722154
 10
157.3395524729
 20
138.6124014944
 10
157.356952862
 20
138.6077377816
 10
157.3786616109
 20
138.5966488124
 10
157.4050114981
 20
138.5783026738
 10
157.43625806
 20
138.5520422989
 10
157.4723767251
 20
138.517469906
 10
157.5128065939
 20
138.475047835
 10
157.5568620633
 20
138.4256201304
  0
LINE
  5
338
100
AcDbEntity
  8
FASEN
100
AcDbLine
 62
9
  6
CONTINUOUS
 10
175.2915784237
 20
134.9570954234
 11
174.399061367
 21
134.8666801308
  0
LINE
  5
339
100
AcDbEntity
  8
FASEN
100
AcDbLine
 62
7
  6
CONTINUOUS
 10
165.0533804981
 20
133.2334815975
 11
165.7298787462
 21
133.1928530784
  0
LINE
  5
33A
100
AcDbEntity
  8
FASEN
100
AcDbLine
 62
7
  6
CONTINUOUS
 10
165.0533753784
 20
133.2334875039
 11
159.5688944537
 21
139.5606969501
  0
LINE
  5
33B
100
AcDbEntity
  8
BEZUGSACHSEN
100
AcDbLine
 62
9
  6
CONTINUOUS
 10
153.8785954216
 20
146.1801609059
 11
154.8633771152
 21
145.044060677
  0
LINE
  5
33C
100
AcDbEntity
  8
FASEN
100
AcDbLine
 62
7
  6
CONTINUOUS
 10
165.7298787462
 20
133.1928530784
 11
160.4557254487
 21
139.2774165991
  0
LWPOLYLINE
  5
33D
100
AcDbEntity
  8
FASEN
100
AcDbPolyline
 62
7
  6
CONTINUOUS
 90
15
 70
0
 10
167.3213938802
 20
129.5894456966
 10
167.2138563957
 20
129.8026014962
 10
167.0903770608
 20
130.0359151133
 10
166.9522333905
 20
130.2871676487
 10
166.8010084989
 20
130.5532794777
 10
166.6383766264
 20
130.8309697056
 10
166.4666381893
 20
131.1165798048
 10
166.2881106983
 20
131.4060963525
 10
166.1052088778
 20
131.6959164261
 10
165.9202926837
 20
131.9821885935
 10
165.7359808662
 20
132.2612061225
 10
165.5546312086
 20
132.5292034702
 10
165.3788869942
 20
132.7827692015
 10
165.2113858483
 20
133.018637288
 10
165.0533804981
 20
133.2334815975
  0
LINE
  5
33E
100
AcDbEntity
  8
FASEN
100
AcDbLine
 62
7
  6
CONTINUOUS
 10
172.7452021045
 20
118.536886599
 11
167.3213938802
 21
129.5894456966
  0
LWPOLYLINE
  5
33F
100
AcDbEntity
  8
0
100
AcDbPolyline
 62
7
  6
CONTINUOUS
 90
7
 70
0
 10
167.364856636
 20
144.9750726508
 10
167.4219660338
 20
145.176752224
 10
167.459228402
 20
145.2901752875
 10
167.496895901
 20
145.3848370607
 10
167.5340559103
 20
145.4585154697
 10
167.5706010134
 20
145.5076834402
 10
167.598918458
 20
145.5320986969
  0
LWPOLYLINE
  5
340
100
AcDbEntity
  8
0
100
AcDbPolyline
 62
7
  6
CONTINUOUS
 90
4
 70
0
 10
167.364856636
 20
144.9750726508
 10
167.3443259362
 20
144.9059527268
 10
167.3226982111
 20
144.8367009049
 10
167.2999734608
 20
144.7673171851
  0
LINE
  5
341
100
AcDbEntity
  8
BEZUGSACHSEN
100
AcDbLine
 62
9
  6
CONTINUOUS
 10
158.2997978433
 20
143.8163484963
 11
157.8159106798
 21
144.3742041441
  0
LINE
  5
342
100
AcDbEntity
  8
BEZUGSACHSEN
100
AcDbLine
 62
9
  6
CONTINUOUS
 10
158.1532456285
 20
143.9356114164
 11
157.6709317814
 21
144.4920361303
  0
LWPOLYLINE
  5
343
100
AcDbEntity
  8
FASEN
100
AcDbPolyline
 62
7
  6
CONTINUOUS
 90
15
 70
0
 10
167.6549286161
 20
130.3247348194
 10
167.5679324105
 20
130.4958083098
 10
167.4680322234
 20
130.6806128769
 10
167.354553727
 20
130.8804033773
 10
167.2295199045
 20
131.0914152409
 10
167.0940511164
 20
131.3113765887
 10
166.9501809036
 20
131.5370642038
 10
166.7996299812
 20
131.7655037868
 10
166.6444571878
 20
131.993676705
 10
166.4865887939
 20
132.218540436
 10
166.3281432193
 20
132.4371923497
 10
166.1711982225
 20
132.6465746359
 10
166.0178020579
 20
132.8441103122
 10
165.8710381708
 20
133.0257535949
 10
165.7298787462
 20
133.1928530784
  0
LINE
  5
344
100
AcDbEntity
  8
FASEN
100
AcDbLine
 62
7
  6
CONTINUOUS
 10
173.5042723559
 20
118.4050255131
 11
167.6549286161
 21
130.3247348194
  0
LWPOLYLINE
  5
345
100
AcDbEntity
  8
FASEN
100
AcDbPolyline
 62
7
  6
CONTINUOUS
 90
5
 70
0
 10
167.1998581996
 20
143.8193619105
 10
167.2310014057
 20
144.0632027422
 10
167.2580683512
 20
144.3024755652
 10
167.2810590363
 20
144.5371803795
 10
167.2999734608
 20
144.7673171851
  0
LWPOLYLINE
  5
346
100
AcDbEntity
  8
FASEN
100
AcDbPolyline
 62
7
  6
CONTINUOUS
 90
5
 70
0
 10
159.5688944537
 20
139.5606969501
 10
159.7856349158
 20
139.4874544052
 10
160.0056869023
 20
139.4158268318
 10
160.2290504133
 20
139.3458142298
 10
160.4557254487
 20
139.2774165991
  0
LWPOLYLINE
  5
347
100
AcDbEntity
  8
0
100
AcDbPolyline
 62
7
  6
CONTINUOUS
 90
32
 70
0
 10
157.9755869475
 20
144.078403951
 10
157.8044824622
 20
144.2137554544
 10
157.6400604233
 20
144.3416981128
 10
157.4819372818
 20
144.4625441657
 10
157.329854539
 20
144.5765484143
 10
157.18356793
 20
144.6838561781
 10
157.0428298056
 20
144.7846232315
 10
156.9074046145
 20
144.8790186004
 10
156.7770522179
 20
144.9672147233
 10
156.6515536046
 20
145.049311255
 10
156.5307003864
 20
145.1254666055
 10
156.4142416535
 20
145.1956364446
 10
156.3019512887
 20
145.2598241071
 10
156.1935883279
 20
145.3180011966
 10
156.0888263471
 20
145.3701705326
 10
155.9877466557
 20
145.4162025056
 10
155.8902712041
 20
145.4561033206
 10
155.7965772699
 20
145.4894586907
 10
155.7068324541
 20
145.5159816097
 10
155.6210208012
 20
145.5352964815
 10
155.5393062679
 20
145.5469031314
 10
155.4613835478
 20
145.5508790648
 10
155.3873170327
 20
145.5474754028
 10
155.3162496273
 20
145.5356512304
 10
155.2474776606
 20
145.5150128432
 10
155.1809822238
 20
145.4837906923
 10
155.1161225121
 20
145.4400261715
 10
155.0546110355
 20
145.3838604478
 10
154.9975566497
 20
145.3139681004
 10
154.9460622969
 20
145.2329389126
 10
154.9014213927
 20
145.1432033562
 10
154.8633771152
 20
145.044060677
  0
LWPOLYLINE
  5
348
100
AcDbEntity
  8
BEZUGSACHSEN
100
AcDbPolyline
 62
9
  6
CONTINUOUS
 90
38
 70
0
 10
157.5149467197
 20
144.6175688172
 10
157.3638375694
 20
144.7378220904
 10
157.217711088
 20
144.8527276174
 10
157.0763041528
 20
144.9625302152
 10
156.9394486286
 20
145.0674102999
 10
156.8069793124
 20
145.1675068292
 10
156.6787044425
 20
145.262940947
 10
156.5544502513
 20
145.3538444312
 10
156.4340511051
 20
145.4403653122
 10
156.3173409968
 20
145.5226382806
 10
156.2041174621
 20
145.6007858169
 10
156.0942439921
 20
145.6749069364
 10
155.9875794201
 20
145.7451211742
 10
155.883948769
 20
145.8114815174
 10
155.783165253
 20
145.874011121
 10
155.6850442719
 20
145.9327791768
 10
155.5894066667
 20
145.9878777748
 10
155.4960809517
 20
146.0393493453
 10
155.4048184364
 20
146.0872885471
 10
155.3156753979
 20
146.1316734577
 10
155.2286933708
 20
146.172536195
 10
155.1437575084
 20
146.2098088673
 10
155.0607394144
 20
146.243253351
 10
154.9795169813
 20
146.2727411031
 10
154.9000406178
 20
146.2982250898
 10
154.8222017571
 20
146.3197621904
 10
154.7461136767
 20
146.3374021817
 10
154.6711354033
 20
146.3511573914
 10
154.5968723842
 20
146.3608137131
 10
154.5224101517
 20
146.366212991
 10
154.4469909778
 20
146.3669422699
 10
154.369896032
 20
146.3622785571
 10
154.2898852338
 20
146.351189588
 10
154.2077632524
 20
146.3328434494
 10
154.1242039885
 20
146.3065830744
 10
154.0405571405
 20
146.2720106815
 10
153.958350443
 20
146.2295886106
 10
153.8785954216
 20
146.1801609059
  0
LINE
  5
349
100
AcDbEntity
  8
0
100
AcDbLine
 62
7
  6
CONTINUOUS
 10
158.1897943628
 20
143.9059892757
 11
157.9755869475
 21
144.078403951
  0
LINE
  5
34A
100
AcDbEntity
  8
BEZUGSACHSEN
100
AcDbLine
 62
9
  6
CONTINUOUS
 10
157.7434093326
 20
144.4332635293
 11
157.5149467197
 21
144.6175688172
  0
LINE
  5
34B
100
AcDbEntity
  8
BEZUGSACHSEN
100
AcDbLine
 62
9
  6
CONTINUOUS
 10
157.9586051073
 20
144.2584493706
 11
157.7434093326
 21
144.4332635293
  0
LINE
  5
34C
100
AcDbEntity
  8
0
100
AcDbLine
 62
7
  6
CONTINUOUS
 10
158.4543577824
 20
143.6906506849
 11
158.1897943628
 21
143.9059892757
  0
LINE
  5
34D
100
AcDbEntity
  8
BEZUGSACHSEN
100
AcDbLine
 62
9
  6
CONTINUOUS
 10
161.3689361946
 20
146.1012702533
 11
160.8866223475
 21
146.6576949672
  0
LINE
  5
34E
100
AcDbEntity
  8
BEZUGSACHSEN
100
AcDbLine
 62
9
  6
CONTINUOUS
 10
161.383449488
 20
145.8930835826
 11
160.9005887458
 21
146.4516304933
  0
LWPOLYLINE
  5
34F
100
AcDbEntity
  8
BEZUGSACHSEN
100
AcDbPolyline
 62
7
  6
CONTINUOUS
 90
16
 70
0
 10
170.3456615412
 20
148.1130352733
 10
170.3510942737
 20
148.1368250302
 10
170.3487564941
 20
148.1293010436
 10
170.3350658183
 20
148.0879838233
 10
170.3050467287
 20
148.0097803599
 10
170.2580035628
 20
147.9045262052
 10
170.1946396986
 20
147.7814817745
 10
170.1119085126
 20
147.640709338
 10
170.0078394658
 20
147.4846014138
 10
169.8814293137
 20
147.3165466603
 10
169.7319685716
 20
147.1398150317
 10
169.5597658576
 20
146.9583386935
 10
169.3659357313
 20
146.7761187494
 10
169.1505790379
 20
146.5956248017
 10
168.9146694009
 20
146.419803089
 10
168.8306936793
 20
146.3620604856
  0
LWPOLYLINE
  5
350
100
AcDbEntity
  8
0
100
AcDbPolyline
 62
7
  6
CONTINUOUS
 90
5
 70
0
 10
159.5688944537
 20
139.5606969501
 10
159.4869736994
 20
139.5596053318
 10
159.4054855067
 20
139.5594120272
 10
159.3244298753
 20
139.5601170364
 10
159.2438068055
 20
139.5617203593
  0
LWPOLYLINE
  5
351
100
AcDbEntity
  8
BEZUGSACHSEN
100
AcDbPolyline
 62
9
  6
CONTINUOUS
 90
21
 70
0
 10
160.9005887458
 20
146.4516304933
 10
160.7408555169
 20
146.6002882172
 10
160.5471035199
 20
146.7200609481
 10
160.3240502017
 20
146.8081339748
 10
160.0771934547
 20
146.8620356276
 10
159.8126683927
 20
146.8801149724
 10
159.5369694505
 20
146.8620356276
 10
159.256885251
 20
146.8082427665
 10
158.9793123968
 20
146.7200609481
 10
158.7110856527
 20
146.5996615012
 10
158.4588096514
 20
146.4500090598
 10
158.2286962652
 20
146.2747885638
 10
158.0264116495
 20
146.0783145233
 10
157.8569367229
 20
145.8654247811
 10
157.7244445204
 20
145.6413613894
 10
157.6321974399
 20
145.4116415323
 10
157.5824669105
 20
145.1819216753
 10
157.5765536731
 20
144.9577879871
 10
157.6143765775
 20
144.7449685414
 10
157.6947886119
 20
144.548865179
 10
157.8159106798
 20
144.3742041441
  0
LWPOLYLINE
  5
352
100
AcDbEntity
  8
BEZUGSACHSEN
100
AcDbPolyline
 62
9
  6
CONTINUOUS
 90
21
 70
0
 10
160.8866223475
 20
146.6576949672
 10
160.7199967632
 20
146.8137553811
 10
160.5178835667
 20
146.9393102156
 10
160.2852594557
 20
147.031267894
 10
160.027852408
 20
147.0873641132
 10
159.7520006393
 20
147.1062175981
 10
159.4644965356
 20
147.0873641132
 10
159.1724194022
 20
147.031267894
 10
158.8829611474
 20
146.9393102156
 10
158.6032491941
 20
146.8137553811
 10
158.340170979
 20
146.6576949672
 10
158.1002043607
 20
146.4749716994
 10
157.8892581139
 20
146.2700848309
 10
157.7125264351
 20
146.0480793564
 10
157.574361045
 20
145.8144217874
 10
157.4781640338
 20
145.5748655488
 10
157.4263040914
 20
145.3353093101
 10
157.4200581816
 20
145.1016517411
 10
157.4595800994
 20
144.8796462666
 10
157.5438966841
 20
144.6747593981
 10
157.6709317814
 20
144.4920361303
  0
LINE
  5
353
100
AcDbEntity
  8
0
100
AcDbLine
 62
9
  6
CONTINUOUS
 10
178.5271988868
 20
118.4646535769
 11
173.0006033737
 21
129.7266711467
  0
LINE
  5
354
100
AcDbEntity
  8
FASEN
100
AcDbLine
 62
7
  6
CONTINUOUS
 10
167.1998581996
 20
143.8193619105
 11
168.5895077876
 21
140.6878072135
  0
LINE
  5
355
100
AcDbEntity
  8
FASEN
100
AcDbLine
 62
7
  6
CONTINUOUS
 10
168.5895077876
 20
140.6878072135
 11
169.7020969126
 21
138.1613104871
  0
LINE
  5
356
100
AcDbEntity
  8
FASEN
100
AcDbLine
 62
7
  6
CONTINUOUS
 10
169.7020969126
 20
138.1613104871
 11
170.591610956
 21
136.1215034327
  0
LINE
  5
357
100
AcDbEntity
  8
FASEN
100
AcDbLine
 62
7
  6
CONTINUOUS
 10
170.591610956
 20
136.1215034327
 11
171.1685187637
 21
134.7835745174
  0
LINE
  5
358
100
AcDbEntity
  8
FASEN
100
AcDbLine
 62
7
  6
CONTINUOUS
 10
171.1685187637
 20
134.7835745174
 11
171.6452077936
 21
133.664126969
  0
LINE
  5
359
100
AcDbEntity
  8
FASEN
100
AcDbLine
 62
7
  6
CONTINUOUS
 10
171.6452077936
 20
133.664126969
 11
171.946003425
 21
132.9480374125
  0
LINE
  5
35A
100
AcDbEntity
  8
FASEN
100
AcDbLine
 62
7
  6
CONTINUOUS
 10
171.946003425
 20
132.9480374125
 11
172.2042014856
 21
132.3245139097
  0
LINE
  5
35B
100
AcDbEntity
  8
FASEN
100
AcDbLine
 62
7
  6
CONTINUOUS
 10
172.2042014856
 20
132.3245139097
 11
172.3549770415
 21
131.9551285154
  0
LINE
  5
35C
100
AcDbEntity
  8
FASEN
100
AcDbLine
 62
7
  6
CONTINUOUS
 10
172.3549770415
 20
131.9551285154
 11
172.4900932653
 21
131.619589103
  0
LINE
  5
35D
100
AcDbEntity
  8
FASEN
100
AcDbLine
 62
7
  6
CONTINUOUS
 10
172.4900932653
 20
131.619589103
 11
172.6106122431
 21
131.315497415
  0
LINE
  5
35E
100
AcDbEntity
  8
FASEN
100
AcDbLine
 62
7
  6
CONTINUOUS
 10
172.6106122431
 20
131.315497415
 11
172.7174616919
 21
131.0407356763
  0
LWPOLYLINE
  5
35F
100
AcDbEntity
  8
FASEN
100
AcDbPolyline
 62
7
  6
CONTINUOUS
 90
8
 70
0
 10
172.7174616919
 20
131.0407356763
 10
172.811452455
 20
130.7934194738
 10
172.8538448338
 20
130.6795304113
 10
172.8932800614
 20
130.571885521
 10
172.9298124442
 20
130.4703370007
 10
172.9635143436
 20
130.3747045923
 10
172.9944191912
 20
130.2848769105
 10
173.0245601047
 20
130.1946915637
  0
LINE
  5
360
100
AcDbEntity
  8
FASEN
100
AcDbLine
 62
9
  6
CONTINUOUS
 10
167.3213938802
 20
129.5894456966
 11
167.6549286161
 21
130.3247348194
  0
LWPOLYLINE
  5
361
100
AcDbEntity
  8
FASEN
100
AcDbPolyline
 62
9
  6
CONTINUOUS
 90
41
 70
0
 10
172.7844543895
 20
138.4401077344
 10
173.6323569137
 20
139.3820064891
 10
174.3988525402
 20
140.3553600006
 10
175.0866999481
 20
141.3642235891
 10
175.6876231001
 20
142.3964312945
 10
176.1947016472
 20
143.4429615628
 10
176.6066272032
 20
144.4984364969
 10
176.9201921556
 20
145.5568228737
 10
177.1341738343
 20
146.611065117
 10
177.2461823639
 20
147.6542044769
 10
177.2565117472
 20
148.679917252
 10
177.1641461397
 20
149.6815967703
 10
176.9706252077
 20
150.6531331933
 10
176.676217538
 20
151.5880558875
 10
176.283720525
 20
152.4808405668
 10
175.7946939065
 20
153.3254262212
 10
175.2131192387
 20
154.1169523887
 10
174.5418104187
 20
154.8498908108
 10
173.7858301616
 20
155.5201838659
 10
172.9491731974
 20
156.1229834097
 10
172.0378573776
 20
156.6551327514
 10
171.0569586397
 20
157.1125841585
 10
170.013297456
 20
157.4931626124
 10
168.9129025119
 20
157.7937234189
 10
167.7632251059
 20
158.0131278731
 10
166.5710947407
 20
158.1492135667
 10
165.3444054892
 20
158.2019069157
 10
164.0906153475
 20
158.1700823961
 10
162.8178620499
 20
158.05473342
 10
161.5340439801
 20
157.8557997695
 10
160.2473371863
 20
157.5753168109
 10
158.9658811093
 20
157.2142911593
 10
157.6976839554
 20
156.7757488496
 10
156.450921062
 20
156.2617380308
 10
155.2332304771
 20
155.6761989752
 10
154.0526163182
 20
155.0221691243
 10
152.9161557135
 20
154.3044051186
 10
151.8314822348
 20
153.5268587074
 10
150.8049306686
 20
152.6949820053
 10
149.8435707507
 20
151.8135429708
 10
148.9528312052
 20
150.8885458212
  0
LWPOLYLINE
  5
362
100
AcDbEntity
  8
FASEN
100
AcDbPolyline
 62
7
  6
CONTINUOUS
 90
15
 70
0
 10
172.7844595053
 20
138.4401018326
 10
172.9724108779
 20
138.2454251563
 10
173.1695650838
 20
138.0295274029
 10
173.3728264693
 20
137.7944935556
 10
173.5796967652
 20
137.5436834946
 10
173.7876676209
 20
137.2805995277
 10
173.993923315
 20
137.0086987918
 10
174.1959130113
 20
136.731733757
 10
174.3909865308
 20
136.4533603999
 10
174.5768514723
 20
136.1772640236
 10
174.7509519454
 20
135.9072975103
 10
174.9111847169
 20
135.6472521838
 10
175.0556653451
 20
135.4002673752
 10
175.182777781
 20
135.1694005288
 10
175.2915784237
 20
134.9570954234
  0
LINE
  5
363
100
AcDbEntity
  8
FASEN
100
AcDbLine
 62
7
  6
CONTINUOUS
 10
167.1998581996
 20
143.8193619105
 11
172.4740114971
 21
137.7347983898
  0
LINE
  5
364
100
AcDbEntity
  8
BEZUGSACHSEN
100
AcDbLine
 62
9
  6
CONTINUOUS
 10
162.5344590453
 20
150.2102749098
 11
161.5496773517
 21
151.3463751388
  0
LINE
  5
365
100
AcDbEntity
  8
FASEN
100
AcDbLine
 62
7
  6
CONTINUOUS
 10
167.2999734608
 20
144.7673171851
 11
172.7844543895
 21
138.4401077344
  0
LWPOLYLINE
  5
366
100
AcDbEntity
  8
FASEN
100
AcDbPolyline
 62
7
  6
CONTINUOUS
 90
15
 70
0
 10
172.4740114971
 20
137.7347983898
 10
172.6151709217
 20
137.5676989063
 10
172.7619348088
 20
137.3860556236
 10
172.9153309734
 20
137.1885199473
 10
173.0722759702
 20
136.9791376611
 10
173.2307215448
 20
136.7604857474
 10
173.3885899387
 20
136.5356220164
 10
173.5437627321
 20
136.3074490982
 10
173.6943136545
 20
136.0790095152
 10
173.8381838673
 20
135.8533219001
 10
173.9736526554
 20
135.6333605523
 10
174.0986864779
 20
135.4223486887
 10
174.2121649743
 20
135.2225581883
 10
174.3120651614
 20
135.0377536212
 10
174.399061367
 20
134.8666801308
  0
LWPOLYLINE
  5
367
100
AcDbEntity
  8
BEZUGSACHSEN
100
AcDbPolyline
 62
9
  6
CONTINUOUS
 90
13
 70
0
 10
165.272645816
 20
150.3784359797
 10
165.2136034142
 20
150.4715341178
 10
165.1560629256
 20
150.5612817437
 10
165.0997845816
 20
150.6479825578
 10
165.0439894354
 20
150.732721379
 10
164.9879424959
 20
150.8164690165
 10
164.9312813491
 20
150.8995249599
 10
164.873315107
 20
150.9825562701
 10
164.8147309783
 20
151.0642044085
 10
164.7562053474
 20
151.1432228799
 10
164.699009712
 20
151.217592808
 10
164.6444131291
 20
151.2855534111
 10
164.5931150135
 20
151.3463751388
  0
LINE
  5
368
100
AcDbEntity
  8
BEZUGSACHSEN
100
AcDbLine
 62
9
  6
CONTINUOUS
 10
165.3966826855
 20
150.1798598452
 11
165.272645816
 21
150.3784359797
  0
LINE
  5
369
100
AcDbEntity
  8
BEZUGSACHSEN
100
AcDbLine
 62
9
  6
CONTINUOUS
 10
165.5289355497
 20
149.964403556
 11
165.3966826855
 21
150.1798598452
  0
LINE
  5
36A
100
AcDbEntity
  8
BEZUGSACHSEN
100
AcDbLine
 62
9
  6
CONTINUOUS
 10
165.6699369244
 20
149.7316439563
 11
165.5289355497
 21
149.964403556
  0
LINE
  5
36B
100
AcDbEntity
  8
BEZUGSACHSEN
100
AcDbLine
 62
9
  6
CONTINUOUS
 10
165.819850876
 20
149.4814199403
 11
165.6699369244
 21
149.7316439563
  0
LINE
  5
36C
100
AcDbEntity
  8
BEZUGSACHSEN
100
AcDbLine
 62
9
  6
CONTINUOUS
 10
166.0626551462
 20
149.071396943
 11
165.819850876
 21
149.4814199403
  0
LWPOLYLINE
  5
36D
100
AcDbEntity
  8
0
100
AcDbPolyline
 62
7
  6
CONTINUOUS
 90
44
 70
0
 10
166.5092133899
 20
146.3151346081
 10
166.3890882887
 20
146.5213261637
 10
166.2717479973
 20
146.7198083492
 10
166.1571660977
 20
146.9107692502
 10
166.0453495743
 20
147.0943444984
 10
165.9362935204
 20
147.2706533173
 10
165.8299836973
 20
147.4398213744
 10
165.7264263615
 20
147.6019602722
 10
165.6256445262
 20
147.7571387664
 10
165.5275501977
 20
147.9056079302
 10
165.4321934408
 20
148.0474025699
 10
165.3391536772
 20
148.1832322767
 10
165.2481677136
 20
148.3135924109
 10
165.1587528231
 20
148.4391299188
 10
165.0704935469
 20
148.5604401261
 10
164.9828522231
 20
148.6781259884
 10
164.8951963977
 20
148.7929496757
 10
164.8073168856
 20
148.9049676432
 10
164.7186204532
 20
149.0147271337
 10
164.6295780974
 20
149.1214680956
 10
164.540426344
 20
149.2247710564
 10
164.4513027875
 20
149.3241701764
 10
164.3623233419
 20
149.4192577296
 10
164.2738073249
 20
149.5094360874
 10
164.1859428509
 20
149.5940712532
 10
164.0992728179
 20
149.6728768442
 10
164.014396789
 20
149.7453502111
 10
163.9314001867
 20
149.8115808678
 10
163.8504955773
 20
149.8714537839
 10
163.7719289293
 20
149.9251228224
 10
163.6960242988
 20
149.9725844984
 10
163.6227869084
 20
150.0142541717
 10
163.5524113377
 20
150.0503637823
 10
163.4846569684
 20
150.0814978162
 10
163.4194056639
 20
150.1081735486
 10
163.3564633799
 20
150.1308274627
 10
163.2956778331
 20
150.1499681335
 10
163.2367819566
 20
150.165887701
 10
163.1795912028
 20
150.1789448038
 10
163.1236795596
 20
150.1894209115
 10
163.0686215853
 20
150.1976643807
 10
163.0142001082
 20
150.203782586
 10
162.9599999438
 20
150.208013916
 10
162.9061702713
 20
150.2102749098
  0
LINE
  5
36E
100
AcDbEntity
  8
BEZUGSACHSEN
100
AcDbLine
 62
9
  6
CONTINUOUS
 10
166.4262264696
 20
148.4497866596
 11
166.0626551462
 21
149.071396943
  0
LINE
  5
36F
100
AcDbEntity
  8
BEZUGSACHSEN
100
AcDbLine
 62
9
  6
CONTINUOUS
 10
166.9582254193
 20
147.5297166768
 11
166.4262264696
 21
148.4497866596
  0
LINE
  5
370
100
AcDbEntity
  8
BEZUGSACHSEN
100
AcDbLine
 62
9
  6
CONTINUOUS
 10
167.9622809663
 20
145.7772139016
 11
166.9582254193
 21
147.5297166768
  0
LINE
  5
371
100
AcDbEntity
  8
0
100
AcDbLine
 62
7
  6
CONTINUOUS
 10
166.6615276516
 20
146.0493872807
 11
166.5092133899
 21
146.3151346081
  0
LINE
  5
372
100
AcDbEntity
  8
0
100
AcDbLine
 62
7
  6
CONTINUOUS
 10
166.7498976942
 20
145.893077775
 11
166.6615276516
 21
146.0493872807
  0
LINE
  5
373
100
AcDbEntity
  8
0
100
AcDbLine
 62
7
  6
CONTINUOUS
 10
167.3291129182
 20
144.8572407514
 11
166.7498976942
 21
145.893077775
  0
LINE
  5
374
100
AcDbEntity
  8
FASEN
100
AcDbLine
 62
7
  6
CONTINUOUS
 10
174.399061367
 20
134.8666801308
 11
181.6119478506
 21
120.1683628548
  0
LWPOLYLINE
  5
375
100
AcDbEntity
  8
FASEN
100
AcDbPolyline
 62
7
  6
CONTINUOUS
 90
18
 70
0
 10
173.0245601047
 20
130.1946915637
 10
173.0480103877
 20
130.1221213124
 10
173.0707386839
 20
130.0490128894
 10
173.0907376041
 20
129.9813731193
 10
173.1080170126
 20
129.9191305335
 10
173.122493792
 20
129.8623667444
 10
173.1341439442
 20
129.811065846
 10
173.142799975
 20
129.7654489251
 10
173.1483885998
 20
129.7255789353
 10
173.1506031932
 20
129.6919143699
 10
173.1492879576
 20
129.6646463442
 10
173.1439171244
 20
129.644639945
 10
173.1341469289
 20
129.6323728525
 10
173.1192755616
 20
129.629198402
 10
173.098436289
 20
129.6364662844
 10
173.0717801187
 20
129.6546651138
 10
173.039151909
 20
129.6848507151
 10
173.0006033737
 20
129.7266711467
  0
LINE
  5
376
100
AcDbEntity
  8
FASEN
100
AcDbLine
 62
7
  6
CONTINUOUS
 10
172.7844595053
 20
138.4401018326
 11
172.4740114971
 21
137.7347983898
  0
LWPOLYLINE
  5
377
100
AcDbEntity
  8
BEZUGSACHSEN
100
AcDbPolyline
 62
9
  6
CONTINUOUS
 90
29
 70
0
 10
161.5496773517
 20
151.3463751388
 10
161.2771243869
 20
151.6177419374
 10
160.9621374701
 20
151.8520006388
 10
160.6018962773
 20
152.0507262346
 10
160.2048617807
 20
152.2091937499
 10
159.7767748272
 20
152.323231693
 10
159.3229754699
 20
152.392754607
 10
158.8486045708
 20
152.4161139384
 10
158.3600005513
 20
152.393827485
 10
157.8630607351
 20
152.3252844787
 10
157.3642492778
 20
152.2122220635
 10
156.8699923538
 20
152.0552533113
 10
156.386301231
 20
151.8571396703
 10
155.9194778461
 20
151.6196101529
 10
155.475076367
 20
151.3463751388
 10
155.059194424
 20
151.0402383642
 10
154.6765035676
 20
150.7056487718
 10
154.3325249472
 20
150.3463548337
 10
154.0308073967
 20
149.9672616984
 10
153.7759534804
 20
149.5727559745
 10
153.570323156
 20
149.1681417531
 10
153.4175167917
 20
148.7584600064
 10
153.3184157206
 20
148.3488866988
 10
153.2752525492
 20
147.9446763297
 10
153.2875738256
 20
147.5506342648
 10
153.3566894397
 20
147.1713244728
 10
153.479541972
 20
146.812725643
 10
153.6531830339
 20
146.4832752889
 10
153.8785954216
 20
146.1801609059
  0
LWPOLYLINE
  5
378
100
AcDbEntity
  8
BEZUGSACHSEN
100
AcDbPolyline
 62
9
  6
CONTINUOUS
 90
7
 70
0
 10
169.0712350527
 20
146.1801609059
 10
169.0058449633
 20
146.252382041
 10
168.9466977033
 20
146.3101009154
 10
168.8973591371
 20
146.3484856018
 10
168.859632274
 20
146.3659568466
 10
168.8334181024
 20
146.3636887511
 10
168.8306936793
 20
146.3620604856
  0
LINE
  5
379
100
AcDbEntity
  8
FASEN
100
AcDbLine
 62
7
  6
CONTINUOUS
 10
175.2915784237
 20
134.9570954234
 11
182.3490559763
 21
120.5754682521
  0
LWPOLYLINE
  5
37A
100
AcDbEntity
  8
0
100
AcDbPolyline
 62
7
  6
CONTINUOUS
 90
15
 70
0
 10
167.8815210329
 20
129.862988022
 10
168.0496878411
 20
129.9665034552
 10
168.45949758
 20
130.1749573897
 10
168.8840092749
 20
130.3492074967
 10
169.3178829989
 20
130.4870625634
 10
169.7556612083
 20
130.586789292
 10
170.1918374189
 20
130.6471340898
 10
170.6209254944
 20
130.6673388197
 10
171.0375286739
 20
130.6471503139
 10
171.4364074707
 20
130.586823531
 10
171.8125455849
 20
130.4871183175
 10
172.1612130037
 20
130.3492898156
 10
172.4780254918
 20
130.1750726376
 10
172.7589996473
 20
129.9666590743
 10
173.0006033737
 20
129.7266711467
  0
LWPOLYLINE
  5
37B
100
AcDbEntity
  8
FASEN
100
AcDbPolyline
 62
9
  6
CONTINUOUS
 90
21
 70
0
 10
167.3213938802
 20
129.5894456966
 10
165.9133640377
 20
129.0143244881
 10
164.4825152889
 20
128.5205475476
 10
163.0371493472
 20
128.1109864223
 10
161.5856853167
 20
127.7880319047
 10
160.1365785954
 20
127.5535660734
 10
158.6982387424
 20
127.4089488639
 10
157.2790208198
 20
127.3550203322
 10
155.8871688227
 20
127.3920937404
 10
154.5307677807
 20
127.5199537355
 10
153.2176967913
 20
127.7378576007
 10
151.9555832571
 20
128.0445395701
 10
150.7517585743
 20
128.438218182
 10
149.6132155484
 20
128.9166066281
 10
148.5465677849
 20
129.4769260312
 10
147.5580112555
 20
130.1159215938
 10
146.6532883257
 20
130.829881492
 10
145.8376543865
 20
131.6146584382
 10
145.1158472924
 20
132.4656938109
 10
144.4920599001
 20
133.3780440792
 10
144.0354810691
 20
134.2103135515
  0
LWPOLYLINE
  5
37C
100
AcDbEntity
  8
BEZUGSACHSEN
100
AcDbPolyline
 62
9
  6
CONTINUOUS
 90
8
 70
0
 10
169.4080035497
 20
146.815666758
 10
169.1952321012
 20
146.8620356276
 10
168.9307070392
 20
146.8801149724
 10
168.655008097
 20
146.8620356276
 10
168.3749651485
 20
146.8081339748
 10
168.0973510432
 20
146.7200609481
 10
167.8288086636
 20
146.6002882172
 10
167.5759226228
 20
146.4516304933
  0
LWPOLYLINE
  5
37D
100
AcDbEntity
  8
BEZUGSACHSEN
100
AcDbPolyline
 62
9
  6
CONTINUOUS
 90
9
 70
0
 10
169.5674093104
 20
146.9663937687
 10
169.4032981022
 20
147.031267894
 10
169.1458910545
 20
147.0873641132
 10
168.8700392857
 20
147.1062175981
 10
168.5825351821
 20
147.0873641132
 10
168.2904580487
 20
147.031267894
 10
168.0009997939
 20
146.9393102156
 10
167.7212878406
 20
146.8137553811
 10
167.4582096254
 20
146.6576949672
  0
LWPOLYLINE
  5
37E
100
AcDbEntity
  8
0
100
AcDbPolyline
 62
7
  6
CONTINUOUS
 90
33
 70
0
 10
162.5344590453
 20
150.2102749098
 10
162.3742570037
 20
150.1983327682
 10
162.2256106886
 20
150.1680121537
 10
162.087892366
 20
150.1191515379
 10
161.9642399061
 20
150.0537921189
 10
161.858285021
 20
149.9728522394
 10
161.7677284304
 20
149.8804206807
 10
161.692282258
 20
149.7803868843
 10
161.6290987908
 20
149.6739976092
 10
161.5754743926
 20
149.5632955374
 10
161.530461319
 20
149.4490368197
 10
161.4925583933
 20
149.3323399489
 10
161.4606356367
 20
149.2137659519
 10
161.4331275327
 20
149.0940189784
 10
161.4098170755
 20
148.9735079457
 10
161.3901147413
 20
148.8530835257
 10
161.3735567725
 20
148.7320149722
 10
161.3595894412
 20
148.6102427699
 10
161.3479276503
 20
148.4864757714
 10
161.3381614436
 20
148.3597458117
 10
161.3301801633
 20
148.2289022216
 10
161.3237381818
 20
148.0927462971
 10
161.3189063139
 20
147.9503602185
 10
161.3156699173
 20
147.8003803214
 10
161.314111577
 20
147.6428847911
 10
161.3143015112
 20
147.4774463637
 10
161.3162945665
 20
147.3042066016
 10
161.3201672553
 20
147.1231620712
 10
161.3259402078
 20
146.9343263691
 10
161.3336460911
 20
146.7377102306
 10
161.3433432167
 20
146.5333218836
 10
161.3550774308
 20
146.3211864122
 10
161.3724296443
 20
146.0493873231
  0
LWPOLYLINE
  5
37F
100
AcDbEntity
  8
0
100
AcDbPolyline
 62
7
  6
CONTINUOUS
 90
5
 70
0
 10
162.5344590453
 20
150.2102749098
 10
162.6282357718
 20
150.212034184
 10
162.7214465516
 20
150.2126206088
 10
162.8140913848
 20
150.212034184
 10
162.9061702713
 20
150.2102749098
  0
LINE
  5
380
100
AcDbEntity
  8
0
100
AcDbLine
 62
7
  6
CONTINUOUS
 10
179.9447472075
 20
151.8320219079
 11
190.4307514994
 21
130.4637918118
  0
LWPOLYLINE
  5
381
100
AcDbEntity
  8
FASEN
100
AcDbPolyline
 62
9
  6
CONTINUOUS
 90
16
 70
0
 10
179.9447472068
 20
151.8320219094
 10
180.3490029609
 20
150.8947904991
 10
180.682009756
 20
149.8403887084
 10
180.9064385593
 20
148.7463752466
 10
181.0209857025
 20
147.6191050835
 10
181.0249858104
 20
146.4651262944
 10
180.9184156387
 20
145.2911420898
 10
180.7018942318
 20
144.1039719949
 10
180.3766793422
 20
142.9105121299
 10
179.9446600824
 20
141.717695051
 10
179.4083459619
 20
140.532449591
 10
178.7708523423
 20
139.3616606584
 10
178.0358779785
 20
138.2121228673
 10
177.2077052075
 20
137.0905325671
 10
176.2911636761
 20
136.0034215494
 10
175.2915784237
 20
134.9570954234
  0
LINE
  5
382
100
AcDbEntity
  8
0
100
AcDbLine
 62
2
  6
CONTINUOUS
 10
185.2682231467
 20
122.1877265752
 11
190.4307514994
 21
130.4637918118
  0
LINE
  5
383
100
AcDbEntity
  8
0
100
AcDbLine
 62
2
  6
CONTINUOUS
 10
177.2432298467
 20
117.7555164667
 11
185.2682231467
 21
122.1877265752
  0
LINE
  5
384
100
AcDbEntity
  8
0
100
AcDbLine
 62
2
  6
CONTINUOUS
 10
154.2602953594
 20
203.0133732431
 11
156.8179069655
 21
202.6917326883
  0
LINE
  5
385
100
AcDbEntity
  8
0
100
AcDbLine
 62
2
  6
CONTINUOUS
 10
153.573184097
 20
203.1677875432
 11
154.2602953594
 21
203.0133732431
  0
LINE
  5
386
100
AcDbEntity
  8
0
100
AcDbLine
 62
2
  6
CONTINUOUS
 10
167.2606990513
 20
203.0067814169
 11
170.925601244
 21
204.0201556995
  0
LINE
  5
387
100
AcDbEntity
  8
0
100
AcDbLine
 62
2
  6
CONTINUOUS
 10
163.3725299544
 20
202.5711995361
 11
167.2606990513
 21
203.0067814169
  0
LINE
  5
388
100
AcDbEntity
  8
0
100
AcDbLine
 62
2
  6
CONTINUOUS
 10
159.4199240736
 20
202.5450688827
 11
163.3725299544
 21
202.5711995361
  0
LINE
  5
389
100
AcDbEntity
  8
0
100
AcDbLine
 62
2
  6
CONTINUOUS
 10
156.8179069655
 20
202.6917326883
 11
159.4199240736
 21
202.5450688827
  0
LINE
  5
38A
100
AcDbEntity
  8
0
100
AcDbLine
 62
7
  6
CONTINUOUS
 10
153.573184097
 20
203.1677875432
 11
145.1611358117
 21
221.1500270154
  0
LWPOLYLINE
  5
38B
100
AcDbEntity
  8
0
100
AcDbPolyline
 62
7
  6
CONTINUOUS
 90
42
 70
0
 10
157.94052902
 20
237.3202118592
 10
157.8463606057
 20
237.2546608963
 10
157.7555850763
 20
237.1845653782
 10
157.6677577363
 20
237.1098007615
 10
157.584350769
 20
237.0309454217
 10
157.5066670917
 20
236.9485854706
 10
157.434597235
 20
236.8627767087
 10
157.3687313691
 20
236.7742056618
 10
157.3082139898
 20
236.6815924052
 10
157.2524277312
 20
236.5840888261
 10
157.2014045073
 20
236.4809469456
 10
157.1549303291
 20
236.3712640867
 10
157.1132409543
 20
236.2545958658
 10
157.0763598114
 20
236.1297149246
 10
157.0447725492
 20
235.9980612123
 10
157.0189288392
 20
235.8596842699
 10
156.9988032505
 20
235.7175927046
 10
156.9846743114
 20
235.5747118328
 10
156.9757474617
 20
235.4313821713
 10
156.9714786805
 20
235.2890764849
 10
156.9713436483
 20
235.1472545609
 10
156.9747062233
 20
235.0061055434
 10
156.9814423887
 20
234.8648458914
 10
156.9912644113
 20
234.7231233841
 10
157.0041287686
 20
234.5797992114
 10
157.0199229608
 20
234.4339380419
 10
157.038692015
 20
234.2845636743
 10
157.0603932436
 20
234.130623957
 10
157.0852950252
 20
233.9714142019
 10
157.1136239769
 20
233.805893201
 10
157.1455424594
 20
233.6340377529
 10
157.1812921795
 20
233.4554701694
 10
157.2208847255
 20
233.2702310773
 10
157.2643763658
 20
233.0782651443
 10
157.3118891772
 20
232.8794949275
 10
157.3634974333
 20
232.6739155468
 10
157.4194115489
 20
232.4612693047
 10
157.4798176769
 20
232.241385516
 10
157.5448809017
 20
232.014020759
 10
157.6147699036
 20
231.7789561258
 10
157.6896874558
 20
231.5359736776
 10
157.7698956089
 20
231.2847236129
  0
LINE
  5
38C
100
AcDbEntity
  8
0
100
AcDbLine
 62
7
  6
CONTINUOUS
 10
157.940469565
 20
237.3201724063
 11
158.0095543292
 21
237.3658186637
  0
LINE
  5
38D
100
AcDbEntity
  8
0
100
AcDbLine
 62
7
  6
CONTINUOUS
 10
158.0095543292
 20
237.3658186637
 11
158.0790982814
 21
237.4109793597
  0
LWPOLYLINE
  5
38E
100
AcDbEntity
  8
FASEN
100
AcDbPolyline
 62
9
  6
CONTINUOUS
 90
11
 70
0
 10
154.2204235882
 20
213.0530084628
 10
152.928840382
 20
213.5874240838
 10
151.6973347907
 20
214.2150011487
 10
150.5330579599
 20
214.9321045246
 10
149.4427958593
 20
215.7345620738
 10
148.432900047
 20
216.6177000497
 10
147.5092306917
 20
217.5763925938
 10
146.6771532417
 20
218.6050708065
 10
145.9415010634
 20
219.6977593033
 10
145.306547412
 20
220.8481108926
 10
145.1611358117
 20
221.1500270154
  0
LINE
  5
38F
100
AcDbEntity
  8
FASEN
100
AcDbLine
 62
7
  6
CONTINUOUS
 10
159.12832359
 20
202.5615050685
 11
154.2204235882
 21
213.0530084628
  0
LINE
  5
390
100
AcDbEntity
  8
FASEN
100
AcDbLine
 62
7
  6
CONTINUOUS
 10
160.176838698
 20
202.5500728407
 11
155.0616271453
 21
213.4847413034
  0
LWPOLYLINE
  5
391
100
AcDbEntity
  8
FASEN
100
AcDbPolyline
 62
7
  6
CONTINUOUS
 90
15
 70
0
 10
155.0616271453
 20
213.4847413034
 10
155.0085806613
 20
213.61819465
 10
154.9632540755
 20
213.7757620767
 10
154.9253314063
 20
213.9585036822
 10
154.8957605985
 20
214.1632391703
 10
154.8753168279
 20
214.3882782644
 10
154.8642024197
 20
214.6302110057
 10
154.8629193767
 20
214.8862445207
 10
154.8713438412
 20
215.1528372772
 10
154.8896521865
 20
215.4267547932
 10
154.9174457224
 20
215.7042830439
 10
154.9546157355
 20
215.9818571021
 10
155.0004686688
 20
216.2557951927
 10
155.0541835031
 20
216.5206184711
 10
155.1160339116
 20
216.7781532186
  0
LWPOLYLINE
  5
392
100
AcDbEntity
  8
FASEN
100
AcDbPolyline
 62
7
  6
CONTINUOUS
 90
15
 70
0
 10
154.2204235882
 20
213.0530084628
 10
154.1551697256
 20
213.2188490857
 10
154.1000078082
 20
213.4161133522
 10
154.0560054673
 20
213.6431308406
 10
154.0240168323
 20
213.897424203
 10
154.00462054
 20
214.176174373
 10
153.9984635779
 20
214.4757662083
 10
154.0057451524
 20
214.79215928
 10
154.0266543629
 20
215.1213699441
 10
154.060982255
 20
215.4591386623
 10
154.108532214
 20
215.800994672
 10
154.1686413866
 20
216.1424532197
 10
154.2408071346
 20
216.4789563351
 10
154.3243521403
 20
216.805910133
 10
154.4174365829
 20
217.1195179084
  0
LWPOLYLINE
  5
393
100
AcDbEntity
  8
BEZUGSACHSEN
100
AcDbPolyline
 62
9
  6
CONTINUOUS
 90
36
 70
0
 10
156.2154340204
 20
237.5183559709
 10
156.1942074535
 20
237.4317809961
 10
156.174857485
 20
237.3419183673
 10
156.157573878
 20
237.2492356912
 10
156.1426103474
 20
237.1547115468
 10
156.1301202971
 20
237.0594590931
 10
156.1200268985
 20
236.9640520894
 10
156.1122050357
 20
236.8693910358
 10
156.1064175043
 20
236.774914163
 10
156.1024940159
 20
236.6802917102
 10
156.1002721117
 20
236.5850312367
 10
156.0996470776
 20
236.4885419391
 10
156.1005496372
 20
236.3904864478
 10
156.1029250167
 20
236.2904175397
 10
156.1067346095
 20
236.1878511315
 10
156.1119958413
 20
236.0821859569
 10
156.1187070023
 20
235.9734006228
 10
156.1268847169
 20
235.8612463734
 10
156.1365233163
 20
235.7457365908
 10
156.1476337439
 20
235.6267936381
 10
156.1602106709
 20
235.5043976579
 10
156.1742486387
 20
235.3784604134
 10
156.1897271754
 20
235.248983351
 10
156.2066309034
 20
235.1160442932
 10
156.224996121
 20
234.9793733593
 10
156.2448757867
 20
234.8388917873
 10
156.2663329395
 20
234.6943485048
 10
156.289400955
 20
234.5454580448
 10
156.3140947374
 20
234.3919533917
 10
156.3404368626
 20
234.2335626079
 10
156.3684780517
 20
234.0700770651
 10
156.3982868429
 20
233.9013530242
 10
156.4299520651
 20
233.7271984378
 10
156.4635458714
 20
233.5474039185
 10
156.499122708
 20
233.3617261939
 10
156.5764291679
 20
232.9716949061
  0
LWPOLYLINE
  5
394
100
AcDbEntity
  8
BEZUGSACHSEN
100
AcDbPolyline
 62
9
  6
CONTINUOUS
 90
9
 70
0
 10
154.6832796709
 20
224.3836811812
 10
154.574297239
 20
223.8653799615
 10
154.5178802254
 20
223.347545522
 10
154.5139549697
 20
222.8273705646
 10
154.5627424532
 20
222.3132769837
 10
154.6650292366
 20
221.8115128225
 10
154.8190449226
 20
221.3257923365
 10
155.0230927744
 20
220.8626370791
 10
155.277738371
 20
220.4198731992
  0
LINE
  5
395
100
AcDbEntity
  8
BEZUGSACHSEN
100
AcDbLine
 62
9
  6
CONTINUOUS
 10
158.4965806879
 20
239.0125571874
 11
158.0790982814
 21
237.4109793597
  0
LINE
  5
396
100
AcDbEntity
  8
BEZUGSACHSEN
100
AcDbLine
 62
9
  6
CONTINUOUS
 10
155.1008245401
 20
225.9854986333
 11
154.6832796709
 21
224.3836811812
  0
LWPOLYLINE
  5
397
100
AcDbEntity
  8
BEZUGSACHSEN
100
AcDbPolyline
 62
9
  6
CONTINUOUS
 90
31
 70
0
 10
158.4965806879
 20
239.0125571874
 10
158.6809250678
 20
239.5916314563
 10
158.9276118098
 20
240.1537119639
 10
159.2387613365
 20
240.7025674285
 10
159.6080123804
 20
241.2268916956
 10
160.0314105664
 20
241.7178979184
 10
160.5038556404
 20
242.1717968923
 10
161.021058848
 20
242.5831647442
 10
161.5766313156
 20
242.9481186342
 10
162.1650990862
 20
243.2618418573
 10
162.779428656
 20
243.5217121355
 10
163.4131409185
 20
243.723912461
 10
164.0590987246
 20
243.8672103172
 10
164.7104151359
 20
243.9490697859
 10
165.3598604141
 20
243.9695840647
 10
166.0001763153
 20
243.9275098678
 10
166.624561418
 20
243.8243207275
 10
167.2258638586
 20
243.6601457832
 10
167.7978767194
 20
243.4377749272
 10
168.3337434251
 20
243.1587329132
 10
168.828261085
 20
242.8269442951
 10
169.2753313846
 20
242.4451618126
 10
169.6707840201
 20
242.0184256628
 10
170.0093217705
 20
241.5507744288
 10
170.2882270724
 20
241.047965692
 10
170.5034479318
 20
240.5150815286
 10
170.6536904185
 20
239.958187038
 10
170.7360693297
 20
239.3820025169
 10
170.7513064887
 20
238.7956444503
 10
170.6991319953
 20
238.2111389951
 10
170.5796358163
 20
237.6244774322
  0
LINE
  5
398
100
AcDbEntity
  8
FASEN
100
AcDbLine
 62
7
  6
CONTINUOUS
 10
154.4174365829
 20
217.1195179084
 11
155.1160339116
 21
216.7781532186
  0
LINE
  5
399
100
AcDbEntity
  8
FASEN
100
AcDbLine
 62
9
  6
CONTINUOUS
 10
163.4186639438
 20
211.9965001759
 11
162.8449041441
 21
212.5907554615
  0
LINE
  5
39A
100
AcDbEntity
  8
BEZUGSACHSEN
100
AcDbLine
 62
7
  6
CONTINUOUS
 10
154.4174390765
 20
217.1195274745
 11
155.277738371
 21
220.4198731992
  0
LINE
  5
39B
100
AcDbEntity
  8
BEZUGSACHSEN
100
AcDbLine
 62
7
  6
CONTINUOUS
 10
155.1160339116
 20
216.7781532186
 11
156.1870353774
 21
220.8868106721
  0
LWPOLYLINE
  5
39C
100
AcDbEntity
  8
BEZUGSACHSEN
100
AcDbPolyline
 62
9
  6
CONTINUOUS
 90
10
 70
0
 10
157.3546647951
 20
226.3483197748
 10
157.3223876084
 20
226.2306602232
 10
157.2883847327
 20
226.1187929081
 10
157.2528626246
 20
226.0135184206
 10
157.2158469374
 20
225.9149010151
 10
157.1772994091
 20
225.8229669816
 10
157.1376527422
 20
225.7388008682
 10
157.0973703011
 20
225.6632376833
 10
157.0564641807
 20
225.5959440707
 10
157.0293695036
 20
225.5572085201
  0
LWPOLYLINE
  5
39D
100
AcDbEntity
  8
FASEN
100
AcDbPolyline
 62
9
  6
CONTINUOUS
 90
41
 70
0
 10
163.3397322234
 20
216.0947144436
 10
164.6508198249
 20
216.3282642485
 10
165.944624597
 20
216.6529808995
 10
167.2261842038
 20
217.0705275959
 10
168.4803856529
 20
217.5759147397
 10
169.6956861055
 20
218.1660567958
 10
170.8664127646
 20
218.8369047742
 10
171.9853738884
 20
219.5852683658
 10
173.045583473
 20
220.4054859928
 10
174.0394798963
 20
221.2928659712
 10
174.9615982706
 20
222.2413083113
 10
175.8054949227
 20
223.2454441521
 10
176.566544586
 20
224.2983884238
 10
177.2391022159
 20
225.3938905547
 10
177.8197834729
 20
226.5246781882
 10
178.3040370773
 20
227.6839171956
 10
178.6897188049
 20
228.8640423207
 10
178.9734426681
 20
230.0577538741
 10
179.1543826765
 20
231.2574210275
 10
179.230415056
 20
232.4554892176
 10
179.2020471701
 20
233.6444299605
 10
179.0684709822
 20
234.8165947981
 10
178.8315089187
 20
235.9647890897
 10
178.491675635
 20
237.0815226937
 10
178.0520864076
 20
238.160033654
 10
177.5145848484
 20
239.1930908083
 10
176.8835006074
 20
240.1746116339
 10
176.1619843245
 20
241.0978443431
 10
175.3554166415
 20
241.9575655682
 10
174.4681271175
 20
242.7477322063
 10
173.5064196398
 20
243.4640516754
 10
172.4756573405
 20
244.1013120153
 10
171.382992044
 20
244.6562282575
 10
170.234785473
 20
245.1244866949
 10
169.0387710653
 20
245.5039615832
 10
167.8020823218
 20
245.7914040737
 10
166.5328807764
 20
245.9858697723
 10
165.2389157897
 20
246.0852416636
 10
163.9285573818
 20
246.0897887633
 10
162.6099695971
 20
245.9985832481
 10
161.2915197243
 20
245.8130986202
  0
LWPOLYLINE
  5
39E
100
AcDbEntity
  8
0
100
AcDbPolyline
 62
7
  6
CONTINUOUS
 90
7
 70
0
 10
155.1007887562
 20
225.985552591
 10
155.202625757
 20
225.8524211482
 10
155.3107985666
 20
225.7187204935
 10
155.425564326
 20
225.5835861645
 10
155.5443922119
 20
225.4493984332
 10
155.6651547852
 20
225.3177476821
 10
155.6922927934
 20
225.2887033665
  0
LWPOLYLINE
  5
39F
100
AcDbEntity
  8
0
100
AcDbPolyline
 62
7
  6
CONTINUOUS
 90
5
 70
0
 10
155.1008245401
 20
225.9854986333
 10
155.0794135787
 20
226.0144887666
 10
155.0581761743
 20
226.043560754
 10
155.0371123269
 20
226.0727145954
 10
155.0162220366
 20
226.101950291
  0
LWPOLYLINE
  5
3A0
100
AcDbEntity
  8
BEZUGSACHSEN
100
AcDbPolyline
 62
9
  6
CONTINUOUS
 90
19
 70
0
 10
153.8641067771
 20
227.0413260646
 10
153.7259389119
 20
227.2652695255
 10
153.5983535476
 20
227.5661971281
 10
153.5172555213
 20
227.8843033575
 10
153.4840324426
 20
228.214145328
 10
153.4992527677
 20
228.550079352
 10
153.5626560725
 20
228.8863575052
 10
153.673157509
 20
229.2172259753
 10
153.8288663668
 20
229.5370235109
 10
154.0271184244
 20
229.8402782875
 10
154.264521534
 20
230.1218015318
 10
154.5370136626
 20
230.3767763032
 10
154.8399323943
 20
230.6008399124
 10
155.1680947056
 20
230.7901585692
 10
155.5158856485
 20
230.9414929786
 10
155.8773544234
 20
231.0522537672
 10
156.2463161994
 20
231.120545787
 10
156.6164579383
 20
231.1452005426
 10
156.9814464121
 20
231.1257961844
  0
LINE
  5
3A1
100
AcDbEntity
  8
FASEN
100
AcDbLine
 62
7
  6
CONTINUOUS
 10
162.8449041441
 20
212.5907554615
 11
167.3205255615
 21
203.0233239176
  0
LINE
  5
3A2
100
AcDbEntity
  8
BEZUGSACHSEN
100
AcDbLine
 62
7
  6
CONTINUOUS
 10
157.6759388756
 20
223.3683753004
 11
157.5030529534
 21
222.7051371485
  0
LWPOLYLINE
  5
3A3
100
AcDbEntity
  8
BEZUGSACHSEN
100
AcDbPolyline
 62
7
  6
CONTINUOUS
 90
12
 70
0
 10
157.5030529534
 20
222.7051371485
 10
157.4571716549
 20
222.5446040403
 10
157.4051887886
 20
222.3932248797
 10
157.3469701365
 20
222.250903809
 10
157.2829183526
 20
222.1179284016
 10
157.213060246
 20
221.9947376615
 10
157.1383891334
 20
221.8807814402
 10
157.0597108473
 20
221.7763029209
 10
156.97761465
 20
221.6793611122
 10
156.8934399777
 20
221.5892532248
 10
156.8057421416
 20
221.5025078361
 10
156.7134129492
 20
221.4162260343
  0
LWPOLYLINE
  5
3A4
100
AcDbEntity
  8
BEZUGSACHSEN
100
AcDbPolyline
 62
7
  6
CONTINUOUS
 90
13
 70
0
 10
156.1870353774
 20
220.8868106721
 10
156.0763788309
 20
220.9331466542
 10
155.9699391688
 20
220.9646929484
 10
155.8669552827
 20
220.9821194427
 10
155.7697104972
 20
220.9834164729
 10
155.6802058566
 20
220.9663244842
 10
155.5985270934
 20
220.932263036
 10
155.5256491215
 20
220.8814507626
 10
155.4609054406
 20
220.8152308844
 10
155.4040651315
 20
220.7345161179
 10
155.3547963653
 20
220.6408166087
 10
155.3126392399
 20
220.5361735396
 10
155.2777470558
 20
220.4199065164
  0
LWPOLYLINE
  5
3A5
100
AcDbEntity
  8
0
100
AcDbPolyline
 62
7
  6
CONTINUOUS
 90
14
 70
0
 10
163.2901856194
 20
217.3836707275
 10
163.1961268431
 20
217.4629256559
 10
163.0667686609
 20
217.5748418464
 10
162.9324536186
 20
217.6939206695
 10
162.7929111184
 20
217.8204449866
 10
162.6479918239
 20
217.9546141337
 10
162.4973861116
 20
218.0967759862
 10
162.3413042452
 20
218.2467677876
 10
162.1798793857
 20
218.4045130393
 10
162.0130332165
 20
218.5701008427
 10
161.8409389359
 20
218.7433747167
 10
161.6629751611
 20
218.9249949103
 10
161.4787307556
 20
219.1153912438
 10
161.2877481785
 20
219.3150985211
  0
LINE
  5
3A6
100
AcDbEntity
  8
0
100
AcDbLine
 62
7
  6
CONTINUOUS
 10
157.2767220007
 20
223.7400000347
 11
157.6759388756
 21
223.3683753004
  0
LINE
  5
3A7
100
AcDbEntity
  8
0
100
AcDbLine
 62
7
  6
CONTINUOUS
 10
156.9860027864
 20
224.0131511259
 11
157.2767220007
 21
223.7400000347
  0
LINE
  5
3A8
100
AcDbEntity
  8
0
100
AcDbLine
 62
7
  6
CONTINUOUS
 10
156.6839876594
 20
224.2999957623
 11
156.9860027864
 21
224.0131511259
  0
LINE
  5
3A9
100
AcDbEntity
  8
0
100
AcDbLine
 62
7
  6
CONTINUOUS
 10
156.4724669307
 20
224.5034509331
 11
156.6839876594
 21
224.2999957623
  0
LWPOLYLINE
  5
3AA
100
AcDbEntity
  8
0
100
AcDbPolyline
 62
7
  6
CONTINUOUS
 90
7
 70
0
 10
155.6922927934
 20
225.2887033665
 10
155.7863094433
 20
225.1893922407
 10
155.9056822232
 20
225.0657974332
 10
156.0233276998
 20
224.9462072913
 10
156.1387478498
 20
224.8306137476
 10
156.252042139
 20
224.7185038046
 10
156.4724669307
 20
224.5034509331
  0
LINE
  5
3AB
100
AcDbEntity
  8
0
100
AcDbLine
 62
7
  6
CONTINUOUS
 10
161.2877481785
 20
219.3150985211
 11
160.9932030967
 21
219.6272975396
  0
LINE
  5
3AC
100
AcDbEntity
  8
0
100
AcDbLine
 62
7
  6
CONTINUOUS
 10
160.9932030967
 20
219.6272975396
 11
160.6699346513
 21
219.9751952939
  0
LINE
  5
3AD
100
AcDbEntity
  8
0
100
AcDbLine
 62
7
  6
CONTINUOUS
 10
160.6699346513
 20
219.9751952939
 11
160.2164439462
 21
220.471207536
  0
LINE
  5
3AE
100
AcDbEntity
  8
0
100
AcDbLine
 62
7
  6
CONTINUOUS
 10
160.2164439462
 20
220.471207536
 11
159.72599328
 21
221.0165630743
  0
LINE
  5
3AF
100
AcDbEntity
  8
0
100
AcDbLine
 62
7
  6
CONTINUOUS
 10
159.72599328
 20
221.0165630743
 11
159.1956446822
 21
221.6150250118
  0
LINE
  5
3B0
100
AcDbEntity
  8
0
100
AcDbLine
 62
7
  6
CONTINUOUS
 10
159.1956446822
 20
221.6150250118
 11
158.6224695657
 21
222.2703672152
  0
LWPOLYLINE
  5
3B1
100
AcDbEntity
  8
0
100
AcDbPolyline
 62
7
  6
CONTINUOUS
 90
3
 70
0
 10
158.6224695657
 20
222.2703672152
 10
158.0033282296
 20
222.9866401628
 10
157.6759388756
 20
223.3683753004
  0
LINE
  5
3B2
100
AcDbEntity
  8
FASEN
100
AcDbLine
 62
7
  6
CONTINUOUS
 10
163.4186639438
 20
211.9965001759
 11
167.5824184065
 21
203.0957393491
  0
LWPOLYLINE
  5
3B3
100
AcDbEntity
  8
0
100
AcDbPolyline
 62
7
  6
CONTINUOUS
 90
31
 70
0
 10
157.7698956089
 20
231.2847236129
 10
158.090497393
 20
230.3164217146
 10
158.1487470254
 20
230.1380413618
 10
158.2065170688
 20
229.9584325045
 10
158.2637417254
 20
229.7772900153
 10
158.3200239834
 20
229.5938248867
 10
158.375316302
 20
229.4075741816
 10
158.4287018324
 20
229.2172791607
 10
158.479985791
 20
229.0216993749
 10
158.5273703252
 20
228.8203381462
 10
158.5700412592
 20
228.6116789944
 10
158.6055409365
 20
228.3974675272
 10
158.6317150795
 20
228.1791874609
 10
158.6476210644
 20
227.9557837921
 10
158.6520645105
 20
227.7265219788
 10
158.6449424431
 20
227.4915012217
 10
158.6260765541
 20
227.2498665274
 10
158.5958938003
 20
227.0032727769
 10
158.553811367
 20
226.7495556941
 10
158.5036929533
 20
226.498908345
 10
158.4469711749
 20
226.2598509304
 10
158.3855490643
 20
226.0356780945
 10
158.3196429163
 20
225.8306354972
 10
158.2514942561
 20
225.6508706729
 10
158.181621327
 20
225.5055075493
 10
158.1096584583
 20
225.3905502377
 10
158.0357689078
 20
225.3063727397
 10
157.9590323182
 20
225.2493155511
 10
157.8793399891
 20
225.2170247652
 10
157.7962507179
 20
225.2060988939
 10
157.74034659
 20
225.2087049765
  0
LINE
  5
3B4
100
AcDbEntity
  8
BEZUGSACHSEN
100
AcDbLine
 62
9
  6
CONTINUOUS
 10
156.8640624095
 20
231.6346204059
 11
157.1043503587
 21
230.5952400128
  0
LINE
  5
3B5
100
AcDbEntity
  8
BEZUGSACHSEN
100
AcDbLine
 62
9
  6
CONTINUOUS
 10
157.1043503587
 20
230.5952400128
 11
157.1856449641
 21
230.2364893202
  0
LINE
  5
3B6
100
AcDbEntity
  8
BEZUGSACHSEN
100
AcDbLine
 62
9
  6
CONTINUOUS
 10
156.758058202
 20
232.1103242917
 11
156.8640624095
 21
231.6346204059
  0
LWPOLYLINE
  5
3B7
100
AcDbEntity
  8
BEZUGSACHSEN
100
AcDbPolyline
 62
9
  6
CONTINUOUS
 90
23
 70
0
 10
157.1856449641
 20
230.2364893202
 10
157.2643178041
 20
229.8779977171
 10
157.3020232202
 20
229.69935323
 10
157.3383053938
 20
229.5213311012
 10
157.3729650627
 20
229.3437032496
 10
157.4056328537
 20
229.1656628993
 10
157.4357732155
 20
228.9874773708
 10
157.4630238287
 20
228.808757043
 10
157.486587765
 20
228.6315012255
 10
157.5057820656
 20
228.4581189552
 10
157.5204201899
 20
228.2890259403
 10
157.5303160123
 20
228.127659012
 10
157.5360120695
 20
227.9703866815
 10
157.5377656829
 20
227.8155482138
 10
157.5355854661
 20
227.6599260989
 10
157.529146478
 20
227.4989086816
 10
157.5181996854
 20
227.3340787667
 10
157.5023170045
 20
227.1647378439
 10
157.4814605146
 20
226.9944132245
 10
157.455966528
 20
226.8262962816
 10
157.4260730357
 20
226.6615818084
 10
157.392169649
 20
226.501899654
 10
157.3546647951
 20
226.3483197748
  0
LINE
  5
3B8
100
AcDbEntity
  8
BEZUGSACHSEN
100
AcDbLine
 62
9
  6
CONTINUOUS
 10
156.6624637147
 20
232.5552486418
 11
156.758058202
 21
232.1103242917
  0
LINE
  5
3B9
100
AcDbEntity
  8
BEZUGSACHSEN
100
AcDbLine
 62
9
  6
CONTINUOUS
 10
156.5764291679
 20
232.9716949061
 11
156.6624637147
 21
232.5552486418
  0
LINE
  5
3BA
100
AcDbEntity
  8
BEZUGSACHSEN
100
AcDbLine
 62
9
  6
CONTINUOUS
 10
163.135959911
 20
234.48437508
 11
163.3474698031
 21
235.2957854491
  0
LWPOLYLINE
  5
3BB
100
AcDbEntity
  8
BEZUGSACHSEN
100
AcDbPolyline
 62
9
  6
CONTINUOUS
 90
22
 70
0
 10
163.3474698031
 20
235.2957854491
 10
163.4579712396
 20
235.6266539192
 10
163.6136800974
 20
235.9464514547
 10
163.811932155
 20
236.2497062313
 10
164.0493352646
 20
236.5312294757
 10
164.3218273932
 20
236.786204247
 10
164.6247461249
 20
237.0102678563
 10
164.9529084362
 20
237.199586513
 10
165.3006993791
 20
237.3509209225
 10
165.662168154
 20
237.461681711
 10
166.03112993
 20
237.5299737308
 10
166.4012716689
 20
237.5546284865
 10
166.7662601427
 20
237.5352241283
 10
167.1198502976
 20
237.4720926702
 10
167.455992108
 20
237.366314309
 10
167.7689340943
 20
237.2196989417
 10
168.0533217323
 20
237.0347551979
 10
168.3042890708
 20
236.8146475164
 10
168.5175419889
 20
236.5631420006
 10
168.6894316702
 20
236.2845419797
 10
168.8170170345
 20
235.9836143771
 10
168.8953989451
 20
235.6761620856
  0
LWPOLYLINE
  5
3BC
100
AcDbEntity
  8
0
100
AcDbPolyline
 62
7
  6
CONTINUOUS
 90
20
 70
0
 10
156.6313507793
 20
225.8355398844
 10
156.3739038651
 20
226.0228110452
 10
156.232053221
 20
226.124290956
 10
156.0975883964
 20
226.2186716121
 10
155.9701381508
 20
226.3063162791
 10
155.8494361191
 20
226.3874994696
 10
155.7352589521
 20
226.4624611345
 10
155.6273614648
 20
226.5314618997
 10
155.5255658938
 20
226.5946701566
 10
155.4296443829
 20
226.6523401829
 10
155.3395288842
 20
226.7044387553
 10
155.2551516424
 20
226.750935039
 10
155.1763343286
 20
226.7920475029
 10
155.1028848568
 20
226.8280175418
 10
155.034800707
 20
226.8587240454
 10
154.9720315766
 20
226.8841774297
 10
154.9145886934
 20
226.9042113487
 10
154.8624983449
 20
226.9186735183
 10
154.8157568165
 20
226.9275287454
 10
154.8064360258
 20
226.9286871648
  0
LWPOLYLINE
  5
3BD
100
AcDbEntity
  8
BEZUGSACHSEN
100
AcDbPolyline
 62
9
  6
CONTINUOUS
 90
15
 70
0
 10
168.5773871579
 20
233.129516592
 10
168.5660688
 20
233.1119576345
 10
168.5084562556
 20
233.0423043061
 10
168.4448363016
 20
232.982117166
 10
168.3744560452
 20
232.92954875
 10
168.2969906442
 20
232.8837398933
 10
168.2107723376
 20
232.8437819766
 10
168.1126957404
 20
232.8088925444
 10
168.0030632201
 20
232.7798959195
 10
167.8806022407
 20
232.7572577159
 10
167.7470805299
 20
232.7420174384
 10
167.6048832404
 20
232.7345442977
 10
167.4551400753
 20
232.7348037563
 10
167.2995294166
 20
232.7426488312
 10
167.1394785257
 20
232.7577477186
  0
LWPOLYLINE
  5
3BE
100
AcDbEntity
  8
BEZUGSACHSEN
100
AcDbPolyline
 62
7
  6
CONTINUOUS
 90
5
 70
0
 10
156.7134129492
 20
221.4162260343
 10
156.5157969132
 20
221.2363682597
 10
156.4104985567
 20
221.1354803528
 10
156.3009143907
 20
221.0181658293
 10
156.1870353774
 20
220.8868106721
  0
LWPOLYLINE
  5
3BF
100
AcDbEntity
  8
BEZUGSACHSEN
100
AcDbPolyline
 62
9
  6
CONTINUOUS
 90
31
 70
0
 10
154.6833432487
 20
224.3839250832
 10
154.7763264455
 20
224.3714690046
 10
154.8705740471
 20
224.3552508421
 10
154.9654853703
 20
224.3352527967
 10
155.0600484317
 20
224.3115878215
 10
155.1531914149
 20
224.2845560949
 10
155.2445368648
 20
224.2544871636
 10
155.3335170136
 20
224.2218842998
 10
155.4206696163
 20
224.1868293741
 10
155.5063748773
 20
224.1494086919
 10
155.5910812423
 20
224.1096619115
 10
155.6752970231
 20
224.0675137427
 10
155.7593334835
 20
224.0229432993
 10
155.8435470112
 20
223.9758903393
 10
155.9284549794
 20
223.9261696583
 10
156.0145276641
 20
223.873535369
 10
156.1019935118
 20
223.8178648423
 10
156.1911761969
 20
223.758952923
 10
156.2821994367
 20
223.696714148
 10
156.3752318568
 20
223.6310109761
 10
156.4704117712
 20
223.5617361659
 10
156.5679223245
 20
223.4887594171
 10
156.667880226
 20
223.4119951333
 10
156.7706791257
 20
223.3311096882
 10
156.8755415769
 20
223.2466711944
 10
156.9823030134
 20
223.1587312159
 10
157.0895186121
 20
223.0684952688
 10
157.1963923664
 20
222.9767769246
 10
157.3016668264
 20
222.8848657095
 10
157.403612718
 20
222.7945032842
 10
157.5030529534
 20
222.7051371485
  0
LWPOLYLINE
  5
3C0
100
AcDbEntity
  8
FASEN
100
AcDbPolyline
 62
7
  6
CONTINUOUS
 90
15
 70
0
 10
163.3397297279
 20
216.0947048702
 10
163.2812120818
 20
215.7771267585
 10
163.2318925873
 20
215.4462418243
 10
163.1914831283
 20
215.1060911871
 10
163.1608246957
 20
214.7612499325
 10
163.140579432
 20
214.4162577103
 10
163.1308794336
 20
214.0756602365
 10
163.1319984763
 20
213.7439194111
 10
163.1438110574
 20
213.4253331879
 10
163.1662699175
 20
213.1238689196
 10
163.1988999836
 20
212.8435987205
 10
163.2412806803
 20
212.5881117278
 10
163.2925937373
 20
212.3602545318
 10
163.3519488904
 20
212.162508631
 10
163.4186639438
 20
211.9965001759
  0
LWPOLYLINE
  5
3C1
100
AcDbEntity
  8
FASEN
100
AcDbPolyline
 62
7
  6
CONTINUOUS
 90
15
 70
0
 10
162.8993109104
 20
215.8841673767
 10
162.837460502
 20
215.6266326292
 10
162.7837456676
 20
215.3618093508
 10
162.7378927344
 20
215.0878712602
 10
162.7007227213
 20
214.810297202
 10
162.6729291853
 20
214.5327689513
 10
162.65462084
 20
214.2588514353
 10
162.6461963755
 20
213.9922586788
 10
162.6474794185
 20
213.7362251638
 10
162.6585938267
 20
213.4942924225
 10
162.6790375973
 20
213.2692533285
 10
162.7086084051
 20
213.0645178403
 10
162.7465310743
 20
212.8817762348
 10
162.7918576601
 20
212.7242088081
 10
162.8449041441
 20
212.5907554615
  0
LWPOLYLINE
  5
3C2
100
AcDbEntity
  8
BEZUGSACHSEN
100
AcDbPolyline
 62
7
  6
CONTINUOUS
 90
13
 70
0
 10
164.2000402008
 20
219.3950934781
 10
164.2297579048
 20
219.5185908572
 10
164.2508664938
 20
219.6310054304
 10
164.2638054828
 20
219.7330586702
 10
164.2672563266
 20
219.8225861592
 10
164.2597634768
 20
219.8983425657
 10
164.2421774589
 20
219.9582921058
 10
164.2142363585
 20
219.9989514646
 10
164.1778219464
 20
220.0234179046
 10
164.1345323097
 20
220.0328667948
 10
164.0849565859
 20
220.0295805012
 10
164.0303568372
 20
220.0165674492
 10
163.9703123762
 20
219.9928248302
  0
LWPOLYLINE
  5
3C3
100
AcDbEntity
  8
0
100
AcDbPolyline
 62
7
  6
CONTINUOUS
 90
15
 70
0
 10
168.899524129
 20
235.6772137603
 10
168.896322395
 20
235.664868822
 10
168.8724233424
 20
235.5678856961
 10
168.8491071328
 20
235.4642590878
 10
168.8263849388
 20
235.3540850938
 10
168.8042805367
 20
235.2373802116
 10
168.7828437154
 20
235.1140019474
 10
168.7621213151
 20
234.983975198
 10
168.7421591609
 20
234.8468103612
 10
168.7230186509
 20
234.7021665377
 10
168.704725841
 20
234.549593056
 10
168.6873071358
 20
234.3886092646
 10
168.6708567767
 20
234.2189209042
 10
168.6554692427
 20
234.0400424425
 10
168.6315471255
 20
233.7228240013
  0
LINE
  5
3C4
100
AcDbEntity
  8
BEZUGSACHSEN
100
AcDbLine
 62
7
  6
CONTINUOUS
 10
163.9703123762
 20
219.9928248302
 11
162.8993109104
 21
215.8841673767
  0
LINE
  5
3C5
100
AcDbEntity
  8
BEZUGSACHSEN
100
AcDbLine
 62
7
  6
CONTINUOUS
 10
164.200031516
 20
219.3950601609
 11
163.3397322234
 21
216.0947144436
  0
LINE
  5
3C6
100
AcDbEntity
  8
BEZUGSACHSEN
100
AcDbLine
 62
7
  6
CONTINUOUS
 10
169.0720438412
 20
236.3391239216
 11
169.0718372246
 21
236.338330985
  0
LINE
  5
3C7
100
AcDbEntity
  8
BEZUGSACHSEN
100
AcDbLine
 62
7
  6
CONTINUOUS
 10
165.4592158744
 20
222.4743894585
 11
165.2863299522
 21
221.8111513066
  0
LWPOLYLINE
  5
3C8
100
AcDbEntity
  8
0
100
AcDbPolyline
 62
7
  6
CONTINUOUS
 90
32
 70
0
 10
168.4708169734
 20
232.4897715832
 10
168.46052342
 20
232.4507519198
 10
168.4219844067
 20
232.330384885
 10
168.3738098243
 20
232.2142264091
 10
168.3136285751
 20
232.106038431
 10
168.2391037205
 20
232.0092196936
 10
168.147733545
 20
231.9248100068
 10
168.0365703494
 20
231.8543291609
 10
167.9039754065
 20
231.7984271677
 10
167.7472146127
 20
231.7576142865
 10
167.5659096959
 20
231.7324216836
 10
167.3556412599
 20
231.7239361003
 10
167.1252605825
 20
231.7302093552
 10
166.8810690694
 20
231.751749951
 10
166.6274436899
 20
231.787057452
 10
166.3680498728
 20
231.8369762188
 10
166.1123749058
 20
231.8991090647
 10
165.8722060579
 20
231.9734089697
 10
165.645779686
 20
232.0590278006
 10
165.436067818
 20
232.1549105443
 10
165.2408857883
 20
232.2610559371
 10
165.0597098401
 20
232.3767864951
 10
164.890453393
 20
232.5013513984
 10
164.7309505047
 20
232.6341749383
 10
164.5808030681
 20
232.7725517114
 10
164.4393698195
 20
232.9135058883
 10
164.3052160964
 20
233.0563982123
 10
164.1770551141
 20
233.1993035171
 10
164.05365985
 20
233.3424934399
 10
163.9334804682
 20
233.4854100566
 10
163.8160347877
 20
233.6282510132
 10
163.7004000408
 20
233.7709415111
  0
LINE
  5
3C9
100
AcDbEntity
  8
BEZUGSACHSEN
100
AcDbLine
 62
7
  6
CONTINUOUS
 10
165.264371079
 20
221.729874442
 11
165.2863299522
 21
221.8111513066
  0
LWPOLYLINE
  5
3CA
100
AcDbEntity
  8
0
100
AcDbPolyline
 62
7
  6
CONTINUOUS
 90
28
 70
0
 10
165.4592158744
 20
222.4743894585
 10
165.4846393861
 20
222.5601420018
 10
165.5115030704
 20
222.6442985572
 10
165.5396048747
 20
222.7265736639
 10
165.5694464185
 20
222.8078045486
 10
165.6013271352
 20
222.8885819164
 10
165.6356930789
 20
222.9694694719
 10
165.6729894116
 20
223.0512576728
 10
165.7135465058
 20
223.1339835634
 10
165.7576704143
 20
223.2180254948
 10
165.8058674457
 20
223.3032394116
 10
165.8588451968
 20
223.3900392363
 10
165.9162548822
 20
223.4772154962
 10
165.9783338209
 20
223.5641097641
 10
166.0439292654
 20
223.6493681727
 10
166.1121396986
 20
223.7313149532
 10
166.182387681
 20
223.809945264
 10
166.2536756291
 20
223.8843328586
 10
166.326388173
 20
223.9553970858
 10
166.4003724926
 20
224.0235114562
 10
166.4762695246
 20
224.0894669549
 10
166.5544190547
 20
224.1540261253
 10
166.6355463391
 20
224.2178158926
 10
166.7207011486
 20
224.2819009937
 10
166.8091646496
 20
224.3459237633
 10
166.9010838337
 20
224.4100732042
 10
166.9949049879
 20
224.4737296658
 10
167.089020862
 20
224.5361799552
  0
LWPOLYLINE
  5
3CB
100
AcDbEntity
  8
BEZUGSACHSEN
100
AcDbPolyline
 62
9
  6
CONTINUOUS
 90
14
 70
0
 10
165.2863299522
 20
221.8111513066
 10
165.3080321681
 20
221.8843349629
 10
165.3313775064
 20
221.9578282778
 10
165.3566527825
 20
222.0319117735
 10
165.3837614587
 20
222.1055124152
 10
165.4126914127
 20
222.1778333199
 10
165.4434510561
 20
222.2483152421
 10
165.4758322404
 20
222.3162321531
 10
165.5097581817
 20
222.3814763721
 10
165.5450387888
 20
222.4436668147
 10
165.5817930411
 20
222.5028882519
 10
165.6200918953
 20
222.5590807468
 10
165.6600637682
 20
222.6122152728
 10
165.701797747
 20
222.6622488214
  0
LINE
  5
3CC
100
AcDbEntity
  8
BEZUGSACHSEN
100
AcDbLine
 62
7
  6
CONTINUOUS
 10
165.2642303395
 20
221.7302331545
 11
165.2657480939
 21
221.7351282484
  0
LINE
  5
3CD
100
AcDbEntity
  8
BEZUGSACHSEN
100
AcDbLine
 62
7
  6
CONTINUOUS
 10
165.2657480939
 20
221.7351282484
 11
165.261670699
 21
221.7224054821
  0
LINE
  5
3CE
100
AcDbEntity
  8
BEZUGSACHSEN
100
AcDbLine
 62
7
  6
CONTINUOUS
 10
165.261670699
 20
221.7224054821
 11
165.2603276161
 21
221.7184755065
  0
LWPOLYLINE
  5
3CF
100
AcDbEntity
  8
BEZUGSACHSEN
100
AcDbPolyline
 62
7
  6
CONTINUOUS
 90
9
 70
0
 10
165.2603276161
 20
221.7184755065
 10
165.2415815055
 20
221.6679441842
 10
165.2065001595
 20
221.5841096359
 10
165.1515000376
 20
221.4677601522
 10
165.0728582729
 20
221.3210109754
 10
164.9672083826
 20
221.1472479968
 10
164.8294001184
 20
220.9474448142
 10
164.654407996
 20
220.7242818855
 10
164.4382778239
 20
220.4827482866
  0
LWPOLYLINE
  5
3D0
100
AcDbEntity
  8
BEZUGSACHSEN
100
AcDbPolyline
 62
9
  6
CONTINUOUS
 90
31
 70
0
 10
169.0477968941
 20
224.4902860441
 10
169.6832275106
 20
224.448307597
 10
170.3241228023
 20
224.4676944047
 10
170.9749606567
 20
224.5489887162
 10
171.6223074114
 20
224.6905637843
 10
172.2560644136
 20
224.8920347196
 10
172.8707045222
 20
225.1502181969
 10
173.4593648551
 20
225.4632333403
 10
174.0159539823
 20
225.8267879126
 10
174.5337859377
 20
226.237733403
 10
175.0077814471
 20
226.6907577559
 10
175.4318818527
 20
227.181465263
 10
175.8023393385
 20
227.7039583716
 10
176.1142116987
 20
228.2530244572
 10
176.3650234448
 20
228.8222130268
 10
176.5509731576
 20
229.4055228631
 10
176.6710964228
 20
229.9963935137
 10
176.7229807906
 20
230.5884308473
 10
176.7071689477
 20
231.1751346835
 10
176.622727324
 20
231.7498774247
 10
176.47167224
 20
232.3066471912
 10
176.254548369
 20
232.8390533959
 10
175.9748370823
 20
233.3416045644
 10
175.6346334694
 20
233.8081645947
 10
175.238641049
 20
234.234276782
 10
174.7904244346
 20
234.6145397976
 10
174.2954954308
 20
234.9456514112
 10
173.7574767869
 20
235.2233744505
 10
173.1856002826
 20
235.4451124128
 10
172.5916102013
 20
235.6063552928
 10
171.9715917819
 20
235.7086064256
  0
LINE
  5
3D1
100
AcDbEntity
  8
BEZUGSACHSEN
100
AcDbLine
 62
9
  6
CONTINUOUS
 10
153.2911745595
 20
226.300088944
 11
155.0162220366
 21
226.101950291
  0
LINE
  5
3D2
100
AcDbEntity
  8
BEZUGSACHSEN
100
AcDbLine
 62
9
  6
CONTINUOUS
 10
167.3225173227
 20
224.6884513555
 11
169.0477968941
 21
224.4902860441
  0
LWPOLYLINE
  5
3D3
100
AcDbEntity
  8
0
100
AcDbPolyline
 62
7
  6
CONTINUOUS
 90
14
 70
0
 10
157.74034659
 20
225.2087049765
 10
157.709517467
 20
225.2135104861
 10
157.6201684794
 20
225.2358290096
 10
157.5292243379
 20
225.2694352456
 10
157.4374866988
 20
225.3119441433
 10
157.3460150932
 20
225.3603523943
 10
157.2556489888
 20
225.4129029785
 10
157.1681252991
 20
225.466689872
 10
157.082123368
 20
225.5221483138
 10
156.9978732612
 20
225.5781409157
 10
156.9127390291
 20
225.6363348104
 10
156.8251140319
 20
225.6973028143
 10
156.7324507948
 20
225.7629413633
 10
156.6313507793
 20
225.8355398844
  0
LWPOLYLINE
  5
3D4
100
AcDbEntity
  8
BEZUGSACHSEN
100
AcDbPolyline
 62
9
  6
CONTINUOUS
 90
31
 70
0
 10
153.2911745595
 20
226.300088944
 10
152.6712939819
 20
226.4022953223
 10
152.0773866058
 20
226.5635113495
 10
151.5055238857
 20
226.7852448363
 10
150.9674914576
 20
227.062972351
 10
150.4725624538
 20
227.3940839646
 10
150.0243458394
 20
227.7743469803
 10
149.628353419
 20
228.2004591676
 10
149.2881498061
 20
228.6670191979
 10
149.0084385194
 20
229.1695703664
 10
148.7913146484
 20
229.701976571
 10
148.6402595644
 20
230.2587463376
 10
148.5558179407
 20
230.8334890788
 10
148.5400060977
 20
231.420192915
 10
148.5918904656
 20
232.0122302486
 10
148.7120137308
 20
232.6031008992
 10
148.8979634436
 20
233.1864107355
 10
149.1487751897
 20
233.755599305
 10
149.4606475499
 20
234.3046653907
 10
149.8311050357
 20
234.8271584993
 10
150.2552054413
 20
235.3178660064
 10
150.7292009506
 20
235.7708903593
 10
151.2470329061
 20
236.1818358497
 10
151.8036220333
 20
236.5453904219
 10
152.3922823662
 20
236.8584055653
 10
153.0069224748
 20
237.1165890427
 10
153.640679477
 20
237.318059978
 10
154.287996464
 20
237.459635573
 10
154.9388640861
 20
237.5409293576
 10
155.5799379841
 20
237.5603130038
 10
156.2156662777
 20
237.5183292877
  0
LWPOLYLINE
  5
3D5
100
AcDbEntity
  8
0
100
AcDbPolyline
 62
7
  6
CONTINUOUS
 90
10
 70
0
 10
168.6315471255
 20
233.7228240013
 10
168.6104378254
 20
233.4651934162
 10
168.5987694646
 20
233.3367651639
 10
168.5861066509
 20
233.208532562
 10
168.5719932461
 20
233.0806370098
 10
168.556189916
 20
232.9530765364
 10
168.5379136886
 20
232.8261152446
 10
168.5168404435
 20
232.6996873816
 10
168.4913586697
 20
232.5745974565
 10
168.4708169734
 20
232.4897715832
  0
LINE
  5
3D6
100
AcDbEntity
  8
BEZUGSACHSEN
100
AcDbLine
 62
9
  6
CONTINUOUS
 10
170.5796358163
 20
237.6244774322
 11
170.1621981322
 21
236.0230711711
  0
LINE
  5
3D7
100
AcDbEntity
  8
BEZUGSACHSEN
100
AcDbLine
 62
9
  6
CONTINUOUS
 10
167.1839496231
 20
224.597687242
 11
166.7665181789
 21
222.9963049207
  0
LWPOLYLINE
  5
3D8
100
AcDbEntity
  8
BEZUGSACHSEN
100
AcDbPolyline
 62
7
  6
CONTINUOUS
 90
4
 70
0
 10
163.9703123762
 20
219.9928248302
 10
164.0957153265
 20
220.1358870724
 10
164.2172134186
 20
220.264423297
 10
164.4382778239
 20
220.4827482866
  0
LWPOLYLINE
  5
3D9
100
AcDbEntity
  8
BEZUGSACHSEN
100
AcDbPolyline
 62
9
  6
CONTINUOUS
 90
16
 70
0
 10
165.701797747
 20
222.6622488214
 10
165.7453813976
 20
222.7091611389
 10
165.7908758445
 20
222.7528726217
 10
165.8384982198
 20
222.7934414787
 10
165.8883545573
 20
222.8307911596
 10
165.9409652903
 20
222.8651047346
 10
165.9968506668
 20
222.896332061
 10
166.056958426
 20
222.9245442543
 10
166.1224086022
 20
222.9496680597
 10
166.194081585
 20
222.9712678388
 10
166.2733185588
 20
222.9888869605
 10
166.3599435657
 20
223.0016862262
 10
166.4537521593
 20
223.0089663124
 10
166.5537721223
 20
223.0103595613
 10
166.6584006412
 20
223.0059674085
 10
166.7664546003
 20
222.9960610157
  0
LINE
  5
3DA
100
AcDbEntity
  8
0
100
AcDbLine
 62
7
  6
CONTINUOUS
 10
167.4847909397
 20
224.7953713975
 11
167.2534639013
 21
224.6428256291
  0
LINE
  5
3DB
100
AcDbEntity
  8
0
100
AcDbLine
 62
7
  6
CONTINUOUS
 10
167.2534639013
 20
224.6428256291
 11
167.089020862
 21
224.5361799552
  0
LWPOLYLINE
  5
3DC
100
AcDbEntity
  8
0
100
AcDbPolyline
 62
7
  6
CONTINUOUS
 90
15
 70
0
 10
167.4847909397
 20
224.7953713975
 10
167.6418910442
 20
224.8939414111
 10
167.7947732683
 20
224.984314969
 10
167.9404632892
 20
225.0641242229
 10
168.0764922323
 20
225.1304530874
 10
168.2032025296
 20
225.1846746422
 10
168.319606582
 20
225.2266869485
 10
168.427493985
 20
225.2583735811
 10
168.5279327827
 20
225.2814647367
 10
168.6218122626
 20
225.296917985
 10
168.7101550285
 20
225.3061755856
 10
168.7933745843
 20
225.3098746056
 10
168.8720267204
 20
225.3090207223
 10
168.9465577757
 20
225.3041473501
 10
168.9823129203
 20
225.3005789412
  0
LWPOLYLINE
  5
3DD
100
AcDbEntity
  8
0
100
AcDbPolyline
 62
7
  6
CONTINUOUS
 90
17
 70
0
 10
154.8064360258
 20
226.9286871648
 10
154.7742354795
 20
226.930833887
 10
154.7384135334
 20
226.9281687006
 10
154.7086573907
 20
226.9191993548
 10
154.6851938894
 20
226.9037677156
 10
154.6683242026
 20
226.881663487
 10
154.6582058341
 20
226.8527530074
 10
154.6549755983
 20
226.8171454568
 10
154.659046508
 20
226.7739502238
 10
154.670645529
 20
226.7228430201
 10
154.6908242504
 20
226.6623769161
 10
154.7208445083
 20
226.5907801249
 10
154.7608646708
 20
226.509020167
 10
154.8119811332
 20
226.4164124045
 10
154.872431881
 20
226.3162415239
 10
154.9402907026
 20
226.2117021904
 10
155.0162220364
 20
226.1019502911
  0
LWPOLYLINE
  5
3DE
100
AcDbEntity
  8
BEZUGSACHSEN
100
AcDbPolyline
 62
9
  6
CONTINUOUS
 90
21
 70
0
 10
154.0161363706
 20
227.0194890153
 10
153.990261227
 20
227.0220456551
 10
153.9428363933
 20
227.0244506615
 10
153.8969734663
 20
227.0236354119
 10
153.8526506442
 20
227.0195316819
 10
153.8098640948
 20
227.0120846945
 10
153.7686019541
 20
227.0012681762
 10
153.7289155737
 20
226.987041451
 10
153.6906423648
 20
226.969309597
 10
153.6537646803
 20
226.9479982886
 10
153.6179346941
 20
226.9227530114
 10
153.5829521903
 20
226.8931035485
 10
153.5484114381
 20
226.8582555597
 10
153.5138822617
 20
226.8170529488
 10
153.4794434343
 20
226.7685428807
 10
153.4449840918
 20
226.7113660055
 10
153.4111048713
 20
226.6452504116
 10
153.3783162927
 20
226.5700656221
 10
153.3471457925
 20
226.4865332552
 10
153.3180461853
 20
226.3961883731
 10
153.2911745595
 20
226.300088944
  0
LINE
  5
3DF
100
AcDbEntity
  8
0
100
AcDbLine
 62
7
  6
CONTINUOUS
 10
169.7725263926
 20
225.2097127988
 11
168.9822411848
 21
225.3004848203
  0
LINE
  5
3E0
100
AcDbEntity
  8
0
100
AcDbLine
 62
7
  6
CONTINUOUS
 10
154.8064215785
 20
226.9287169939
 11
154.0161363706
 21
227.0194890153
  0
LINE
  5
3E1
100
AcDbEntity
  8
BEZUGSACHSEN
100
AcDbLine
 62
7
  6
CONTINUOUS
 10
169.7725263926
 20
225.2097127988
 11
169.7726643591
 21
225.2096969404
  0
LINE
  5
3E2
100
AcDbEntity
  8
BEZUGSACHSEN
100
AcDbLine
 62
7
  6
CONTINUOUS
 10
154.0167392109
 20
227.0194195518
 11
154.0161363706
 21
227.0194890153
  0
LWPOLYLINE
  5
3E3
100
AcDbEntity
  8
BEZUGSACHSEN
100
AcDbPolyline
 62
7
  6
CONTINUOUS
 90
9
 70
0
 10
154.0167392109
 20
227.0194195518
 10
153.9454099751
 20
227.028270003
 10
153.7557509699
 20
227.0587263652
 10
153.6026245553
 20
227.09163529
 10
153.4860687151
 20
227.1226500433
 10
153.4059283217
 20
227.1477357938
 10
153.3593324669
 20
227.1643435021
 10
153.3462795805
 20
227.1695227315
 10
153.3471475082
 20
227.1691648162
  0
LWPOLYLINE
  5
3E4
100
AcDbEntity
  8
BEZUGSACHSEN
100
AcDbPolyline
 62
9
  6
CONTINUOUS
 90
23
 70
0
 10
169.0475645815
 20
224.4903127275
 10
169.0705082046
 20
224.5731839201
 10
169.0950877457
 20
224.6518472506
 10
169.1212017913
 20
224.7256494658
 10
169.1485933013
 20
224.7936089719
 10
169.1769312187
 20
224.854982851
 10
169.2060022914
 20
224.9098207406
 10
169.2354694871
 20
224.9582101435
 10
169.2654534498
 20
225.0009620342
 10
169.2960161843
 20
225.0386377228
 10
169.3272763491
 20
225.07182322
 10
169.3594019591
 20
225.100973979
 10
169.3924862644
 20
225.1263761167
 10
169.4266634132
 20
225.1483071699
 10
169.4620844935
 20
225.1670107621
 10
169.4989557578
 20
225.1826100043
 10
169.537283873
 20
225.1951156668
 10
169.5771568361
 20
225.2045528363
 10
169.6185685586
 20
225.2109332695
 10
169.6615481442
 20
225.2142489986
 10
169.7061007253
 20
225.2145202999
 10
169.7522542898
 20
225.2117872522
 10
169.7725263926
 20
225.2097127988
  0
LWPOLYLINE
  5
3E5
100
AcDbEntity
  8
BEZUGSACHSEN
100
AcDbPolyline
 62
9
  6
CONTINUOUS
 90
9
 70
0
 10
164.200031516
 20
219.3950601609
 10
164.6639917636
 20
219.7552850986
 10
165.0906178065
 20
220.1460012622
 10
165.4815427083
 20
220.5691299671
 10
165.831867278
 20
221.018907267
 10
166.1380329823
 20
221.4921995857
 10
166.3976509112
 20
221.983037128
 10
166.6066990907
 20
222.4835287829
 10
166.7665181789
 20
222.9963049207
  0
LWPOLYLINE
  5
3E6
100
AcDbEntity
  8
0
100
AcDbPolyline
 62
7
  6
CONTINUOUS
 90
34
 70
0
 10
162.9448777236
 20
234.7260060989
 10
162.7580846166
 20
234.9563037035
 10
162.5758624315
 20
235.1751261147
 10
162.3978939041
 20
235.3831205473
 10
162.2239916011
 20
235.5807384182
 10
162.0539793062
 20
235.768391905
 10
161.8876481606
 20
235.9465383292
 10
161.7248503167
 20
236.1154607042
 10
161.5654219694
 20
236.2755548071
 10
161.4091565785
 20
236.4269077762
 10
161.2558124491
 20
236.5696275813
 10
161.1052951412
 20
236.7039996468
 10
160.9575209273
 20
236.8303248238
 10
160.8121902111
 20
236.9486416015
 10
160.6691106225
 20
237.0590563998
 10
160.5278551628
 20
237.1616096818
 10
160.3880199881
 20
237.2563273934
 10
160.2493287554
 20
237.3432748491
 10
160.1112503037
 20
237.4227473077
 10
159.9741453059
 20
237.4940101109
 10
159.838179533
 20
237.5565271169
 10
159.7034535761
 20
237.6099874515
 10
159.5701903229
 20
237.6539533994
 10
159.4382354354
 20
237.6882614191
 10
159.3080865377
 20
237.7126880004
 10
159.1780583543
 20
237.7269352618
 10
159.0471900137
 20
237.730918861
 10
158.9139231849
 20
237.7234647993
 10
158.7756731962
 20
237.7033490916
 10
158.6348447483
 20
237.6701597139
 10
158.4920100325
 20
237.6224076627
 10
158.3502164922
 20
237.5623036596
 10
158.2128779646
 20
237.4920732031
 10
158.0790982811
 20
237.4109793595
  0
LINE
  5
3E7
100
AcDbEntity
  8
0
100
AcDbLine
 62
7
  6
CONTINUOUS
 10
163.7004000408
 20
233.7709415111
 11
163.4730146728
 21
234.0561202502
  0
LINE
  5
3E8
100
AcDbEntity
  8
0
100
AcDbLine
 62
7
  6
CONTINUOUS
 10
163.4730146728
 20
234.0561202502
 11
162.9448777236
 21
234.7260060989
  0
LWPOLYLINE
  5
3E9
100
AcDbEntity
  8
0
100
AcDbPolyline
 62
7
  6
CONTINUOUS
 90
14
 70
0
 10
172.1635839763
 20
225.5430811052
 10
172.1734706551
 20
225.6977873566
 10
172.1801952414
 20
225.9406807642
 10
172.1795712923
 20
226.1764679677
 10
172.1732188631
 20
226.4058164359
 10
172.162455751
 20
226.6284798814
 10
172.1484214717
 20
226.8452019947
 10
172.1319315292
 20
227.0570445837
 10
172.113841465
 20
227.262698043
 10
172.0948924657
 20
227.4606426129
 10
172.0753441587
 20
227.6524421431
 10
172.0554571484
 20
227.8387785241
 10
172.0352886895
 20
228.0208620854
 10
171.994163349
 20
228.3766939914
  0
LINE
  5
3EA
100
AcDbEntity
  8
FASEN
100
AcDbLine
 62
9
  6
CONTINUOUS
 10
154.2204235882
 20
213.0530084628
 11
155.0616271453
 21
213.4847413034
  0
LINE
  5
3EB
100
AcDbEntity
  8
BEZUGSACHSEN
100
AcDbLine
 62
9
  6
CONTINUOUS
 10
172.7378364341
 20
229.3160199679
 11
171.8638724057
 21
229.4164033242
  0
LINE
  5
3EC
100
AcDbEntity
  8
BEZUGSACHSEN
100
AcDbLine
 62
9
  6
CONTINUOUS
 10
157.8554104405
 20
231.0254128282
 11
156.9814464121
 21
231.1257961844
  0
LINE
  5
3ED
100
AcDbEntity
  8
BEZUGSACHSEN
100
AcDbLine
 62
9
  6
CONTINUOUS
 10
163.9328311489
 20
234.6694973742
 11
163.6942196803
 21
234.9226048154
  0
LWPOLYLINE
  5
3EE
100
AcDbEntity
  8
BEZUGSACHSEN
100
AcDbPolyline
 62
9
  6
CONTINUOUS
 90
42
 70
0
 10
163.177977828
 20
235.4787200594
 10
163.0127680511
 20
235.6549981041
 10
162.8520968374
 20
235.8244876572
 10
162.695724951
 20
235.9875658979
 10
162.5434865332
 20
236.1444935247
 10
162.3952429432
 20
236.2954874668
 10
162.2508436642
 20
236.4407805448
 10
162.1101744049
 20
236.5805868387
 10
161.9730906933
 20
236.7151489217
 10
161.8395185543
 20
236.8446154655
 10
161.7093082347
 20
236.9691629418
 10
161.5822864236
 20
237.0889401367
 10
161.4582994908
 20
237.2040979399
 10
161.3372236321
 20
237.3148053373
 10
161.218970193
 20
237.4212425916
 10
161.1034849466
 20
237.5235379061
 10
160.990639934
 20
237.6218279191
 10
160.8802257933
 20
237.7162425443
 10
160.7720392906
 20
237.8068896293
 10
160.665830318
 20
237.8939475053
 10
160.5613936315
 20
237.9776249968
 10
160.4587608523
 20
238.0579626462
 10
160.3577776983
 20
238.1350665111
 10
160.2584615136
 20
238.2088955433
 10
160.1607688154
 20
238.2794192545
 10
160.0646174769
 20
238.3466522917
 10
159.9699705318
 20
238.4105853269
 10
159.8767889042
 20
238.4712293763
 10
159.7851598763
 20
238.5284939897
 10
159.6946890892
 20
238.5826033143
 10
159.6053001399
 20
238.6335637598
 10
159.5160699989
 20
238.681812875
 10
159.4263279137
 20
238.7275283096
 10
159.3347974049
 20
238.7711145464
 10
159.2399609032
 20
238.8129129632
 10
159.1414856093
 20
238.8525369744
 10
159.0384238461
 20
238.8897791505
 10
158.9319063875
 20
238.9236374738
 10
158.8229471787
 20
238.9532881845
 10
158.7130428018
 20
238.9781185796
 10
158.6039578935
 20
238.997857551
 10
158.4965806879
 20
239.0125571874
  0
LINE
  5
3EF
100
AcDbEntity
  8
BEZUGSACHSEN
100
AcDbLine
 62
9
  6
CONTINUOUS
 10
163.6942196803
 20
234.9226048154
 11
163.177977828
 21
235.4787200594
  0
LWPOLYLINE
  5
3F0
100
AcDbEntity
  8
0
100
AcDbPolyline
 62
7
  6
CONTINUOUS
 90
30
 70
0
 10
171.4464309864
 20
232.1476718822
 10
171.4163004454
 20
232.3124791475
 10
171.3865760975
 20
232.4710108133
 10
171.3570411421
 20
232.6245565612
 10
171.3275710871
 20
232.7739325957
 10
171.297875153
 20
232.9204678016
 10
171.2676841395
 20
233.0653770225
 10
171.2366795084
 20
233.2098535591
 10
171.2044623565
 20
233.3554132672
 10
171.1708496603
 20
233.5023218265
 10
171.1355042982
 20
233.6515554956
 10
171.0983639853
 20
233.8024835063
 10
171.0591568032
 20
233.9553471341
 10
171.0180897778
 20
234.1084475829
 10
170.9750266279
 20
234.2612213452
 10
170.9307793222
 20
234.4104196167
 10
170.8862075156
 20
234.5525989367
 10
170.8414256531
 20
234.6877514741
 10
170.7970343597
 20
234.8142200312
 10
170.7526394809
 20
234.9335526513
 10
170.7081677048
 20
235.0463324478
 10
170.6631756421
 20
235.1538147132
 10
170.617331546
 20
235.2570572173
 10
170.5700430036
 20
235.3571978486
 10
170.5203969141
 20
235.4560144522
 10
170.4687577882
 20
235.5525290206
 10
170.415007058
 20
235.6466629525
 10
170.3597568317
 20
235.7375059539
 10
170.3037563595
 20
235.8240934206
 10
170.2467648521
 20
235.9066734709
  0
LINE
  5
3F1
100
AcDbEntity
  8
0
100
AcDbLine
 62
7
  6
CONTINUOUS
 10
171.5077416369
 20
231.7992826988
 11
171.4464309864
 21
232.1476718822
  0
LINE
  5
3F2
100
AcDbEntity
  8
0
100
AcDbLine
 62
7
  6
CONTINUOUS
 10
171.5703185637
 20
231.4255481356
 11
171.5077416369
 21
231.7992826988
  0
LINE
  5
3F3
100
AcDbEntity
  8
0
100
AcDbLine
 62
7
  6
CONTINUOUS
 10
171.6338905844
 20
231.0268847783
 11
171.5703185637
 21
231.4255481356
  0
LINE
  5
3F4
100
AcDbEntity
  8
0
100
AcDbLine
 62
7
  6
CONTINUOUS
 10
171.6983941214
 20
230.6022891142
 11
171.6338905844
 21
231.0268847783
  0
LINE
  5
3F5
100
AcDbEntity
  8
0
100
AcDbLine
 62
7
  6
CONTINUOUS
 10
171.7638847131
 20
230.1498982717
 11
171.6983941214
 21
230.6022891142
  0
LINE
  5
3F6
100
AcDbEntity
  8
0
100
AcDbLine
 62
7
  6
CONTINUOUS
 10
171.830337535
 20
229.6682893844
 11
171.7638847131
 21
230.1498982717
  0
LINE
  5
3F7
100
AcDbEntity
  8
0
100
AcDbLine
 62
7
  6
CONTINUOUS
 10
171.8864128772
 20
229.2438297745
 11
171.830337535
 21
229.6682893844
  0
LINE
  5
3F8
100
AcDbEntity
  8
0
100
AcDbLine
 62
7
  6
CONTINUOUS
 10
171.9527062759
 20
228.7196788704
 11
171.8864128772
 21
229.2438297745
  0
LINE
  5
3F9
100
AcDbEntity
  8
0
100
AcDbLine
 62
7
  6
CONTINUOUS
 10
171.994163349
 20
228.3766939914
 11
171.9527062759
 21
228.7196788704
  0
LWPOLYLINE
  5
3FA
100
AcDbEntity
  8
BEZUGSACHSEN
100
AcDbPolyline
 62
9
  6
CONTINUOUS
 90
15
 70
0
 10
173.2929502944
 20
226.122722017
 10
173.2903346949
 20
226.2310667007
 10
173.2839526174
 20
226.3700676264
 10
173.2742191573
 20
226.5131227515
 10
173.2610405623
 20
226.6596957295
 10
173.2443458171
 20
226.8104601687
 10
173.2243859393
 20
226.9637821945
 10
173.201474062
 20
227.1189368462
 10
173.1759438954
 20
227.2755935663
 10
173.148188889
 20
227.4328668781
 10
173.1182334189
 20
227.5919340637
 10
173.0862526389
 20
227.7535955803
 10
173.0523381231
 20
227.9187601191
 10
173.0163262592
 20
228.0886273027
 10
172.9394283109
 20
228.4383645015
  0
LWPOLYLINE
  5
3FB
100
AcDbEntity
  8
BEZUGSACHSEN
100
AcDbPolyline
 62
7
  6
CONTINUOUS
 90
26
 70
0
 10
175.0459585095
 20
228.1287057316
 10
175.0483846069
 20
228.1373500289
 10
175.0477551619
 20
228.1356334749
 10
175.035989657
 20
228.1024673504
 10
175.0063511304
 20
228.0282544709
 10
174.9581838518
 20
227.9217580921
 10
174.8909006892
 20
227.7902038438
 10
174.7987947088
 20
227.6309334995
 10
174.6759368645
 20
227.4432487899
 10
174.5196320135
 20
227.2326728528
 10
174.3259345668
 20
227.0030647292
 10
174.0961583543
 20
226.7640916498
 10
173.832614537
 20
226.5243296934
 10
173.537782405
 20
226.2906796958
 10
173.2156638243
 20
226.0697025986
 10
172.8719248908
 20
225.8673721211
 10
172.5138968502
 20
225.6887229428
 10
172.1467258975
 20
225.5360723946
 10
171.7763662394
 20
225.4110456233
 10
171.4097023578
 20
225.3144127463
 10
171.0534938992
 20
225.2456783226
 10
170.7138505553
 20
225.2031362925
 10
170.3958949045
 20
225.184090112
 10
170.1069235702
 20
225.185030814
 10
169.8545292588
 20
225.2011527885
 10
169.7726643591
 20
225.2096969404
  0
LINE
  5
3FC
100
AcDbEntity
  8
FASEN
100
AcDbLine
 62
7
  6
CONTINUOUS
 10
163.3397297279
 20
216.0947048702
 11
162.8993109104
 21
215.8841673767
  0
LWPOLYLINE
  5
3FD
100
AcDbEntity
  8
BEZUGSACHSEN
100
AcDbPolyline
 62
9
  6
CONTINUOUS
 90
28
 70
0
 10
167.1394785257
 20
232.7577477186
 10
167.009342648
 20
232.7747824199
 10
166.878585366
 20
232.796091183
 10
166.7480646482
 20
232.8215781701
 10
166.6178672693
 20
232.8512218219
 10
166.4879249761
 20
232.8850886446
 10
166.3597229835
 20
232.9228134227
 10
166.2346805114
 20
232.963914384
 10
166.1126486587
 20
233.0082802578
 10
165.9943493474
 20
233.055453525
 10
165.8782378766
 20
233.1059633864
 10
165.7634645997
 20
233.1602888685
 10
165.6494588739
 20
233.2188655202
 10
165.5355466934
 20
233.2821871698
 10
165.4214695237
 20
233.3506485031
 10
165.3067142018
 20
233.4249134112
 10
165.1918195996
 20
233.5048601539
 10
165.0762664391
 20
233.5908685313
 10
164.9612479517
 20
233.6819222997
 10
164.8471247967
 20
233.7773278646
 10
164.7339015912
 20
233.876539405
 10
164.6220098303
 20
233.9786965063
 10
164.5104174034
 20
234.0842849913
 10
164.3982899631
 20
234.1934444458
 10
164.2847699692
 20
234.3064624014
 10
164.1689632556
 20
234.4240607332
 10
164.0516685266
 20
234.5451912626
 10
163.9328311489
 20
234.6694973742
  0
LWPOLYLINE
  5
3FE
100
AcDbEntity
  8
BEZUGSACHSEN
100
AcDbPolyline
 62
9
  6
CONTINUOUS
 90
10
 70
0
 10
174.815331667
 20
227.6595293303
 10
174.7885933259
 20
227.7644102168
 10
174.6610079616
 20
228.0653378193
 10
174.4891182803
 20
228.3439378403
 10
174.2758653622
 20
228.5954433561
 10
174.0248980237
 20
228.8155510376
 10
173.7405103857
 20
229.0004947813
 10
173.4275683994
 20
229.1471101486
 10
173.091426589
 20
229.2528885098
 10
172.7378364341
 20
229.3160199679
  0
LINE
  5
3FF
100
AcDbEntity
  8
BEZUGSACHSEN
100
AcDbLine
 62
9
  6
CONTINUOUS
 10
172.8585961734
 20
228.7948159329
 11
172.6218739411
 21
229.8185753845
  0
LINE
  5
400
100
AcDbEntity
  8
BEZUGSACHSEN
100
AcDbLine
 62
9
  6
CONTINUOUS
 10
172.9394283109
 20
228.4383645015
 11
172.8585961734
 21
228.7948159329
  0
LINE
  5
401
100
AcDbEntity
  8
BEZUGSACHSEN
100
AcDbLine
 62
9
  6
CONTINUOUS
 10
172.6218739411
 20
229.8185753845
 11
172.5167567378
 21
230.2900043051
  0
LINE
  5
402
100
AcDbEntity
  8
BEZUGSACHSEN
100
AcDbLine
 62
9
  6
CONTINUOUS
 10
172.5167567378
 20
230.2900043051
 11
172.4215995456
 21
230.7324489807
  0
LINE
  5
403
100
AcDbEntity
  8
BEZUGSACHSEN
100
AcDbLine
 62
9
  6
CONTINUOUS
 10
172.4215995456
 20
230.7324489807
 11
172.3356400783
 21
231.1479900854
  0
LWPOLYLINE
  5
404
100
AcDbEntity
  8
BEZUGSACHSEN
100
AcDbPolyline
 62
9
  6
CONTINUOUS
 90
34
 70
0
 10
172.3356400783
 20
231.1479900854
 10
172.2581149083
 20
231.5385382362
 10
172.2223379381
 20
231.7249471683
 10
172.1884936333
 20
231.9057622417
 10
172.1565373159
 20
232.0812058902
 10
172.1264038811
 20
232.2514855936
 10
172.09801032
 20
232.4167854587
 10
172.071294874
 20
232.5772287593
 10
172.0462136527
 20
232.7330072576
 10
172.0227523393
 20
232.8843787151
 10
172.0009082184
 20
233.0315823304
 10
171.9806499248
 20
233.1749397653
 10
171.9619133224
 20
233.3147524294
 10
171.944663689
 20
233.4510170727
 10
171.9288841801
 20
233.5839295239
 10
171.9145945671
 20
233.713450312
 10
171.9018271674
 20
233.8395985083
 10
171.8905986212
 20
233.9624533722
 10
171.880926177
 20
234.0820410014
 10
171.8728152581
 20
234.1984014399
 10
171.8662940835
 20
234.3114052591
 10
171.8613482015
 20
234.4215258636
 10
171.8579974774
 20
234.5288328539
 10
171.8562617049
 20
234.6343820179
 10
171.8562413823
 20
234.7388567815
 10
171.8580870894
 20
234.8435969449
 10
171.8620635738
 20
234.9501123303
 10
171.86851224
 20
235.0584574734
 10
171.8778566555
 20
235.1693231553
 10
171.8903586293
 20
235.281137576
 10
171.906206602
 20
235.3925337515
 10
171.925310037
 20
235.5018655008
 10
171.9472856226
 20
235.607459415
 10
171.9718240424
 20
235.7085797544
  0
LWPOLYLINE
  5
405
100
AcDbEntity
  8
0
100
AcDbPolyline
 62
7
  6
CONTINUOUS
 90
30
 70
0
 10
170.1621981319
 20
236.0230711716
 10
170.1024048923
 20
236.1012048865
 10
170.0423645258
 20
236.1742545023
 10
169.9818302387
 20
236.2426579408
 10
169.9217535524
 20
236.3049984633
 10
169.8630664036
 20
236.3600283631
 10
169.8058261749
 20
236.4078599933
 10
169.7506215182
 20
236.4480621479
 10
169.6968258898
 20
236.4810748608
 10
169.6439756773
 20
236.5072511346
 10
169.5919988974
 20
236.5262618982
 10
169.5406157628
 20
236.5380030519
 10
169.489906211
 20
236.5420402848
 10
169.4396419234
 20
236.5378922696
 10
169.3904538285
 20
236.5255380662
 10
169.3426946251
 20
236.5044766715
 10
169.2970606908
 20
236.4758188752
 10
169.2545113468
 20
236.4402789913
 10
169.214693616
 20
236.3988539933
 10
169.1776817392
 20
236.3526637074
 10
169.1430828521
 20
236.3020925196
 10
169.1105722498
 20
236.2479242884
 10
169.0799346293
 20
236.1899963471
 10
169.0509252675
 20
236.1285011962
 10
169.0232582108
 20
236.0630594185
 10
168.9966264403
 20
235.9934550735
 10
168.9708188841
 20
235.9192712154
 10
168.9455147677
 20
235.8401701433
 10
168.9207261086
 20
235.7555886511
 10
168.899524129
 20
235.6772137603
  0
LWPOLYLINE
  5
406
100
AcDbEntity
  8
0
100
AcDbPolyline
 62
7
  6
CONTINUOUS
 90
5
 70
0
 10
170.1621981322
 20
236.0230711711
 10
170.1836008676
 20
235.9940953004
 10
170.204829566
 20
235.9650370601
 10
170.2258842275
 20
235.9358964504
 10
170.246764852
 20
235.9066734711
  0
LWPOLYLINE
  5
407
100
AcDbEntity
  8
BEZUGSACHSEN
100
AcDbPolyline
 62
9
  6
CONTINUOUS
 90
32
 70
0
 10
170.5796920395
 20
237.6246931199
 10
170.4892801304
 20
237.6333357782
 10
170.4011248111
 20
237.6381678488
 10
170.3158739315
 20
237.6390267648
 10
170.2345784347
 20
237.6357935762
 10
170.158147219
 20
237.6285415646
 10
170.0867178396
 20
237.6175489806
 10
170.0204966914
 20
237.6032594317
 10
169.9586865855
 20
237.5858824352
 10
169.9007534798
 20
237.5655888887
 10
169.8460949707
 20
237.5424924427
 10
169.7941794223
 20
237.5165902714
 10
169.744683059
 20
237.4878954563
 10
169.6972552245
 20
237.4563681561
 10
169.6515602737
 20
237.4219332626
 10
169.6073199602
 20
237.3843966573
 10
169.5645193099
 20
237.3437550691
 10
169.5230630598
 20
237.2999137064
 10
169.4829461138
 20
237.2528850288
 10
169.4441508636
 20
237.202630574
 10
169.4066555126
 20
237.14915304
 10
169.370402119
 20
237.0924363237
 10
169.3353480108
 20
237.0325123405
 10
169.3015013213
 20
236.969426459
 10
169.2687975887
 20
236.9030474561
 10
169.2373078053
 20
236.8332716117
 10
169.2070339341
 20
236.759931867
 10
169.1778970178
 20
236.6828972917
 10
169.1497886534
 20
236.602070602
 10
169.1226142347
 20
236.5173412831
 10
169.096372007
 20
236.4285730027
 10
169.0720438412
 20
236.3391239216
  0
LINE
  5
408
100
AcDbEntity
  8
BEZUGSACHSEN
100
AcDbLine
 62
9
  6
CONTINUOUS
 10
170.246764852
 20
235.9066734711
 11
171.9715917819
 21
235.7086064256
  0
LINE
  5
409
100
AcDbEntity
  8
BEZUGSACHSEN
100
AcDbLine
 62
9
  6
CONTINUOUS
 10
156.2156662777
 20
237.5183292877
 11
157.940469565
 21
237.3201724063
  0
LINE
  5
40A
100
AcDbEntity
  8
0
100
AcDbLine
 62
2
  6
CONTINUOUS
 10
182.6569681204
 20
215.2351462956
 11
186.4140128196
 21
223.3437929985
  0
LINE
  5
40B
100
AcDbEntity
  8
0
100
AcDbLine
 62
2
  6
CONTINUOUS
 10
177.561323773
 20
208.4472615649
 11
182.6569681204
 21
215.2351462956
  0
LWPOLYLINE
  5
40C
100
AcDbEntity
  8
RUNDUNGEN
100
AcDbPolyline
 62
7
  6
CONTINUOUS
 90
41
 70
0
 10
181.3927436325
 20
238.0990858306
 10
180.7581926543
 20
239.3137111432
 10
180.0165685954
 20
240.4729352999
 10
179.1719733168
 20
241.5687439751
 10
178.2287108926
 20
242.5941956221
 10
177.1915402181
 20
243.5427481796
 10
176.0666000453
 20
244.4075599416
 10
174.8596639975
 20
245.1830453224
 10
173.580021779
 20
245.8624664771
 10
172.2391009917
 20
246.439959801
 10
170.8405236145
 20
246.9140187765
 10
169.3866866111
 20
247.2824945749
 10
167.8921612601
 20
247.5404203677
 10
166.3708649586
 20
247.6854275895
 10
164.8304742615
 20
247.7171365516
 10
163.2802076057
 20
247.6354466891
 10
161.7297375852
 20
247.4409061864
 10
160.188123614
 20
247.1346113089
 10
158.6663859096
 20
246.7187814232
 10
157.1754014168
 20
246.1967196484
 10
155.7235463563
 20
245.5717449961
 10
154.3195470698
 20
244.8478597802
 10
152.9717796587
 20
244.0295443625
 10
151.687831993
 20
243.1213951742
 10
150.4769358707
 20
242.129988956
 10
149.3476304867
 20
241.0627857895
 10
148.3057541576
 20
239.9258571623
 10
147.3572310609
 20
238.7259910065
 10
146.5076042581
 20
237.4704082374
 10
145.7612236292
 20
236.165367475
 10
145.1244793794
 20
234.8223722575
 10
144.602423925
 20
233.4550424453
 10
144.1948797107
 20
232.0663418122
 10
143.9029510236
 20
230.6596745115
 10
143.7294197774
 20
229.2470217041
 10
143.6751765999
 20
227.83936944
 10
143.7398749334
 20
226.4441765526
 10
143.9225857577
 20
225.0700355949
 10
144.2218323977
 20
223.7245075284
 10
144.6356811813
 20
222.4149870332
 10
145.1611358117
 20
221.1500270154
  0
LINE
  5
40D
100
AcDbEntity
  8
0
100
AcDbLine
 62
7
  6
CONTINUOUS
 10
187.1676895271
 20
225.7541186487
 11
181.3927436325
 21
238.0990858306
  0
LWPOLYLINE
  5
40E
100
AcDbEntity
  8
FASEN
100
AcDbPolyline
 62
9
  6
CONTINUOUS
 90
27
 70
0
 10
181.3927436325
 20
238.0990858306
 10
181.6753998464
 20
237.4555952201
 10
182.1212702138
 20
236.2188985127
 10
182.4576764655
 20
234.9438979027
 10
182.6826650673
 20
233.6379983522
 10
182.7949291683
 20
232.3087852221
 10
182.7938166086
 20
230.9639799284
 10
182.6793338882
 20
229.6113943878
 10
182.4521460432
 20
228.2588853799
 10
182.1135727566
 20
226.9143092888
 10
181.6655807407
 20
225.5854765397
 10
181.1107722878
 20
224.2801060653
 10
180.4523701883
 20
223.0057805626
 10
179.6941989925
 20
221.7699023835
 10
178.8406627852
 20
220.5796505291
 10
177.8967196153
 20
219.4419389709
 10
176.8678526822
 20
218.363376473
 10
175.7600384933
 20
217.3502282152
 10
174.5797121491
 20
216.4083794003
 10
173.3337299593
 20
215.5433010639
 10
172.0293296203
 20
214.7600182973
 10
170.6740881708
 20
214.0630810559
 10
169.2758779685
 20
213.4565377243
 10
167.8428130766
 20
212.9439090732
 10
166.3832415541
 20
212.5281804595
 10
164.9056667029
 20
212.2117678996
 10
163.4186639438
 20
211.9965001759
  0
LINE
  5
40F
100
AcDbEntity
  8
0
100
AcDbLine
 62
2
  6
CONTINUOUS
 10
186.4140128196
 20
223.3437929985
 11
187.1676895271
 21
225.7541186487
  0
LINE
  5
410
100
AcDbEntity
  8
0
100
AcDbLine
 62
2
  6
CONTINUOUS
 10
170.925601244
 20
204.0201556995
 11
177.561323773
 21
208.4472615649
  0
LWPOLYLINE
  5
411
100
AcDbEntity
  8
FASEN
100
AcDbPolyline
 62
9
  6
CONTINUOUS
 90
33
 70
0
 10
161.2915197243
 20
245.8130986202
 10
159.9815775907
 20
245.533618912
 10
158.6882996252
 20
245.1627847098
 10
157.420052598
 20
244.7020842262
 10
156.1845753121
 20
244.1552586147
 10
154.9900201135
 20
243.5249626519
 10
153.8435131432
 20
242.815943681
 10
152.7527867776
 20
242.0319560651
 10
151.7241746567
 20
241.1786335209
 10
150.7647940778
 20
240.2607352331
 10
149.8800264462
 20
239.2846391619
 10
149.0761944666
 20
238.2559892507
 10
148.3575915372
 20
237.1817467349
 10
147.729586228
 20
236.068297805
 10
147.1952757286
 20
234.9230115393
 10
146.758939195
 20
233.752855668
 10
146.4223992991
 20
232.5654204249
 10
146.1887376092
 20
231.3680777087
 10
146.0584565928
 20
230.1684502549
 10
146.0333624415
 20
228.9741337449
 10
146.1126255514
 20
227.7925812394
 10
146.2967349258
 20
226.6314014178
 10
146.5835409346
 20
225.4977231057
 10
146.97217775
 20
224.3990400603
 10
147.459282968
 20
223.3418661667
 10
148.0427842928
 20
222.3331870527
 10
148.7179455711
 20
221.3790812469
 10
149.4810512205
 20
220.4864235356
 10
150.3269672318
 20
219.6598107737
 10
151.2525209378
 20
218.9042598298
 10
152.2481127296
 20
218.2253854483
 10
153.3017532969
 20
217.6313855425
 10
154.4174390765
 20
217.1195274745
  0
LWPOLYLINE
  5
412
100
AcDbEntity
  8
0
100
AcDbPolyline
 62
7
  6
CONTINUOUS
 90
43
 70
0
 10
66.6177934549
 20
134.7117396338
 10
66.6975488949
 20
134.7143887782
 10
66.7749890797
 20
134.7239450135
 10
66.8504625406
 20
134.7401949088
 10
66.922837016
 20
134.7637787569
 10
66.9911333832
 20
134.7952724559
 10
67.05547156
 20
134.8346557595
 10
67.1153843536
 20
134.8817928207
 10
67.1717218098
 20
134.93760634
 10
67.2250742937
 20
135.0026361149
 10
67.2755568375
 20
135.0778950071
 10
67.3234651291
 20
135.1643094126
 10
67.3687134109
 20
135.2626785261
 10
67.4114689159
 20
135.3745151727
 10
67.4512025964
 20
135.498604858
 10
67.4876260323
 20
135.635409619
 10
67.5203622195
 20
135.7814126877
 10
67.5488789316
 20
135.9336164231
 10
67.5737043439
 20
136.0909254809
 10
67.595048312
 20
136.2511825645
 10
67.61336763
 20
136.4145758896
 10
67.6290835731
 20
136.5802888028
 10
67.6424078855
 20
136.7491786145
 10
67.6535927129
 20
136.9213962865
 10
67.6628252664
 20
137.0982442109
 10
67.6703011711
 20
137.2806851387
 10
67.6761150058
 20
137.4698889548
 10
67.6804157827
 20
137.6669816608
 10
67.6831161388
 20
137.8730576579
 10
67.6841877845
 20
138.0895208941
 10
67.6835260902
 20
138.3165687302
 10
67.6810176679
 20
138.5548856028
 10
67.6766418664
 20
138.8044142326
 10
67.6703611591
 20
139.0652561196
 10
67.6621013402
 20
139.3376193616
 10
67.6518093352
 20
139.6215745784
 10
67.6393773263
 20
139.9176357042
 10
67.6247034332
 20
140.2261938831
 10
67.6077043293
 20
140.5476881047
 10
67.5882917276
 20
140.8825345441
 10
67.566357603
 20
141.231192789
 10
67.5417713088
 20
141.5943359413
 10
67.3474856241
 20
144.1968675918
  0
LWPOLYLINE
  5
413
100
AcDbEntity
  8
0
100
AcDbPolyline
 62
7
  6
CONTINUOUS
 90
42
 70
0
 10
53.7702004569
 20
134.7117396338
 10
53.853106237
 20
134.7143909824
 10
53.9372785829
 20
134.7239560349
 10
54.0230134641
 20
134.7402210611
 10
54.1091795369
 20
134.7638272512
 10
54.1946882536
 20
134.7953507015
 10
54.2795045523
 20
134.8347729632
 10
54.3628652063
 20
134.8819594966
 10
54.445845241
 20
134.9378346719
 10
54.5291987653
 20
135.0029404816
 10
54.6132586962
 20
135.0782895192
 10
54.6986013084
 20
135.1648091905
 10
54.7853023592
 20
135.2632970514
 10
54.873986246
 20
135.3752680425
 10
54.9635822628
 20
135.4994974159
 10
55.0537509543
 20
135.6364371946
 10
55.1428714076
 20
135.7825720068
 10
55.2291246988
 20
135.9349020009
 10
55.3127626173
 20
136.0923326395
 10
55.3932707402
 20
136.2527132164
 10
55.4712112278
 20
136.4162123864
 10
55.5468371092
 20
136.5819894272
 10
55.6206259517
 20
136.7509217638
 10
55.6929308282
 20
136.9231594148
 10
55.7644028239
 20
137.1000438776
 10
55.8356374372
 20
137.2825643871
 10
55.9071529888
 20
137.4719277501
 10
55.9795883906
 20
137.6693035537
 10
56.0531584649
 20
137.8757926921
 10
56.1283280277
 20
138.0928737862
 10
56.2049537775
 20
138.3205832419
 10
56.2830642135
 20
138.5595333694
 10
56.3625881633
 20
138.8094750762
 10
56.4434697939
 20
139.0703035777
 10
56.5256816588
 20
139.3421982609
 10
56.609132335
 20
139.6250127995
 10
56.6939433658
 20
139.919619549
 10
56.78015111
 20
140.2265730903
 10
56.8678853147
 20
140.5466804214
 10
56.9572840027
 20
140.880797054
 10
57.0483124942
 20
141.2293320281
 10
57.1410123361
 20
141.5930663311
  0
LINE
  5
414
100
AcDbEntity
  8
BEZUGSACHSEN
100
AcDbLine
 62
7
  6
CONTINUOUS
 10
68.4350067542
 20
134.7117396338
 11
66.6178437524
 21
134.7117396338
  0
LINE
  5
415
100
AcDbEntity
  8
0
100
AcDbLine
 62
7
  6
CONTINUOUS
 10
66.6178437524
 20
134.7117396338
 11
66.5002514491
 21
134.7117396338
  0
LINE
  5
416
100
AcDbEntity
  8
BEZUGSACHSEN
100
AcDbLine
 62
7
  6
CONTINUOUS
 10
66.5002514491
 20
134.7117396338
 11
53.7702004566
 21
134.7117396338
  0
LINE
  5
417
100
AcDbEntity
  8
0
100
AcDbLine
 62
7
  6
CONTINUOUS
 10
53.7702004564
 20
134.7117396338
 11
53.6526593747
 21
134.7117396338
  0
LINE
  5
418
100
AcDbEntity
  8
BEZUGSACHSEN
100
AcDbLine
 62
7
  6
CONTINUOUS
 10
53.6526593747
 20
134.7117396338
 11
51.8354961426
 21
134.7117396338
  0
LINE
  5
419
100
AcDbEntity
  8
0
100
AcDbLine
 62
7
  6
CONTINUOUS
 10
43.1352514484
 20
134.7117396338
 11
51.8354961426
 21
134.7117396338
  0
LINE
  5
41A
100
AcDbEntity
  8
0
100
AcDbLine
 62
7
  6
CONTINUOUS
 10
68.4350067542
 20
134.7117396338
 11
77.1352514484
 21
134.7117396338
  0
LWPOLYLINE
  5
41B
100
AcDbEntity
  8
0
100
AcDbPolyline
 62
7
  6
CONTINUOUS
 90
44
 70
0
 10
74.8002769445
 20
134.7117396335
 10
74.7044145411
 20
134.7156163866
 10
74.6098203758
 20
134.7276816948
 10
74.5160325272
 20
134.7480429586
 10
74.4244367597
 20
134.7763779768
 10
74.3362886838
 20
134.8127084724
 10
74.2515168396
 20
134.8561100734
 10
74.1707734882
 20
134.9056901234
 10
74.0931430772
 20
134.9613751988
 10
74.0180951284
 20
135.0227533777
 10
73.9451266804
 20
135.0899474981
 10
73.8736661348
 20
135.1628757309
 10
73.8033889244
 20
135.2417401561
 10
73.7338949573
 20
135.326578577
 10
73.6648392098
 20
135.4178019936
 10
73.595729741
 20
135.5158260516
 10
73.5266072102
 20
135.6206746169
 10
73.4573518442
 20
135.7325055655
 10
73.387952999
 20
135.8513325136
 10
73.3183751289
 20
135.9772234646
 10
73.2485731658
 20
136.1101731334
 10
73.1784963069
 20
136.2502135483
 10
73.1081262106
 20
136.397300773
 10
73.0374551973
 20
136.5512657989
 10
72.966400479
 20
136.7125158721
 10
72.8949189818
 20
136.8812858989
 10
72.8228838849
 20
137.0579238909
 10
72.750212593
 20
137.2427733678
 10
72.6767293558
 20
137.4360827123
 10
72.6022295112
 20
137.6380991223
 10
72.5267171993
 20
137.8491696715
 10
72.4501340738
 20
138.0695862416
 10
72.3724629318
 20
138.299761607
 10
72.2937086324
 20
138.5400946126
 10
72.2137466434
 20
138.7909189282
 10
72.1324662738
 20
139.0525573639
 10
72.0498308598
 20
139.3254413444
 10
71.9657712605
 20
139.6099196483
 10
71.8802742158
 20
139.9065630246
 10
71.7933202206
 20
140.2158767007
 10
71.7048588684
 20
140.5384060203
 10
71.6148371546
 20
140.8746641972
 10
71.5232433691
 20
141.2252528478
 10
71.4300444614
 20
141.591041246
  0
LINE
  5
41C
100
AcDbEntity
  8
0
100
AcDbLine
 62
9
  6
CONTINUOUS
 10
71.3352514484
 20
141.9717396338
 11
68.4352514484
 21
141.9717396338
  0
LINE
  5
41D
100
AcDbEntity
  8
BEZUGSACHSEN
100
AcDbLine
 62
9
  6
CONTINUOUS
 10
63.0352514484
 20
141.9717396338
 11
57.2352514484
 21
141.9717396338
  0
LINE
  5
41E
100
AcDbEntity
  8
0
100
AcDbLine
 62
9
  6
CONTINUOUS
 10
48.9352514484
 20
141.9717396338
 11
51.8352514484
 21
141.9717396338
  0
LINE
  5
41F
100
AcDbEntity
  8
BEZUGSACHSEN
100
AcDbLine
 62
9
  6
CONTINUOUS
 10
51.8352514484
 20
141.9717396338
 11
52.756008224
 21
141.9717396338
  0
LINE
  5
420
100
AcDbEntity
  8
BEZUGSACHSEN
100
AcDbLine
 62
9
  6
CONTINUOUS
 10
67.5144946728
 20
141.9717396338
 11
68.4352514484
 21
141.9717396338
  0
LWPOLYLINE
  5
421
100
AcDbEntity
  8
0
100
AcDbPolyline
 62
7
  6
CONTINUOUS
 90
29
 70
0
 10
51.8249028442
 20
146.8027247732
 10
51.6917859335
 20
146.7975713595
 10
51.5596363267
 20
146.7827555054
 10
51.4279740885
 20
146.7582668734
 10
51.2982390249
 20
146.7241364763
 10
51.1713643021
 20
146.6801605962
 10
51.0483899043
 20
146.6270330881
 10
50.9307771364
 20
146.5652406653
 10
50.8181952026
 20
146.4952010353
 10
50.7112099843
 20
146.4178768416
 10
50.608592755
 20
146.3321199901
 10
50.5093964846
 20
146.2374416631
 10
50.4133419657
 20
146.1328266753
 10
50.3198203227
 20
146.0174184481
 10
50.2288735305
 20
145.8902523447
 10
50.1402629458
 20
145.7500013889
 10
50.0542215465
 20
145.5968960216
 10
49.9708093395
 20
145.4300200271
 10
49.890306594
 20
145.2514863995
 10
49.8131452102
 20
145.0627013416
 10
49.7389303024
 20
144.864869011
 10
49.6677503802
 20
144.6599467481
 10
49.5985871575
 20
144.4470812068
 10
49.5306281822
 20
144.2262717087
 10
49.4633444614
 20
143.9969175904
 10
49.3958388218
 20
143.7577166187
 10
49.3284033526
 20
143.5107728247
 10
49.2608870832
 20
143.2568256375
 10
49.1271349017
 20
142.7384333142
  0
LINE
  5
422
100
AcDbEntity
  8
0
100
AcDbLine
 62
7
  6
CONTINUOUS
 10
68.4352514484
 20
146.8027522443
 11
67.2944055977
 21
146.8027522443
  0
LINE
  5
423
100
AcDbEntity
  8
0
100
AcDbLine
 62
7
  6
CONTINUOUS
 10
52.9760972991
 20
146.8027522443
 11
51.8352514484
 21
146.8027522443
  0
LINE
  5
424
100
AcDbEntity
  8
0
100
AcDbLine
 62
7
  6
CONTINUOUS
 10
40.1352514484
 20
211.7117396338
 11
40.1352514484
 21
137.7117396338
  0
LWPOLYLINE
  5
425
100
AcDbEntity
  8
0
100
AcDbPolyline
 62
7
  6
CONTINUOUS
 90
13
 70
0
 10
52.9760972991
 20
146.8027522443
 10
52.9826796444
 20
146.7357859056
 10
52.9893048442
 20
146.6520928658
 10
52.9968317975
 20
146.5396376293
 10
53.0034357702
 20
146.4025258011
 10
53.0082199952
 20
146.2425737162
 10
53.0103215064
 20
146.0622731034
 10
53.0092444713
 20
145.8637033852
 10
53.0045792335
 20
145.6486863102
 10
52.9965644224
 20
145.420486628
 10
52.9854950209
 20
145.1815074932
 10
52.9719506779
 20
144.9361554398
 10
52.9567690659
 20
144.6896534744
  0
LWPOLYLINE
  5
426
100
AcDbEntity
  8
0
100
AcDbPolyline
 62
7
  6
CONTINUOUS
 90
35
 70
0
 10
61.923524858
 20
209.0380011957
 10
61.8385303558
 20
208.7665220247
 10
61.7550897925
 20
208.5055092141
 10
61.672630525
 20
208.2547740664
 10
61.5908547999
 20
208.0140993325
 10
61.5091047748
 20
207.7836335664
 10
61.4270319076
 20
207.563288331
 10
61.3434143543
 20
207.3535573507
 10
61.2575996771
 20
207.154611856
 10
61.167530312
 20
206.9673308906
 10
61.0718000819
 20
206.7914816815
 10
60.9677862592
 20
206.6305709098
 10
60.8529026557
 20
206.4865836644
 10
60.7255189732
 20
206.36385195
 10
60.5806318173
 20
206.2665597599
 10
60.4255626468
 20
206.1971362176
 10
60.265026655
 20
206.1605909294
 10
60.1017506104
 20
206.153366439
 10
59.9383493788
 20
206.1729914147
 10
59.7799978057
 20
206.2212170891
 10
59.6322974359
 20
206.300982471
 10
59.4964730919
 20
206.4062529004
 10
59.3772581469
 20
206.5329861413
 10
59.269888791
 20
206.6781439295
 10
59.1720249829
 20
206.8376177005
 10
59.0813090319
 20
207.0105761203
 10
58.9949410543
 20
207.1947980914
 10
58.911976838
 20
207.3903443399
 10
58.8307182438
 20
207.5966667408
 10
58.7506372044
 20
207.8133707491
 10
58.6707534935
 20
208.0398435156
 10
58.5907305289
 20
208.2761918278
 10
58.5099883603
 20
208.5222797186
 10
58.4282744504
 20
208.7782226023
 10
58.3450964318
 20
209.044099332
  0
LINE
  5
427
100
AcDbEntity
  8
0
100
AcDbLine
 62
7
  6
CONTINUOUS
 10
56.0352514484
 20
166.0089994025
 11
64.2352514484
 21
166.0089994025
  0
LWPOLYLINE
  5
428
100
AcDbEntity
  8
0
100
AcDbPolyline
 62
7
  6
CONTINUOUS
 90
9
 70
0
 10
54.1672715996
 20
207.1754593234
 10
54.1708533642
 20
206.8133833699
 10
54.1712411772
 20
206.6520343513
 10
54.1704779301
 20
206.5068460877
 10
54.1685915668
 20
206.3820205139
 10
54.1656124717
 20
206.2815592343
 10
54.1627171511
 20
206.2079588892
 10
54.1604272675
 20
206.1655288005
 10
54.1593804673
 20
206.1528325278
  0
LINE
  5
429
100
AcDbEntity
  8
0
100
AcDbLine
 62
7
  6
CONTINUOUS
 10
54.1407212878
 20
209.3198842054
 11
54.1479891368
 21
208.5146257328
  0
LINE
  5
42A
100
AcDbEntity
  8
0
100
AcDbLine
 62
7
  6
CONTINUOUS
 10
54.1398171887
 20
209.5824742804
 11
54.1407212878
 21
209.3198842054
  0
LINE
  5
42B
100
AcDbEntity
  8
0
100
AcDbLine
 62
9
  6
CONTINUOUS
 10
51.8352514484
 20
146.8027522443
 11
51.8352514484
 21
141.9717396338
  0
LINE
  5
42C
100
AcDbEntity
  8
BEZUGSACHSEN
100
AcDbLine
 62
9
  6
CONTINUOUS
 10
51.8352514484
 20
141.9717396338
 11
51.8352514484
 21
134.7117396338
  0
LINE
  5
42D
100
AcDbEntity
  8
BEZUGSACHSEN
100
AcDbLine
 62
9
  6
CONTINUOUS
 10
53.1352514484
 20
214.7117396338
 11
53.1352514484
 21
209.3219439827
  0
LINE
  5
42E
100
AcDbEntity
  8
0
100
AcDbLine
 62
9
  6
CONTINUOUS
 10
53.1352514484
 20
209.3219439827
 11
53.1352514484
 21
206.1528325278
  0
LINE
  5
42F
100
AcDbEntity
  8
0
100
AcDbLine
 62
7
  6
CONTINUOUS
 10
62.0901849896
 20
209.5824742804
 11
61.923524858
 21
209.0380011957
  0
LINE
  5
430
100
AcDbEntity
  8
0
100
AcDbLine
 62
7
  6
CONTINUOUS
 10
62.1760593655
 20
209.860127929
 11
62.0901849896
 21
209.5824742804
  0
LINE
  5
431
100
AcDbEntity
  8
0
100
AcDbLine
 62
7
  6
CONTINUOUS
 10
54.1593804673
 20
206.1528325278
 11
56.0352514484
 21
186.6711675174
  0
LINE
  5
432
100
AcDbEntity
  8
0
100
AcDbLine
 62
7
  6
CONTINUOUS
 10
54.1479891368
 20
208.5146257328
 11
54.1672715996
 21
207.1754593234
  0
LINE
  5
433
100
AcDbEntity
  8
0
100
AcDbLine
 62
7
  6
CONTINUOUS
 10
56.0352514484
 20
166.0089994025
 11
56.0352514484
 21
186.6711675174
  0
LWPOLYLINE
  5
434
100
AcDbEntity
  8
0
100
AcDbPolyline
 62
7
  6
CONTINUOUS
 90
42
 70
0
 10
52.7288844145
 20
141.5965253775
 10
52.7044147778
 20
141.2353187564
 10
52.682560362
 20
140.8883021529
 10
52.6632004745
 20
140.55492842
 10
52.646235345
 20
140.2348597832
 10
52.6315750479
 20
139.927650507
 10
52.6191384204
 20
139.632915791
 10
52.6088198225
 20
139.3501350542
 10
52.6005086997
 20
139.0786348333
 10
52.5941575714
 20
138.818488975
 10
52.5896947613
 20
138.5695251238
 10
52.5870837994
 20
138.3318084236
 10
52.5863044998
 20
138.1055760715
 10
52.5872372821
 20
137.8901395526
 10
52.5897717527
 20
137.6854716217
 10
52.5938749775
 20
137.4898256661
 10
52.5994517624
 20
137.3019173038
 10
52.6066693131
 20
137.1203325979
 10
52.6156259777
 20
136.943609829
 10
52.6265747314
 20
136.7706079627
 10
52.6397583181
 20
136.5996652811
 10
52.6554691813
 20
136.4308821157
 10
52.6739875406
 20
136.2633103276
 10
52.6957173986
 20
136.0984336095
 10
52.7211227702
 20
135.9366065774
 10
52.7503748214
 20
135.7802683224
 10
52.7839876402
 20
135.6309505623
 10
52.8213188191
 20
135.4917300331
 10
52.8618842097
 20
135.3664390372
 10
52.9053127693
 20
135.2543425936
 10
52.9509464094
 20
135.1566025462
 10
52.9989642709
 20
135.0713607221
 10
53.0492207218
 20
134.9975196799
 10
53.1021200668
 20
134.9339590684
 10
53.1578353549
 20
134.8793706589
 10
53.2170930398
 20
134.8332206421
 10
53.2809364629
 20
134.7944447689
 10
53.3488290015
 20
134.7633261304
 10
53.4209084557
 20
134.7399740711
 10
53.4961198722
 20
134.7238455822
 10
53.5732443227
 20
134.714370783
 10
53.6526593745
 20
134.7117396338
  0
LINE
  5
435
100
AcDbEntity
  8
0
100
AcDbLine
 62
7
  6
CONTINUOUS
 10
52.9567690659
 20
144.6896534744
 11
52.9228781243
 21
144.194928388
  0
LINE
  5
436
100
AcDbEntity
  8
0
100
AcDbLine
 62
7
  6
CONTINUOUS
 10
52.9228781243
 20
144.194928388
 11
52.7288844145
 21
141.5965253775
  0
LINE
  5
437
100
AcDbEntity
  8
0
100
AcDbLine
 62
7
  6
CONTINUOUS
 10
56.0352514484
 20
166.0089994025
 11
52.9760972991
 21
146.8027522443
  0
LINE
  5
438
100
AcDbEntity
  8
0
100
AcDbLine
 62
7
  6
CONTINUOUS
 10
49.1271349017
 20
142.7384333142
 11
48.8404569829
 21
141.5910354939
  0
LWPOLYLINE
  5
439
100
AcDbEntity
  8
0
100
AcDbPolyline
 62
7
  6
CONTINUOUS
 90
44
 70
0
 10
48.8404569829
 20
141.5910354939
 10
48.7472566718
 20
141.2252417854
 10
48.6556615324
 20
140.8746482776
 10
48.5656385125
 20
140.5383856628
 10
48.4771759004
 20
140.2158523008
 10
48.3902206916
 20
139.9065349582
 10
48.30472248
 20
139.6098882709
 10
48.2206617591
 20
139.3254069908
 10
48.1380252723
 20
139.0525203485
 10
48.0567438641
 20
138.7908795442
 10
47.9767808587
 20
138.5400531377
 10
47.8980255603
 20
138.2997182817
 10
47.8203534257
 20
138.0695412675
 10
47.7437693212
 20
137.8491232393
 10
47.6682560487
 20
137.6380513811
 10
47.5937552579
 20
137.4360338651
 10
47.5202710842
 20
137.2427236519
 10
47.4475988722
 20
137.0578735611
 10
47.3755628642
 20
136.8812352424
 10
47.3040805021
 20
136.7124651667
 10
47.2330250065
 20
136.5512153236
 10
47.162353283
 20
136.3972508071
 10
47.091982556
 20
136.2501644058
 10
47.0219050893
 20
136.1101250254
 10
46.9521025086
 20
135.9771765444
 10
46.8825239536
 20
135.8512868326
 10
46.8131243185
 20
135.732461077
 10
46.7438679649
 20
135.6206312058
 10
46.6747441843
 20
135.5157835142
 10
46.6056330814
 20
135.417760089
 10
46.5365751429
 20
135.3265368945
 10
46.4670785135
 20
135.2416985935
 10
46.3967980074
 20
135.1628342591
 10
46.3253341021
 20
135.0899066253
 10
46.2523625619
 20
135.0227141516
 10
46.1773123403
 20
134.9613387341
 10
46.0996809646
 20
134.9056579224
 10
46.0189384775
 20
134.8560832149
 10
45.9341700952
 20
134.812688079
 10
45.8460278248
 20
134.776364157
 10
45.7544407322
 20
134.7480349814
 10
45.6606628579
 20
134.7276783487
 10
45.5660783974
 20
134.7156156045
 10
45.4702259523
 20
134.7117396335
  0
LWPOLYLINE
  5
43A
100
AcDbEntity
  8
0
100
AcDbPolyline
 62
7
  6
CONTINUOUS
 90
34
 70
0
 10
63.1447040946
 20
141.5327794844
 10
63.2527601694
 20
141.1113639513
 10
63.359216126
 20
140.7078506434
 10
63.4642014021
 20
140.3211667339
 10
63.56777785
 20
139.9505820397
 10
63.6700059006
 20
139.5954262399
 10
63.7709619504
 20
139.2549430463
 10
63.8707108415
 20
138.9286601781
 10
63.9693022895
 20
138.615925852
 10
64.0668961657
 20
138.3165222878
 10
64.1636736129
 20
138.0301726355
 10
64.2596446989
 20
137.7564023212
 10
64.3548066207
 20
137.4947191868
 10
64.4493993012
 20
137.2448991344
 10
64.5435519416
 20
137.0066621823
 10
64.6376009011
 20
136.779683823
 10
64.731859128
 20
136.5636516434
 10
64.8265183249
 20
136.3582493783
 10
64.9219220469
 20
136.1626643765
 10
65.0179087509
 20
135.9780733837
 10
65.1144302759
 20
135.805247795
 10
65.2114390839
 20
135.6445910108
 10
65.3088149395
 20
135.4967580201
 10
65.4066778093
 20
135.3617654526
 10
65.5046389875
 20
135.2401382918
 10
65.6040447541
 20
135.1310064658
 10
65.7055924298
 20
135.0336023361
 10
65.8106376188
 20
134.9481435871
 10
65.9212787557
 20
134.8739909174
 10
66.0355641948
 20
134.812947646
 10
66.1531769955
 20
134.7669553238
 10
66.2712281391
 20
134.7349599541
 10
66.3866621276
 20
134.7165038725
 10
66.5002514493
 20
134.7117396338
  0
LINE
  5
43B
100
AcDbEntity
  8
0
100
AcDbLine
 62
7
  6
CONTINUOUS
 10
62.7089642269
 20
143.2594612579
 11
62.8415323946
 21
142.7457119199
  0
LINE
  5
43C
100
AcDbEntity
  8
0
100
AcDbLine
 62
7
  6
CONTINUOUS
 10
62.8415323946
 20
142.7457119199
 11
63.1447040946
 21
141.5327794844
  0
LINE
  5
43D
100
AcDbEntity
  8
BEZUGSACHSEN
100
AcDbLine
 62
7
  6
CENTER
 10
60.1352514484
 20
221.5194448007
 11
60.1352514484
 21
130.2791138148
  0
LINE
  5
43E
100
AcDbEntity
  8
0
100
AcDbLine
 62
7
  6
CONTINUOUS
 10
68.9313953926
 20
209.0635205422
 11
69.0901849896
 21
209.5824742804
  0
LINE
  5
43F
100
AcDbEntity
  8
0
100
AcDbLine
 62
7
  6
CONTINUOUS
 10
69.0901849896
 20
209.5824742804
 11
69.2592084966
 21
210.1253188052
  0
LWPOLYLINE
  5
440
100
AcDbEntity
  8
0
100
AcDbPolyline
 62
7
  6
CONTINUOUS
 90
38
 70
0
 10
69.2592084966
 20
210.1253188052
 10
69.419572068
 20
210.6262729739
 10
69.4966972191
 20
210.8619472445
 10
69.5719165044
 20
211.0881817913
 10
69.6453304749
 20
211.3052997296
 10
69.7170331495
 20
211.5136181698
 10
69.7871177978
 20
211.7134605909
 10
69.8556872183
 20
211.9051310012
 10
69.9228479925
 20
212.0889609686
 10
69.9886820404
 20
212.265191293
 10
70.0532568125
 20
212.4341028117
 10
70.1167222984
 20
212.5959069792
 10
70.1792076171
 20
212.7508257812
 10
70.240842831
 20
212.8991084613
 10
70.3017656544
 20
213.0410154468
 10
70.36208225
 20
213.176735172
 10
70.4219651401
 20
213.3065562423
 10
70.4813529603
 20
213.4304385725
 10
70.5401955134
 20
213.548448555
 10
70.5986318195
 20
213.6605553621
 10
70.6567339787
 20
213.7667598543
 10
70.7146525539
 20
213.8670333605
 10
70.7725622244
 20
213.9612821639
 10
70.8304627409
 20
214.0497022618
 10
70.8882747436
 20
214.1323285287
 10
70.9464102433
 20
214.2095506153
 10
71.0051092768
 20
214.2817644646
 10
71.0648084069
 20
214.3489860734
 10
71.1258357101
 20
214.4114107613
 10
71.188756682
 20
214.4688965036
 10
71.2540321971
 20
214.5215008912
 10
71.322304196
 20
214.5688203973
 10
71.3945395707
 20
214.6108156138
 10
71.4702243429
 20
214.646451775
 10
71.5495775713
 20
214.6748146862
 10
71.6313670362
 20
214.6955032262
 10
71.7142886375
 20
214.7077233104
 10
71.7987770751
 20
214.7117396338
  0
LINE
  5
441
100
AcDbEntity
  8
0
100
AcDbLine
 62
7
  6
CONTINUOUS
 10
66.1111224296
 20
206.1528325278
 11
64.2352514484
 21
186.6711675174
  0
LINE
  5
442
100
AcDbEntity
  8
0
100
AcDbLine
 62
7
  6
CONTINUOUS
 10
50.7739439026
 20
210.8615281739
 11
50.9301675215
 21
210.3805502575
  0
LINE
  5
443
100
AcDbEntity
  8
0
100
AcDbLine
 62
7
  6
CONTINUOUS
 10
50.9301675215
 20
210.3805502575
 11
51.0947612044
 21
209.8590125421
  0
LWPOLYLINE
  5
444
100
AcDbEntity
  8
0
100
AcDbPolyline
 62
7
  6
CONTINUOUS
 90
20
 70
0
 10
51.3391039372
 20
209.0635321486
 10
51.4162283809
 20
208.8164148203
 10
51.491817434
 20
208.5786567547
 10
51.5663060092
 20
208.3499064578
 10
51.6399277521
 20
208.129887875
 10
51.713141494
 20
207.9184918521
 10
51.786226925
 20
207.7154938968
 10
51.8599551153
 20
207.5209639693
 10
51.9349405846
 20
207.3345475974
 10
52.0119326748
 20
207.1572935873
 10
52.091472651
 20
206.9896353062
 10
52.1747992633
 20
206.8330645989
 10
52.2626690243
 20
206.6888084952
 10
52.3570699121
 20
206.5580948079
 10
52.4599094218
 20
206.4417159387
 10
52.5721855154
 20
206.3422051498
 10
52.6959155752
 20
206.2617819106
 10
52.8299488346
 20
206.2021800008
 10
52.9737471996
 20
206.1661822239
 10
53.1274900348
 20
206.1528609787
  0
LINE
  5
445
100
AcDbEntity
  8
0
100
AcDbLine
 62
7
  6
CONTINUOUS
 10
51.0947612044
 20
209.8590125421
 11
51.3391039372
 21
209.0635321486
  0
LWPOLYLINE
  5
446
100
AcDbEntity
  8
0
100
AcDbPolyline
 62
7
  6
CONTINUOUS
 90
28
 70
0
 10
71.0133251534
 20
143.2427299347
 10
70.9464218843
 20
143.4946902178
 10
70.8790665937
 20
143.741870963
 10
70.8110685851
 20
143.9833229969
 10
70.7425036834
 20
144.2174980217
 10
70.6727683712
 20
144.4443741212
 10
70.6014899993
 20
144.6636338694
 10
70.5280517877
 20
144.8746154975
 10
70.4516714162
 20
145.0771560858
 10
70.3724728558
 20
145.2694416609
 10
70.2901438308
 20
145.4500000678
 10
70.2052107617
 20
145.6176429326
 10
70.118066993
 20
145.770269601
 10
70.0287994773
 20
145.9091447593
 10
69.9377314203
 20
146.0343164086
 10
69.8445474084
 20
146.147333951
 10
69.7493034524
 20
146.2494141797
 10
69.6512084858
 20
146.3416029223
 10
69.5498654217
 20
146.4251877908
 10
69.4441483327
 20
146.5006602253
 10
69.3325571625
 20
146.5693155531
 10
69.2158172098
 20
146.6300297236
 10
69.0936431609
 20
146.6822783434
 10
68.9675667967
 20
146.7255577675
 10
68.8386773922
 20
146.7591142948
 10
68.708017152
 20
146.7831737007
 10
68.5771670342
 20
146.7977073445
 10
68.4456000526
 20
146.8027247732
  0
LINE
  5
447
100
AcDbEntity
  8
0
100
AcDbLine
 62
7
  6
CONTINUOUS
 10
71.1451432374
 20
142.7314566523
 11
71.0133251534
 21
143.2427299347
  0
LINE
  5
448
100
AcDbEntity
  8
0
100
AcDbLine
 62
7
  6
CONTINUOUS
 10
71.4300444614
 20
141.591041246
 11
71.1451432374
 21
142.7314566523
  0
LINE
  5
449
100
AcDbEntity
  8
0
100
AcDbLine
 62
7
  6
CONTINUOUS
 10
64.2352514484
 20
166.0089994025
 11
67.2944055977
 21
146.8027522443
  0
LWPOLYLINE
  5
44A
100
AcDbEntity
  8
0
100
AcDbPolyline
 62
7
  6
CONTINUOUS
 90
13
 70
0
 10
67.3474856241
 20
144.1968675918
 10
67.3136209869
 20
144.6913995247
 10
67.2984568343
 20
144.9377822947
 10
67.2849308855
 20
145.1830222956
 10
67.2738810826
 20
145.4218790824
 10
67.2658884818
 20
145.6499358725
 10
67.2612436648
 20
145.8647898977
 10
67.2601836739
 20
146.0631642291
 10
67.2622973643
 20
146.2432645661
 10
67.2670875648
 20
146.4030364719
 10
67.2736907466
 20
146.539983427
 10
67.2812104436
 20
146.652285027
 10
67.2878297558
 20
146.7358584889
  0
LWPOLYLINE
  5
44B
100
AcDbEntity
  8
0
100
AcDbPolyline
 62
7
  6
CONTINUOUS
 90
44
 70
0
 10
66.1302806519
 20
209.852482552
 10
66.1285133301
 20
210.1130133814
 10
66.1254667609
 20
210.3639990477
 10
66.1212093637
 20
210.6056427131
 10
66.115810993
 20
210.8380879371
 10
66.1093272828
 20
211.0614458072
 10
66.1018092773
 20
211.2758369617
 10
66.0933154238
 20
211.4813763072
 10
66.0838990127
 20
211.6781202925
 10
66.0736064434
 20
211.8663649289
 10
66.0624952168
 20
212.0461330411
 10
66.0505574351
 20
212.2183006375
 10
66.0378083246
 20
212.3834937737
 10
66.0241691317
 20
212.5424851327
 10
66.0095837141
 20
212.6960177568
 10
65.9939122266
 20
212.8448066248
 10
65.9770053577
 20
212.9898043241
 10
65.9587346601
 20
213.1310410703
 10
65.9388889249
 20
213.2691851849
 10
65.9174965619
 20
213.4032749377
 10
65.8945543515
 20
213.532784683
 10
65.8699727796
 20
213.6570744884
 10
65.8436689499
 20
213.7755902848
 10
65.8156308773
 20
213.8875488371
 10
65.785740104
 20
213.9920640851
 10
65.7542669193
 20
214.0888904357
 10
65.7214436924
 20
214.1774340834
 10
65.6873671107
 20
214.2578536058
 10
65.65214733
 20
214.3300179813
 10
65.6160262185
 20
214.394202203
 10
65.5792440065
 20
214.4504409912
 10
65.5419752556
 20
214.4993241434
 10
65.5044627805
 20
214.541191058
 10
65.4667697565
 20
214.5768276539
 10
65.4290228045
 20
214.6069410584
 10
65.3912600807
 20
214.6321070451
 10
65.3535790147
 20
214.6530170681
 10
65.3159043583
 20
214.6700312129
 10
65.2782478072
 20
214.6836246758
 10
65.2404074949
 20
214.6941435779
 10
65.2022061108
 20
214.7020476684
 10
65.1635242781
 20
214.70747126
 10
65.1241438329
 20
214.7107378604
 10
65.0841431152
 20
214.7117396338
  0
LINE
  5
44C
100
AcDbEntity
  8
0
100
AcDbLine
 62
7
  6
CONTINUOUS
 10
64.2352514484
 20
166.0089994025
 11
64.2352514484
 21
186.6711675174
  0
LINE
  5
44D
100
AcDbEntity
  8
0
100
AcDbLine
 62
7
  6
CONTINUOUS
 10
66.1303910325
 20
209.4514250593
 11
66.1302806519
 21
209.852482552
  0
LINE
  5
44E
100
AcDbEntity
  8
0
100
AcDbLine
 62
7
  6
CONTINUOUS
 10
66.1278249065
 20
209.0412754007
 11
66.1303910325
 21
209.4514250593
  0
LINE
  5
44F
100
AcDbEntity
  8
0
100
AcDbLine
 62
7
  6
CONTINUOUS
 10
66.0996484141
 20
206.8134364531
 11
66.1032311346
 21
207.175437485
  0
LINE
  5
450
100
AcDbEntity
  8
0
100
AcDbLine
 62
7
  6
CONTINUOUS
 10
66.1193409261
 20
208.2664801857
 11
66.1278249065
 21
209.0412754007
  0
LINE
  5
451
100
AcDbEntity
  8
0
100
AcDbLine
 62
7
  6
CONTINUOUS
 10
66.1032311346
 20
207.175437485
 11
66.1193409261
 21
208.2664801857
  0
LINE
  5
452
100
AcDbEntity
  8
0
100
AcDbLine
 62
7
  6
CONTINUOUS
 10
57.1410123361
 20
141.5930663311
 11
57.4293959619
 21
142.7473850657
  0
LWPOLYLINE
  5
453
100
AcDbEntity
  8
0
100
AcDbPolyline
 62
7
  6
CONTINUOUS
 90
38
 70
0
 10
57.4293959619
 20
142.7473850657
 10
57.5621841081
 20
143.2619157631
 10
57.6305908492
 20
143.5189017566
 10
57.7008084052
 20
143.7758667993
 10
57.7737345655
 20
144.0328880846
 10
57.8497686823
 20
144.2902146176
 10
57.9306434092
 20
144.5474661953
 10
58.0175165706
 20
144.8052735761
 10
58.1124339488
 20
145.0608528807
 10
58.2173849362
 20
145.3136749683
 10
58.3336960427
 20
145.5576063814
 10
58.4626893674
 20
145.78688533
 10
58.6066377402
 20
145.9998676717
 10
58.7680189051
 20
146.1938025865
 10
58.9478456393
 20
146.3662483176
 10
59.1483284666
 20
146.5150973054
 10
59.3687096166
 20
146.6365961379
 10
59.6125922603
 20
146.7272221421
 10
59.8694433121
 20
146.7841755408
 10
60.1314671615
 20
146.8031220867
 10
60.3941568462
 20
146.7851425168
 10
60.6533652506
 20
146.7284194525
 10
60.9002427612
 20
146.637312993
 10
61.1234896831
 20
146.5140705279
 10
61.3262332413
 20
146.3632128065
 10
61.5067128896
 20
146.1892943598
 10
61.667898493
 20
145.9944612319
 10
61.8111317648
 20
145.7815922231
 10
61.9391544184
 20
145.5530435965
 10
62.0545873975
 20
145.3104461028
 10
62.1588490835
 20
145.0588550788
 10
62.2535897662
 20
144.8034871838
 10
62.3404995465
 20
144.5454892008
 10
62.4214283068
 20
144.287916003
 10
62.4975296515
 20
144.0302599792
 10
62.5704529945
 20
143.7731421479
 10
62.6406308233
 20
143.5162314934
 10
62.7089642269
 20
143.2594612579
  0
LWPOLYLINE
  5
454
100
AcDbEntity
  8
0
100
AcDbPolyline
 62
7
  6
CONTINUOUS
 90
8
 70
0
 10
66.1111224296
 20
206.1528325278
 10
66.1100771916
 20
206.165572374
 10
66.1077838192
 20
206.2079977861
 10
66.1048872769
 20
206.2815114474
 10
66.101913789
 20
206.3819053078
 10
66.1000290004
 20
206.5068226177
 10
66.0992616364
 20
206.6521121584
 10
66.0996484141
 20
206.8134364531
  0
LINE
  5
455
100
AcDbEntity
  8
0
100
AcDbLine
 62
9
  6
CONTINUOUS
 10
67.1352514484
 20
206.1528325278
 11
67.1352514484
 21
209.3219439827
  0
LINE
  5
456
100
AcDbEntity
  8
BEZUGSACHSEN
100
AcDbLine
 62
9
  6
CONTINUOUS
 10
67.1352514484
 20
209.3219439827
 11
67.1352514484
 21
214.7117396338
  0
LINE
  5
457
100
AcDbEntity
  8
BEZUGSACHSEN
100
AcDbLine
 62
9
  6
CONTINUOUS
 10
68.4352514484
 20
134.7117396338
 11
68.4352514484
 21
141.9717396338
  0
LINE
  5
458
100
AcDbEntity
  8
0
100
AcDbLine
 62
9
  6
CONTINUOUS
 10
68.4352514484
 20
141.9717396338
 11
68.4352514484
 21
146.8027522443
  0
LWPOLYLINE
  5
459
100
AcDbEntity
  8
0
100
AcDbPolyline
 62
7
  6
CONTINUOUS
 90
32
 70
0
 10
58.0818813663
 20
209.9004564146
 10
57.9857360328
 20
210.2061180354
 10
57.8920379503
 20
210.4992576293
 10
57.800591949
 20
210.7804797373
 10
57.7112921242
 20
211.0502134651
 10
57.6239893644
 20
211.3087836057
 10
57.5385346013
 20
211.5565390005
 10
57.4547954152
 20
211.7938366101
 10
57.372635009
 20
212.0210508163
 10
57.2918983346
 20
212.2384781972
 10
57.2124691619
 20
212.4464623387
 10
57.1340834841
 20
212.645236599
 10
57.056523395
 20
212.8350602585
 10
56.9795373005
 20
213.0161991364
 10
56.902802068
 20
213.1890678411
 10
56.8263274468
 20
213.3534792856
 10
56.7500349345
 20
213.5095600197
 10
56.6738793947
 20
213.6567837419
 10
56.5978717843
 20
213.7947421514
 10
56.5217907321
 20
213.9232077957
 10
56.4455268067
 20
214.0416371764
 10
56.3688003134
 20
214.1505701293
 10
56.2917958867
 20
214.2501844531
 10
56.2130654597
 20
214.3410227596
 10
56.1316435276
 20
214.4239949261
 10
56.0465038466
 20
214.4981769541
 10
55.9558487311
 20
214.5635820272
 10
55.8614281256
 20
214.6183084778
 10
55.7635762748
 20
214.6603226837
 10
55.6647898944
 20
214.6900336919
 10
55.567733603
 20
214.7071390719
 10
55.4717258218
 20
214.7117396338
  0
LINE
  5
45A
100
AcDbEntity
  8
0
100
AcDbLine
 62
7
  6
CONTINUOUS
 10
58.3450964318
 20
209.044099332
 11
58.0818813663
 21
209.9004564146
  0
LINE
  5
45B
100
AcDbEntity
  8
0
100
AcDbLine
 62
7
  6
CONTINUOUS
 10
67.2878297558
 20
146.7358584889
 11
67.2944055977
 21
146.8027522443
  0
LINE
  5
45C
100
AcDbEntity
  8
0
100
AcDbLine
 62
7
  6
CONTINUOUS
 10
56.0352514484
 20
186.6711675174
 11
64.2352514484
 21
186.6711675174
  0
LINE
  5
45D
100
AcDbEntity
  8
0
100
AcDbLine
 62
7
  6
CONTINUOUS
 10
80.1352514484
 20
211.7117396338
 11
80.1352514484
 21
137.7117396338
  0
LWPOLYLINE
  5
45E
100
AcDbEntity
  8
0
100
AcDbPolyline
 62
7
  6
CONTINUOUS
 90
20
 70
0
 10
67.143012862
 20
206.1528609787
 10
67.2967127626
 20
206.1661732886
 10
67.4404780336
 20
206.2021536528
 10
67.574487297
 20
206.2617261141
 10
67.6982046862
 20
206.3421185443
 10
67.8104839926
 20
206.4416068968
 10
67.9133348631
 20
206.5579709695
 10
68.007749219
 20
206.6886809169
 10
68.095634029
 20
206.8329416223
 10
68.178975262
 20
206.9895261102
 10
68.2585278398
 20
207.157200112
 10
68.335527449
 20
207.3344636211
 10
68.4105177642
 20
207.5208868757
 10
68.4842491127
 20
207.7154207955
 10
68.5573372229
 20
207.9184233298
 10
68.6305550788
 20
208.1298289214
 10
68.7041812412
 20
208.3498590096
 10
68.7786740309
 20
208.5786211946
 10
68.8542671522
 20
208.816391437
 10
68.9313953926
 20
209.0635205422
  0
LINE
  5
45F
100
AcDbEntity
  8
0
100
AcDbLine
 62
7
  6
CONTINUOUS
 10
53.1352514484
 20
206.1528325278
 11
54.1593804673
 21
206.1528325278
  0
LINE
  5
460
100
AcDbEntity
  8
0
100
AcDbLine
 62
7
  6
CONTINUOUS
 10
66.1111224296
 20
206.1528325278
 11
67.1352514484
 21
206.1528325278
  0
LWPOLYLINE
  5
461
100
AcDbEntity
  8
BEZUGSACHSEN
100
AcDbPolyline
 62
9
  6
CONTINUOUS
 90
3
 70
0
 10
62.0105377955
 20
209.3219439827
 10
61.9870646869
 20
209.3206612403
 10
61.9181612617
 20
209.3198915923
  0
LINE
  5
462
100
AcDbEntity
  8
BEZUGSACHSEN
100
AcDbLine
 62
9
  6
CONTINUOUS
 10
67.1352514484
 20
209.3219439827
 11
66.1297816331
 21
209.3198915922
  0
LWPOLYLINE
  5
463
100
AcDbEntity
  8
0
100
AcDbPolyline
 62
9
  6
CONTINUOUS
 90
3
 70
0
 10
53.1352514484
 20
209.3219439827
 10
52.2841902716
 20
209.3197633174
 10
51.2605891305
 20
209.3198915923
  0
LINE
  5
464
100
AcDbEntity
  8
0
100
AcDbLine
 62
9
  6
CONTINUOUS
 10
69.0901849896
 20
209.5824742804
 11
67.1352514484
 21
209.5824742804
  0
LINE
  5
465
100
AcDbEntity
  8
BEZUGSACHSEN
100
AcDbLine
 62
9
  6
CONTINUOUS
 10
67.1352514484
 20
209.5824742804
 11
66.1306857082
 21
209.5824742804
  0
LINE
  5
466
100
AcDbEntity
  8
BEZUGSACHSEN
100
AcDbLine
 62
9
  6
CONTINUOUS
 10
62.0901849896
 20
209.5824742804
 11
58.1803179072
 21
209.5824742804
  0
LINE
  5
467
100
AcDbEntity
  8
BEZUGSACHSEN
100
AcDbLine
 62
9
  6
CONTINUOUS
 10
54.1398171887
 20
209.5824742804
 11
53.1352514484
 21
209.5824742804
  0
LINE
  5
468
100
AcDbEntity
  8
0
100
AcDbLine
 62
9
  6
CONTINUOUS
 10
53.1352514484
 20
209.5824742804
 11
51.1803179072
 21
209.5824742804
  0
LWPOLYLINE
  5
469
100
AcDbEntity
  8
BEZUGSACHSEN
100
AcDbPolyline
 62
9
  6
CONTINUOUS
 90
4
 70
0
 10
61.9181612617
 20
209.3198915923
 10
58.3523416351
 20
209.3198915923
 10
58.2834382099
 20
209.3206612403
 10
58.2599651013
 20
209.3219439827
  0
LINE
  5
46A
100
AcDbEntity
  8
BEZUGSACHSEN
100
AcDbLine
 62
9
  6
CONTINUOUS
 10
54.1407212637
 20
209.3198915922
 11
53.1352514484
 21
209.3219439827
  0
LWPOLYLINE
  5
46B
100
AcDbEntity
  8
0
100
AcDbPolyline
 62
9
  6
CONTINUOUS
 90
3
 70
0
 10
69.0099137663
 20
209.3198915923
 10
67.4285498518
 20
209.3206612403
 10
67.1352514484
 20
209.3219439827
  0
LWPOLYLINE
  5
46C
100
AcDbEntity
  8
0
100
AcDbPolyline
 62
7
  6
CONTINUOUS
 90
31
 70
0
 10
64.7987770751
 20
214.7117396338
 10
64.6694168713
 20
214.702962072
 10
64.5406311341
 20
214.6722695081
 10
64.4119475578
 20
214.6190094599
 10
64.2867821377
 20
214.5451393736
 10
64.1685310153
 20
214.4506763761
 10
64.0572223273
 20
214.3407889431
 10
63.9543925452
 20
214.2201061117
 10
63.8583916036
 20
214.0902633242
 10
63.7679857856
 20
213.9541436483
 10
63.6827916448
 20
213.8126332455
 10
63.6021181711
 20
213.6673081454
 10
63.5253252155
 20
213.5189818114
 10
63.4514671156
 20
213.3688376222
 10
63.3805657065
 20
213.2173418623
 10
63.3125251781
 20
213.065660806
 10
63.2466677213
 20
212.9128778627
 10
63.1825252752
 20
212.7590117205
 10
63.1193140196
 20
212.6024228173
 10
63.0562809619
 20
212.4419633008
 10
62.9928368177
 20
212.2761767302
 10
62.9282550534
 20
212.1036159489
 10
62.8621902701
 20
211.9231052526
 10
62.794028523
 20
211.7329465635
 10
62.7238637122
 20
211.5332598461
 10
62.6515582243
 20
211.323527996
 10
62.5772101187
 20
211.1039641429
 10
62.5008723496
 20
210.8745877893
 10
62.4225583568
 20
210.6354627118
 10
62.3422902862
 20
210.3866450586
 10
62.1760593655
 20
209.860127929
  0
LWPOLYLINE
  5
46D
100
AcDbEntity
  8
0
100
AcDbPolyline
 62
7
  6
CONTINUOUS
 90
43
 70
0
 10
55.1863597816
 20
214.7117396338
 10
55.1428665337
 20
214.7105512116
 10
55.1002085712
 20
214.706687177
 10
55.0584690633
 20
214.7002773747
 10
55.0174073954
 20
214.6909322706
 10
54.9769097949
 20
214.6784869654
 10
54.9367273645
 20
214.6623973995
 10
54.8965948056
 20
214.6422771976
 10
54.856525824
 20
214.6174884077
 10
54.8164085431
 20
214.5875447653
 10
54.7764071401
 20
214.5516048322
 10
54.7365843652
 20
214.5088703745
 10
54.6971548382
 20
214.4587255148
 10
54.6582177226
 20
214.4002686264
 10
54.6201740476
 20
214.3335587235
 10
54.5833869785
 20
214.2582705123
 10
54.5479753518
 20
214.1746552914
 10
54.5141034969
 20
214.0827402234
 10
54.4819286423
 20
213.9828724234
 10
54.4516289031
 20
213.8750982319
 10
54.4232250366
 20
213.7603471346
 10
54.3968613431
 20
213.6394351869
 10
54.37227576
 20
213.5127490212
 10
54.3492715122
 20
213.3809209376
 10
54.3278310027
 20
213.2440299883
 10
54.3079175096
 20
213.1024516454
 10
54.2893991794
 20
212.9559289486
 10
54.2721926173
 20
212.8045949601
 10
54.2561627155
 20
212.6476550842
 10
54.2411985955
 20
212.4845605964
 10
54.2272306089
 20
212.3147069461
 10
54.2141753289
 20
212.1375080855
 10
54.2020471552
 20
211.9523597813
 10
54.1908402486
 20
211.7585375725
 10
54.1805979656
 20
211.555816094
 10
54.1713568171
 20
211.3437769783
 10
54.1631741571
 20
211.1222747722
 10
54.1561121583
 20
210.8910937344
 10
54.150223682
 20
210.6500263611
 10
54.1455682862
 20
210.3988773374
 10
54.1422260598
 20
210.1373943557
 10
54.1402763475
 20
209.8652203268
 10
54.1398171887
 20
209.5824742804
  0
LINE
  5
46E
100
AcDbEntity
  8
BEZUGSACHSEN
100
AcDbLine
 62
7
  6
CONTINUOUS
 10
64.7987770751
 20
214.7117396338
 11
55.4717258218
 21
214.7117396338
  0
LINE
  5
46F
100
AcDbEntity
  8
BEZUGSACHSEN
100
AcDbLine
 62
7
  6
CONTINUOUS
 10
53.1352514484
 20
214.7117396338
 11
55.1863597816
 21
214.7117396338
  0
LINE
  5
470
100
AcDbEntity
  8
0
100
AcDbLine
 62
7
  6
CONTINUOUS
 10
43.1352514484
 20
214.7117396338
 11
55.4717258218
 21
214.7117396338
  0
LINE
  5
471
100
AcDbEntity
  8
BEZUGSACHSEN
100
AcDbLine
 62
7
  6
CONTINUOUS
 10
65.0841431152
 20
214.7117396338
 11
67.1352514484
 21
214.7117396338
  0
LINE
  5
472
100
AcDbEntity
  8
0
100
AcDbLine
 62
7
  6
CONTINUOUS
 10
64.7987770751
 20
214.7117396338
 11
77.1352514484
 21
214.7117396338
  0
LWPOLYLINE
  5
473
100
AcDbEntity
  8
0
100
AcDbPolyline
 62
7
  6
CONTINUOUS
 90
36
 70
0
 10
48.4717258218
 20
214.7117396338
 10
48.556145866
 20
214.7077265029
 10
48.6389821575
 20
214.6955334889
 10
48.7206640335
 20
214.6748964432
 10
48.7999034825
 20
214.6466078115
 10
48.8754772429
 20
214.6110739046
 10
48.9476204033
 20
214.5691889783
 10
49.015839144
 20
214.5219745742
 10
49.0810969281
 20
214.4694551456
 10
49.1440458281
 20
214.4120100307
 10
49.2051261954
 20
214.3495961153
 10
49.2648869932
 20
214.2823604498
 10
49.3236544578
 20
214.2101118784
 10
49.381857063
 20
214.1328403299
 10
49.43973706
 20
214.0501496012
 10
49.4977078693
 20
213.9616486286
 10
49.5556844578
 20
213.8673119235
 10
49.6136604502
 20
213.7669528415
 10
49.6718132935
 20
213.6606637859
 10
49.7302944173
 20
213.5484742513
 10
49.7891754983
 20
213.43038632
 10
49.8485952405
 20
213.3064339742
 10
49.9085039922
 20
213.1765510098
 10
49.9688398598
 20
213.0407807356
 10
50.0297782732
 20
212.8988285945
 10
50.091428595
 20
212.750500014
 10
50.1539271337
 20
212.5955383497
 10
50.2174037743
 20
212.4336955598
 10
50.2819871501
 20
212.2647512645
 10
50.3478266751
 20
212.0884958803
 10
50.4149898926
 20
211.9046489765
 10
50.4835586312
 20
211.7129706275
 10
50.5536394476
 20
211.5131297334
 10
50.6253352295
 20
211.304822415
 10
50.6987388128
 20
211.0877270837
 10
50.7739439026
 20
210.8615281739
  0
LINE
  5
474
100
AcDbEntity
  8
FASEN
100
AcDbLine
 62
7
  6
CONTINUOUS
 10
64.9806122732
 20
280.0777224049
 11
64.2352514484
 21
279.4955967908
  0
LWPOLYLINE
  5
475
100
AcDbEntity
  8
0
100
AcDbPolyline
 62
7
  6
CONTINUOUS
 90
39
 70
0
 10
53.6527094414
 20
267.0385862589
 10
53.5178550795
 20
266.8964503921
 10
53.3931487665
 20
266.7543811568
 10
53.2776832671
 20
266.6119259958
 10
53.1736307644
 20
266.4724044275
 10
53.0829937038
 20
266.3389856027
 10
53.0043871429
 20
266.2120732429
 10
52.9377329998
 20
266.0933892991
 10
52.8809384975
 20
265.9817015414
 10
52.8323977618
 20
265.8763322568
 10
52.7910261832
 20
265.7767158891
 10
52.7555357312
 20
265.6820106265
 10
52.7252874619
 20
265.5920020678
 10
52.6994592229
 20
265.5062418907
 10
52.6775179636
 20
265.4243919206
 10
52.6588271556
 20
265.3460584413
 10
52.6430328975
 20
265.2708429121
 10
52.6296974312
 20
265.1984361906
 10
52.6185675895
 20
265.1281164294
 10
52.6093625266
 20
265.0593142097
 10
52.6018815316
 20
264.9912474872
 10
52.5958903869
 20
264.9231016937
 10
52.5913682677
 20
264.8544153104
 10
52.5882159966
 20
264.7845004464
 10
52.5865530997
 20
264.7132485904
 10
52.5864605806
 20
264.6402456591
 10
52.5880154023
 20
264.5657528141
 10
52.591315516
 20
264.4898682698
 10
52.5963674672
 20
264.4126775919
 10
52.6031851689
 20
264.3342906602
 10
52.611833905
 20
264.2547365992
 10
52.6223512237
 20
264.1741237913
 10
52.6348317471
 20
264.0923352457
 10
52.6493635864
 20
264.0093285503
 10
52.6660284775
 20
263.9250168654
 10
52.6849092426
 20
263.8393261521
 10
52.7061224865
 20
263.7522106433
 10
52.7298122156
 20
263.6635679187
 10
52.756008224
 20
263.5735352671
  0
LINE
  5
476
100
AcDbEntity
  8
BEZUGSACHSEN
100
AcDbLine
 62
9
  6
CONTINUOUS
 10
51.8352514484
 20
267.0385352678
 11
51.8352514484
 21
254.3084842746
  0
LINE
  5
477
100
AcDbEntity
  8
BEZUGSACHSEN
100
AcDbLine
 62
9
  6
CONTINUOUS
 10
53.7702004566
 20
252.3735352671
 11
66.5002514491
 21
252.3735352671
  0
LWPOLYLINE
  5
478
100
AcDbEntity
  8
0
100
AcDbPolyline
 62
7
  6
CONTINUOUS
 90
43
 70
0
 10
53.7702004569
 20
254.1909932599
 10
53.853106237
 20
254.1112031018
 10
53.9372785829
 20
254.0337306285
 10
54.0230134641
 20
253.9582270644
 10
54.1091795369
 20
253.8858254699
 10
54.1946882536
 20
253.8175063613
 10
54.2795045523
 20
253.7531475352
 10
54.3628652063
 20
253.6932141013
 10
54.445845241
 20
253.6368572958
 10
54.5291987653
 20
253.5834869752
 10
54.6132586962
 20
253.5329892732
 10
54.6986013084
 20
253.4850696007
 10
54.7853023592
 20
253.4398139267
 10
54.873986246
 20
253.397055046
 10
54.9635822628
 20
253.3573234515
 10
55.0537509543
 20
253.3209097564
 10
55.1428714076
 20
253.2881876135
 10
55.2291246988
 20
253.2596870345
 10
55.3127626173
 20
253.2348790793
 10
55.3932707402
 20
253.2135518195
 10
55.4712112278
 20
253.1952505959
 10
55.5468371092
 20
253.1795559906
 10
55.6206259517
 20
253.1662537478
 10
55.6929308282
 20
253.1550908113
 10
55.7644028239
 20
253.1458781535
 10
55.8356374372
 20
253.1384182078
 10
55.9071529888
 20
253.1326184025
 10
55.9795883906
 20
253.1283305855
 10
56.0531584649
 20
253.1256458839
 10
56.1283280277
 20
253.1245966919
 10
56.2049537775
 20
253.1252880803
 10
56.2830642135
 20
253.1278354316
 10
56.3625881633
 20
253.1322508945
 10
56.4434697939
 20
253.1385635281
 10
56.5256816588
 20
253.1468380113
 10
56.609132335
 20
253.1571111494
 10
56.6939433658
 20
253.1694982803
 10
56.78015111
 20
253.1841013068
 10
56.8678853147
 20
253.2010265147
 10
56.9572840027
 20
253.2203899147
 10
57.0483124942
 20
253.2423076531
 10
57.1410123361
 20
253.2669282379
 10
57.2352514484
 20
253.2942920427
  0
LWPOLYLINE
  5
479
100
AcDbEntity
  8
0
100
AcDbPolyline
 62
7
  6
CONTINUOUS
 90
14
 70
0
 10
53.0053907247
 20
259.4646493777
 10
53.009371372
 20
259.2882323
 10
53.010280575
 20
259.1297279862
 10
53.0074817613
 20
258.9881537712
 10
53.00100988
 20
258.8611437577
 10
52.9909410848
 20
258.7465473093
 10
52.9779532917
 20
258.6430375419
 10
52.9629478908
 20
258.5493061787
 10
52.9462159117
 20
258.4634020134
 10
52.9285626274
 20
258.383295514
 10
52.9100657576
 20
258.3079067785
 10
52.8912070269
 20
258.2355909904
 10
52.8719941922
 20
258.1659394044
 10
52.8526519748
 20
258.0980742255
  0
LINE
  5
47A
100
AcDbEntity
  8
BEZUGSACHSEN
100
AcDbLine
 62
9
  6
CONTINUOUS
 10
53.7702004566
 20
252.373780021
 11
53.7702004564
 21
254.1909932605
  0
LINE
  5
47B
100
AcDbEntity
  8
BEZUGSACHSEN
100
AcDbLine
 62
9
  6
CONTINUOUS
 10
53.7702004564
 20
267.1560724197
 11
53.7702004566
 21
268.9732584932
  0
LWPOLYLINE
  5
47C
100
AcDbEntity
  8
0
100
AcDbPolyline
 62
7
  6
CONTINUOUS
 90
6
 70
0
 10
52.9819277068
 20
261.1479978745
 10
52.9774115084
 20
260.889406066
 10
52.9762109676
 20
260.6285836395
 10
52.9786636117
 20
260.3694566923
 10
52.9840589182
 20
260.1164445871
 10
53.0053907247
 20
259.4646493777
  0
LWPOLYLINE
  5
47D
100
AcDbEntity
  8
0
100
AcDbPolyline
 62
7
  6
CONTINUOUS
 90
43
 70
0
 10
52.756008224
 20
257.7735352671
 10
52.7288844145
 20
257.6801725884
 10
52.7044147778
 20
257.5881411504
 10
52.682560362
 20
257.497550628
 10
52.6632004745
 20
257.4084019074
 10
52.646235345
 20
257.3207311975
 10
52.6315750479
 20
257.234510075
 10
52.6191384204
 20
257.1497174239
 10
52.6088198225
 20
257.0663356509
 10
52.6005086997
 20
256.9843029162
 10
52.5941575714
 20
256.9037009921
 10
52.5896947613
 20
256.824568794
 10
52.5870837994
 20
256.7469575768
 10
52.5863044998
 20
256.6709448007
 10
52.5872372821
 20
256.5964791416
 10
52.5897717527
 20
256.5237128404
 10
52.5938749775
 20
256.4520898953
 10
52.5994517624
 20
256.3813426481
 10
52.6066693131
 20
256.3107217485
 10
52.6156259777
 20
256.239623674
 10
52.6265747314
 20
256.1673211136
 10
52.6397583181
 20
256.0929912107
 10
52.6554691813
 20
256.0163162992
 10
52.6739875406
 20
255.9367180575
 10
52.6957173986
 20
255.8541879023
 10
52.7211227702
 20
255.7683243758
 10
52.7503748214
 20
255.6798034256
 10
52.7839876402
 20
255.5885286984
 10
52.8213188191
 20
255.4965015943
 10
52.8618842097
 20
255.4055696524
 10
52.9053127693
 20
255.3160794407
 10
52.9509464094
 20
255.2292237036
 10
52.9989642709
 20
255.1442377202
 10
53.0492207218
 20
255.0610145314
 10
53.1021200668
 20
254.9787644073
 10
53.1578353549
 20
254.8969912022
 10
53.2170930398
 20
254.8147721511
 10
53.2809364629
 20
254.7307743307
 10
53.3488290015
 20
254.6458934129
 10
53.4209084557
 20
254.560178573
 10
53.4961198722
 20
254.4748156584
 10
53.5732443227
 20
254.3910458843
 10
53.6526593745
 20
254.3085352668
  0
LINE
  5
47E
100
AcDbEntity
  8
0
100
AcDbLine
 62
7
  6
CONTINUOUS
 10
52.8526519748
 20
258.0980742255
 11
52.81379184
 21
257.9663071063
  0
LINE
  5
47F
100
AcDbEntity
  8
0
100
AcDbLine
 62
7
  6
CONTINUOUS
 10
52.81379184
 20
257.9663071063
 11
52.756008224
 21
257.7735352671
  0
LWPOLYLINE
  5
480
100
AcDbEntity
  8
0
100
AcDbPolyline
 62
7
  6
CONTINUOUS
 90
14
 70
0
 10
61.3262332413
 20
253.5431517721
 10
61.5067128896
 20
253.5474433664
 10
61.667898493
 20
253.5486176717
 10
61.8111317648
 20
253.5461070212
 10
61.9391544184
 20
253.5398728782
 10
62.0545873975
 20
253.5300416988
 10
62.1588490835
 20
253.5172205759
 10
62.2535897662
 20
253.5022679678
 10
62.3404995465
 20
253.4855198651
 10
62.4214283068
 20
253.4677953982
 10
62.4975296515
 20
253.4491939625
 10
62.5704529945
 20
253.4302286172
 10
62.6406308233
 20
253.4109013425
 10
62.7089642269
 20
253.3914433357
  0
LINE
  5
481
100
AcDbEntity
  8
BEZUGSACHSEN
100
AcDbLine
 62
9
  6
CONTINUOUS
 10
68.4350067542
 20
254.3084842815
 11
66.6178437524
 21
254.308535267
  0
LINE
  5
482
100
AcDbEntity
  8
BEZUGSACHSEN
100
AcDbLine
 62
9
  6
CONTINUOUS
 10
53.6526593747
 20
254.3085352667
 11
51.8354961426
 21
254.3084842815
  0
LWPOLYLINE
  5
483
100
AcDbEntity
  8
0
100
AcDbPolyline
 62
7
  6
CONTINUOUS
 90
6
 70
0
 10
59.6125922603
 20
253.5214226591
 10
59.8694433121
 20
253.5163564169
 10
60.1314671615
 20
253.5144410262
 10
60.3941568462
 20
253.5162575113
 10
60.6533652506
 20
253.5212831515
 10
61.3262332413
 20
253.5431517721
  0
LINE
  5
484
100
AcDbEntity
  8
0
100
AcDbLine
 62
7
  6
CONTINUOUS
 10
58.9478456393
 20
253.5430455513
 11
59.6125922603
 21
253.5214226591
  0
LWPOLYLINE
  5
485
100
AcDbEntity
  8
0
100
AcDbPolyline
 62
7
  6
CONTINUOUS
 90
35
 70
0
 10
63.0352514484
 20
253.2942920427
 10
63.1447040946
 20
253.2627317174
 10
63.2527601694
 20
253.2347028395
 10
63.359216126
 20
253.2101544776
 10
63.4642014021
 20
253.1889281165
 10
63.56777785
 20
253.1709002389
 10
63.6700059006
 20
253.1559604366
 10
63.7709619504
 20
253.1439939154
 10
63.8707108415
 20
253.1349340269
 10
63.9693022895
 20
253.1286779732
 10
64.0668961657
 20
253.1252603108
 10
64.1636736129
 20
253.1247254168
 10
64.2596446989
 20
253.1269983276
 10
64.3548066207
 20
253.131994158
 10
64.4493993012
 20
253.1398158706
 10
64.5435519416
 20
253.1505048097
 10
64.6376009011
 20
253.1642260317
 10
64.731859128
 20
253.1811518582
 10
64.8265183249
 20
253.2013969471
 10
64.9219220469
 20
253.2250928739
 10
65.0179087509
 20
253.2524391742
 10
65.1144302759
 20
253.2836356933
 10
65.2114390839
 20
253.3188187842
 10
65.3088149395
 20
253.3581284372
 10
65.4066778093
 20
253.4017563954
 10
65.5046389875
 20
253.4496342132
 10
65.6040447541
 20
253.502720558
 10
65.7055924298
 20
253.5615980353
 10
65.8106376188
 20
253.6276529523
 10
65.9212787557
 20
253.7028674963
 10
66.0355641948
 20
253.7865266212
 10
66.1531769955
 20
253.8792674891
 10
66.2712281391
 20
253.978774124
 10
66.3866621276
 20
254.0823819609
 10
66.5002514493
 20
254.1909431938
  0
LINE
  5
486
100
AcDbEntity
  8
0
100
AcDbLine
 62
7
  6
CONTINUOUS
 10
62.7089642269
 20
253.3914433357
 11
62.8415323946
 21
253.3523587807
  0
LINE
  5
487
100
AcDbEntity
  8
0
100
AcDbLine
 62
7
  6
CONTINUOUS
 10
62.8415323946
 20
253.3523587807
 11
63.0352514484
 21
253.2942920427
  0
LINE
  5
488
100
AcDbEntity
  8
0
100
AcDbLine
 62
7
  6
CONTINUOUS
 10
52.756008224
 20
263.5735352671
 11
52.8217486665
 21
263.3541164321
  0
LWPOLYLINE
  5
489
100
AcDbEntity
  8
0
100
AcDbPolyline
 62
7
  6
CONTINUOUS
 90
17
 70
0
 10
52.8217486665
 20
263.3541164321
 10
52.8598961901
 20
263.223964379
 10
52.8783047222
 20
263.1585684208
 10
52.8968472511
 20
263.0904355581
 10
52.9152003146
 20
263.0186215481
 10
52.9336019106
 20
262.9418276653
 10
52.9512190074
 20
262.8593027925
 10
52.9676678294
 20
262.7703957308
 10
52.9821785381
 20
262.6734893663
 10
52.9943012232
 20
262.5673911929
 10
53.0033094413
 20
262.4500968018
 10
53.0086889312
 20
262.3200238454
 10
53.0103785153
 20
262.1744937524
 10
53.0085216347
 20
262.010561288
 10
53.0037320548
 20
261.8271745759
 10
52.9967778594
 20
261.6212664607
 10
52.9819277068
 20
261.1479978745
  0
LINE
  5
48A
100
AcDbEntity
  8
FASEN
100
AcDbLine
 62
7
  6
CONTINUOUS
 10
55.4352514484
 20
277.0109157181
 11
55.3667716447
 21
278.3571118092
  0
LINE
  5
48B
100
AcDbEntity
  8
FASEN
100
AcDbLine
 62
7
  6
CONTINUOUS
 10
55.3667716447
 20
278.3571118092
 11
55.3091656682
 21
279.6223973936
  0
LINE
  5
48C
100
AcDbEntity
  8
FASEN
100
AcDbLine
 62
7
  6
CONTINUOUS
 10
55.3091656682
 20
279.6223973936
 11
55.2898906237
 21
280.0777224049
  0
LWPOLYLINE
  5
48D
100
AcDbEntity
  8
BEZUGSACHSEN
100
AcDbPolyline
 62
7
  6
CONTINUOUS
 90
13
 70
0
 10
55.4352514484
 20
273.2657637106
 10
55.4391021017
 20
273.1240904472
 10
55.4518548571
 20
272.9914488542
 10
55.4731183925
 20
272.8671760506
 10
55.5040666737
 20
272.7532606796
 10
55.5464597267
 20
272.650415083
 10
55.5981480488
 20
272.5618052835
 10
55.6581261684
 20
272.4917843726
 10
55.7247220187
 20
272.4375034862
 10
55.7959253638
 20
272.3984293029
 10
55.8717452388
 20
272.3719682853
 10
55.9514379699
 20
272.3550027082
 10
56.0352514484
 20
272.3485718132
  0
LINE
  5
48E
100
AcDbEntity
  8
BEZUGSACHSEN
100
AcDbLine
 62
7
  6
CONTINUOUS
 10
55.4352514484
 20
273.2658015177
 11
55.4352514484
 21
277.0109048546
  0
LINE
  5
48F
100
AcDbEntity
  8
0
100
AcDbLine
 62
7
  6
CONTINUOUS
 10
56.0352514484
 20
268.2209185329
 11
56.0352514484
 21
260.6735352671
  0
LINE
  5
490
100
AcDbEntity
  8
BEZUGSACHSEN
100
AcDbLine
 62
7
  6
CONTINUOUS
 10
56.0352514484
 20
268.2209185329
 11
56.0352514484
 21
277.0109157181
  0
LINE
  5
491
100
AcDbEntity
  8
FASEN
100
AcDbLine
 62
7
  6
CONTINUOUS
 10
56.0352514484
 20
277.0109157181
 11
56.0352514484
 21
279.4955967908
  0
LINE
  5
492
100
AcDbEntity
  8
BEZUGSACHSEN
100
AcDbLine
 62
9
  6
CONTINUOUS
 10
57.2352514484
 20
253.2942920427
 11
57.2352514484
 21
252.3735352671
  0
LINE
  5
493
100
AcDbEntity
  8
BEZUGSACHSEN
100
AcDbLine
 62
9
  6
CONTINUOUS
 10
51.8352514484
 20
257.7735352671
 11
52.756008224
 21
257.7735352671
  0
LINE
  5
494
100
AcDbEntity
  8
BEZUGSACHSEN
100
AcDbLine
 62
9
  6
CONTINUOUS
 10
67.5144946728
 20
257.7735352671
 11
68.4352514484
 21
257.7735352671
  0
LINE
  5
495
100
AcDbEntity
  8
BEZUGSACHSEN
100
AcDbLine
 62
7
  6
CENTER
 10
60.1352514484
 20
260.6735352671
 11
60.1352514484
 21
257.6734352671
  0
LINE
  5
496
100
AcDbEntity
  8
BEZUGSACHSEN
100
AcDbLine
 62
7
  6
CENTER
 10
60.1352514484
 20
260.6735352671
 11
60.1352514484
 21
263.6736352671
  0
LINE
  5
497
100
AcDbEntity
  8
BEZUGSACHSEN
100
AcDbLine
 62
7
  6
CENTER
 10
60.1352514484
 20
260.6735352671
 11
57.1351514484
 21
260.6735352671
  0
LINE
  5
498
100
AcDbEntity
  8
BEZUGSACHSEN
100
AcDbLine
 62
7
  6
CENTER
 10
60.1352514484
 20
260.6735352671
 11
63.1353514484
 21
260.6735352671
  0
LINE
  5
499
100
AcDbEntity
  8
BEZUGSACHSEN
100
AcDbLine
 62
9
  6
CONTINUOUS
 10
63.0352514484
 20
253.2942920427
 11
63.0352514484
 21
252.3735352671
  0
LINE
  5
49A
100
AcDbEntity
  8
FASEN
100
AcDbLine
 62
7
  6
CONTINUOUS
 10
64.9613372287
 20
279.6223973936
 11
64.9037312521
 21
278.3571118092
  0
LINE
  5
49B
100
AcDbEntity
  8
FASEN
100
AcDbLine
 62
7
  6
CONTINUOUS
 10
64.9037312521
 20
278.3571118092
 11
64.8352514484
 21
277.0109157181
  0
LINE
  5
49C
100
AcDbEntity
  8
BEZUGSACHSEN
100
AcDbLine
 62
9
  6
CONTINUOUS
 10
51.8352514484
 20
263.5735352671
 11
52.756008224
 21
263.5735352671
  0
LINE
  5
49D
100
AcDbEntity
  8
BEZUGSACHSEN
100
AcDbLine
 62
9
  6
CONTINUOUS
 10
67.5144946728
 20
263.5735352671
 11
68.4352514484
 21
263.5735352671
  0
LINE
  5
49E
100
AcDbEntity
  8
FASEN
100
AcDbLine
 62
7
  6
CONTINUOUS
 10
64.2352514484
 20
279.4955967908
 11
64.2352514484
 21
277.0109157181
  0
LINE
  5
49F
100
AcDbEntity
  8
0
100
AcDbLine
 62
7
  6
CONTINUOUS
 10
64.2352514484
 20
260.6735352671
 11
64.2352514484
 21
268.2209185329
  0
LINE
  5
4A0
100
AcDbEntity
  8
BEZUGSACHSEN
100
AcDbLine
 62
7
  6
CONTINUOUS
 10
64.2352514484
 20
268.2209185329
 11
64.2352514484
 21
277.0109157181
  0
LINE
  5
4A1
100
AcDbEntity
  8
BEZUGSACHSEN
100
AcDbLine
 62
7
  6
CONTINUOUS
 10
64.8352514484
 20
277.0109048629
 11
64.8352514484
 21
273.2658015177
  0
LINE
  5
4A2
100
AcDbEntity
  8
FASEN
100
AcDbLine
 62
7
  6
CONTINUOUS
 10
64.9806122732
 20
280.0777224049
 11
64.9613372287
 21
279.6223973936
  0
LWPOLYLINE
  5
4A3
100
AcDbEntity
  8
0
100
AcDbPolyline
 62
7
  6
CONTINUOUS
 90
14
 70
0
 10
67.2666711761
 20
261.8303794954
 10
67.2619247783
 20
262.0134615526
 10
67.2601223473
 20
262.1770968263
 10
67.2618726302
 20
262.3223182342
 10
67.2673121772
 20
262.4521006883
 10
67.2763666654
 20
262.5691391184
 10
67.2885307523
 20
262.6750386802
 10
67.3030841299
 20
262.7718547232
 10
67.3195685099
 20
262.8607176824
 10
67.3372225978
 20
262.9432307643
 10
67.355630998
 20
263.0199478409
 10
67.3739317764
 20
263.0914868503
 10
67.3923816952
 20
263.1592286239
 10
67.4106467716
 20
263.2241108864
  0
LINE
  5
4A4
100
AcDbEntity
  8
BEZUGSACHSEN
100
AcDbLine
 62
9
  6
CONTINUOUS
 10
66.5002514491
 20
252.3735352671
 11
66.5002514491
 21
254.1909431936
  0
LINE
  5
4A5
100
AcDbEntity
  8
BEZUGSACHSEN
100
AcDbLine
 62
9
  6
CONTINUOUS
 10
66.5002514491
 20
267.1561321946
 11
66.5002514491
 21
268.9738120375
  0
LWPOLYLINE
  5
4A6
100
AcDbEntity
  8
0
100
AcDbPolyline
 62
7
  6
CONTINUOUS
 90
6
 70
0
 10
67.2865510146
 20
260.120375441
 10
67.2919067479
 20
260.3736017173
 10
67.2943012909
 20
260.6328117361
 10
67.2930406432
 20
260.8936112394
 10
67.2884774719
 20
261.1520760317
 10
67.2666711761
 20
261.8303794954
  0
LINE
  5
4A7
100
AcDbEntity
  8
0
100
AcDbLine
 62
7
  6
CONTINUOUS
 10
67.2651981803
 20
259.467632164
 11
67.2865510146
 21
260.120375441
  0
LWPOLYLINE
  5
4A8
100
AcDbEntity
  8
0
100
AcDbPolyline
 62
7
  6
CONTINUOUS
 90
35
 70
0
 10
67.5144946728
 20
263.5735352671
 10
67.5459802698
 20
263.6827090019
 10
67.5739674817
 20
263.7905684201
 10
67.598506586
 20
263.8969202821
 10
67.6197435346
 20
264.0018739639
 10
67.6377933613
 20
264.1054834065
 10
67.6527586558
 20
264.2077781395
 10
67.6647459481
 20
264.3088011283
 10
67.6738230705
 20
264.4086116678
 10
67.6800917137
 20
264.5072371259
 10
67.6835197087
 20
264.6048527221
 10
67.6840641536
 20
264.7016464963
 10
67.6817997411
 20
264.7976325339
 10
67.6768110973
 20
264.8928157458
 10
67.6689952752
 20
264.9874323475
 10
67.6583110006
 20
265.0816108549
 10
67.6445930312
 20
265.1756861908
 10
67.62766885
 20
265.26996975
 10
67.6074242241
 20
265.3646527906
 10
67.5837279679
 20
265.4600777962
 10
67.5563806462
 20
265.5560835678
 10
67.5251825646
 20
265.6526219943
 10
67.4899976152
 20
265.749645387
 10
67.4506859895
 20
265.8470334511
 10
67.4070563228
 20
265.9449059805
 10
67.3591775477
 20
266.0428738491
 10
67.3060909072
 20
266.142284109
 10
67.2472141526
 20
266.2438341587
 10
67.1811599783
 20
266.3488813032
 10
67.1059453957
 20
266.4595255005
 10
67.0222847691
 20
266.573815529
 10
66.9295394479
 20
266.6914359457
 10
66.8300267271
 20
266.8094957429
 10
66.7264122746
 20
266.9249378696
 10
66.6178435221
 20
267.0385352676
  0
LINE
  5
4A9
100
AcDbEntity
  8
0
100
AcDbLine
 62
7
  6
CONTINUOUS
 10
67.4106467716
 20
263.2241108864
 11
67.4485340537
 21
263.3533813429
  0
LINE
  5
4AA
100
AcDbEntity
  8
0
100
AcDbLine
 62
7
  6
CONTINUOUS
 10
67.4485340537
 20
263.3533813429
 11
67.5144946728
 21
263.5735352671
  0
LWPOLYLINE
  5
4AB
100
AcDbEntity
  8
0
100
AcDbPolyline
 62
7
  6
CONTINUOUS
 90
16
 70
0
 10
57.2352514484
 20
253.2942920427
 10
57.4952975433
 20
253.3720435609
 10
57.5621841081
 20
253.3916298893
 10
57.6305908492
 20
253.4111033266
 10
57.7008084052
 20
253.4304314881
 10
57.7737345655
 20
253.4493854628
 10
57.8497686823
 20
253.4679593151
 10
57.9306434092
 20
253.4856529012
 10
58.0175165706
 20
253.5023864261
 10
58.1124339488
 20
253.5173306979
 10
58.2173849362
 20
253.5301795508
 10
58.3336960427
 20
253.5400292283
 10
58.4626893674
 20
253.5461935973
 10
58.6066377402
 20
253.548631978
 10
58.7680189051
 20
253.5473619513
 10
58.9478456393
 20
253.5430455513
  0
LINE
  5
4AC
100
AcDbEntity
  8
BEZUGSACHSEN
100
AcDbLine
 62
9
  6
CONTINUOUS
 10
68.4352514484
 20
267.0385352678
 11
66.6178435219
 21
267.0385352678
  0
LINE
  5
4AD
100
AcDbEntity
  8
BEZUGSACHSEN
100
AcDbLine
 62
9
  6
CONTINUOUS
 10
53.652659145
 20
267.0385352678
 11
51.8350066976
 21
267.0385352678
  0
LWPOLYLINE
  5
4AE
100
AcDbEntity
  8
0
100
AcDbPolyline
 62
7
  6
CONTINUOUS
 90
16
 70
0
 10
67.5144946728
 20
257.7735352671
 10
67.4371544549
 20
258.0321864553
 10
67.4176710261
 20
258.0986954652
 10
67.3982961724
 20
258.1666948574
 10
67.3790609359
 20
258.236466044
 10
67.3601892925
 20
258.308889049
 10
67.3416901809
 20
258.3843627673
 10
67.3240444301
 20
258.4645599187
 10
67.307326517
 20
258.5505836454
 10
67.2923446572
 20
258.6444656655
 10
67.279390303
 20
258.748171541
 10
67.2693647363
 20
258.862996613
 10
67.2629490119
 20
258.9902626052
 10
67.2602092174
 20
259.1321142014
 10
67.2611727497
 20
259.2909088677
 10
67.2651981803
 20
259.467632164
  0
LINE
  5
4AF
100
AcDbEntity
  8
BEZUGSACHSEN
100
AcDbLine
 62
9
  6
CONTINUOUS
 10
68.4352514484
 20
254.3084842746
 11
68.4352514484
 21
267.0385352678
  0
LWPOLYLINE
  5
4B0
100
AcDbEntity
  8
0
100
AcDbPolyline
 62
7
  6
CONTINUOUS
 90
43
 70
0
 10
66.6177934549
 20
254.3084842748
 10
66.6975488949
 20
254.3913532808
 10
66.7749890797
 20
254.4754880457
 10
66.8504625406
 20
254.5611844041
 10
66.922837016
 20
254.6473117934
 10
66.9911333832
 20
254.7327834254
 10
67.05547156
 20
254.8175613818
 10
67.1153843536
 20
254.9008797195
 10
67.1717218098
 20
254.9838144553
 10
67.2250742937
 20
255.067119312
 10
67.2755568375
 20
255.1511286882
 10
67.3234651291
 20
255.2364200035
 10
67.3687134109
 20
255.32306982
 10
67.4114689159
 20
255.4117020454
 10
67.4512025964
 20
255.501251072
 10
67.4876260323
 20
255.5913838651
 10
67.5203622195
 20
255.6804751265
 10
67.5488789316
 20
255.7667039385
 10
67.5737043439
 20
255.8503208964
 10
67.595048312
 20
255.9308066145
 10
67.61336763
 20
256.0087323877
 10
67.6290835731
 20
256.0843619099
 10
67.6424078855
 20
256.1581630805
 10
67.6535927129
 20
256.2304879937
 10
67.6628252664
 20
256.3019723718
 10
67.6703011711
 20
256.3731993371
 10
67.6761150058
 20
256.4446777852
 10
67.6804157827
 20
256.5170324341
 10
67.6831161388
 20
256.5904809631
 10
67.6841877845
 20
256.6654686774
 10
67.6835260902
 20
256.7419059589
 10
67.6810176679
 20
256.8198501596
 10
67.6766418664
 20
256.8992825172
 10
67.6703611591
 20
256.9802082051
 10
67.6621013402
 20
257.0625973167
 10
67.6518093352
 20
257.1464119672
 10
67.6393773263
 20
257.231663022
 10
67.6247034332
 20
257.3183274269
 10
67.6077043293
 20
257.406441991
 10
67.5882917276
 20
257.496026999
 10
67.566357603
 20
257.5870765378
 10
67.5417713088
 20
257.679620095
 10
67.5144946728
 20
257.7735352671
  0
LWPOLYLINE
  5
4B1
100
AcDbEntity
  8
0
100
AcDbPolyline
 62
7
  6
CONTINUOUS
 90
29
 70
0
 10
56.0352514484
 20
268.2209185329
 10
55.9643876223
 20
268.2179745587
 10
55.893851268
 20
268.2134920038
 10
55.8239619976
 20
268.2075464517
 10
55.7538628008
 20
268.199945486
 10
55.6830052632
 20
268.1905595199
 10
55.6107699323
 20
268.1791496362
 10
55.5364200758
 20
268.1654771612
 10
55.4597639657
 20
268.1492687185
 10
55.3804354302
 20
268.1302841731
 10
55.2982569928
 20
268.1080881148
 10
55.2126089313
 20
268.0821437363
 10
55.1245269138
 20
268.0524266717
 10
55.0343313113
 20
268.0185987994
 10
54.9436220893
 20
267.9812038123
 10
54.853972764
 20
267.9406656293
 10
54.7657622965
 20
267.8973570631
 10
54.6801264897
 20
267.8519179146
 10
54.5962969408
 20
267.8041541898
 10
54.5141534225
 20
267.7541999767
 10
54.4328816989
 20
267.7016196886
 10
54.3518895182
 20
267.6461569948
 10
54.2704614788
 20
267.5872262307
 10
54.1874982554
 20
267.5239543451
 10
54.103697915
 20
267.4567450403
 10
54.0189702802
 20
267.3853577839
 10
53.9345750693
 20
267.3109018894
 10
53.8517849454
 20
267.2346201203
 10
53.7702514478
 20
267.1561273407
  0
LINE
  5
4B2
100
AcDbEntity
  8
BEZUGSACHSEN
100
AcDbLine
 62
9
  6
CONTINUOUS
 10
66.5002514491
 20
268.9735352671
 11
64.2352514484
 21
268.9735352671
  0
LINE
  5
4B3
100
AcDbEntity
  8
BEZUGSACHSEN
100
AcDbLine
 62
9
  6
CONTINUOUS
 10
56.0352514484
 20
268.9735352671
 11
53.7702004566
 21
268.9735352671
  0
LWPOLYLINE
  5
4B4
100
AcDbEntity
  8
0
100
AcDbPolyline
 62
7
  6
CONTINUOUS
 90
25
 70
0
 10
66.5003024403
 20
267.1560772739
 10
66.363125843
 20
267.2863832978
 10
66.2258597418
 20
267.4073598057
 10
66.088057787
 20
267.5198606796
 10
65.9528019189
 20
267.6217817296
 10
65.8229870249
 20
267.7112277071
 10
65.6991318665
 20
267.7893231702
 10
65.5829434273
 20
267.8559985033
 10
65.473397305
 20
267.9131528426
 10
65.3700642694
 20
267.9621684046
 10
65.2723068083
 20
268.0041560341
 10
65.1792919014
 20
268.0403705678
 10
65.0908241467
 20
268.0714198613
 10
65.0064867174
 20
268.0980904486
 10
64.9259199372
 20
268.1209071844
 10
64.8486997563
 20
268.1404871078
 10
64.7744886224
 20
268.1571848445
 10
64.7029412564
 20
268.1714480013
 10
64.6335947627
 20
268.1834945019
 10
64.5660818668
 20
268.1935853004
 10
64.4997468312
 20
268.2019256035
 10
64.4339604964
 20
268.2087338706
 10
64.3682755321
 20
268.2141030111
 10
64.3019468144
 20
268.2181855575
 10
64.2352514484
 20
268.2209185329
  0
LWPOLYLINE
  5
4B5
100
AcDbEntity
  8
BEZUGSACHSEN
100
AcDbPolyline
 62
7
  6
CONTINUOUS
 90
13
 70
0
 10
64.2352514484
 20
272.3485718132
 10
64.3287541907
 20
272.356358061
 10
64.4161073885
 20
272.3769568479
 10
64.498023904
 20
272.4100682434
 10
64.5723651505
 20
272.4565920386
 10
64.6371579654
 20
272.51781839
 10
64.6926189385
 20
272.5922762701
 10
64.738048772
 20
272.679266106
 10
64.7742219668
 20
272.7777636909
 10
64.8014956951
 20
272.8869639048
 10
64.8204226453
 20
273.0055099154
 10
64.8317585313
 20
273.1315733667
 10
64.8352514484
 20
273.2657637106
  0
LINE
  5
4B6
100
AcDbEntity
  8
FASEN
100
AcDbLine
 62
7
  6
CONTINUOUS
 10
55.2898906237
 20
280.0777224049
 11
56.0352514484
 21
279.4955967908
  0
LINE
  5
4B7
100
AcDbEntity
  8
FASEN
100
AcDbLine
 62
7
  6
CONTINUOUS
 10
64.8352514484
 20
277.0109157181
 11
64.2352514484
 21
277.0109157181
  0
LINE
  5
4B8
100
AcDbEntity
  8
FASEN
100
AcDbLine
 62
7
  6
CONTINUOUS
 10
55.4352514484
 20
277.0109157181
 11
56.0352514484
 21
277.0109157181
  0
LINE
  5
4B9
100
AcDbEntity
  8
FASEN
100
AcDbLine
 62
7
  6
CONTINUOUS
 10
64.8352514484
 20
76.7951725134
 11
64.2352514484
 21
76.7951725134
  0
LINE
  5
4BA
100
AcDbEntity
  8
FASEN
100
AcDbLine
 62
7
  6
CONTINUOUS
 10
55.4352514484
 20
76.7951725134
 11
56.0352514484
 21
76.7951725134
  0
LINE
  5
4BB
100
AcDbEntity
  8
FASEN
100
AcDbLine
 62
7
  6
CONTINUOUS
 10
64.9806122732
 20
73.7283658266
 11
64.2352514484
 21
74.3104914408
  0
LWPOLYLINE
  5
4BC
100
AcDbEntity
  8
0
100
AcDbPolyline
 62
7
  6
CONTINUOUS
 90
7
 70
0
 10
54.1626413182
 20
94.3991595895
 10
54.16577986
 20
94.3112019809
 10
54.1684816433
 20
94.2204544016
 10
54.1703050508
 20
94.1242306516
 10
54.1712373197
 20
94.0204591465
 10
54.1708754126
 20
93.906519883
 10
54.1691475812
 20
93.7791256022
  0
LWPOLYLINE
  5
4BD
100
AcDbEntity
  8
0
100
AcDbPolyline
 62
7
  6
CONTINUOUS
 90
5
 70
0
 10
54.1407212878
 20
95.0072130386
 10
54.1428080049
 20
94.9171122282
 10
54.1454055517
 20
94.8285064556
 10
54.1485075191
 20
94.7415879808
 10
54.1626413182
 20
94.3991595895
  0
LWPOLYLINE
  5
4BE
100
AcDbEntity
  8
0
100
AcDbPolyline
 62
7
  6
CONTINUOUS
 90
8
 70
0
 10
54.1627455625
 20
92.7987095393
 10
54.1690182287
 20
92.4932518376
 10
54.1708272656
 20
92.3642424315
 10
54.171257465
 20
92.2493284464
 10
54.1703646277
 20
92.1449092322
 10
54.1685687828
 20
92.0480956907
 10
54.1658758175
 20
91.9568366985
 10
54.1627340446
 20
91.8683603377
  0
LINE
  5
4BF
100
AcDbEntity
  8
0
100
AcDbLine
 62
7
  6
CONTINUOUS
 10
54.1401118643
 20
95.0473138223
 11
54.1407212878
 21
95.0072130386
  0
LWPOLYLINE
  5
4C0
100
AcDbEntity
  8
0
100
AcDbPolyline
 62
7
  6
CONTINUOUS
 90
33
 70
0
 10
54.1398171887
 20
91.1776194232
 10
54.1404395912
 20
91.0791828823
 10
54.1429604871
 20
90.9830375488
 10
54.1472516621
 20
90.8893394663
 10
54.1532326782
 20
90.797893465
 10
54.160819178
 20
90.7085936402
 10
54.1699641905
 20
90.6212908804
 10
54.1806289007
 20
90.5358361172
 10
54.1927763301
 20
90.4520969312
 10
54.2063785124
 20
90.369936525
 10
54.2214333183
 20
90.2891998506
 10
54.2379241147
 20
90.2097706779
 10
54.2559288147
 20
90.1313850001
 10
54.2755144691
 20
90.053824911
 10
54.2967790666
 20
89.9768388165
 10
54.3198596787
 20
89.9001035839
 10
54.3447900923
 20
89.8236289628
 10
54.3716226231
 20
89.7473364505
 10
54.4004694437
 20
89.6711809107
 10
54.431401454
 20
89.5951733003
 10
54.4646201231
 20
89.5190922481
 10
54.5003090906
 20
89.4428283227
 10
54.5386545647
 20
89.3661018294
 10
54.5795873426
 20
89.2890974027
 10
54.6241475651
 20
89.2103669757
 10
54.6731016294
 20
89.1289450436
 10
54.7275810669
 20
89.0438053626
 10
54.789339042
 20
88.9531502471
 10
54.8577364897
 20
88.8587296416
 10
54.9332183271
 20
88.7608777908
 10
55.0140647444
 20
88.6620914104
 10
55.0982129982
 20
88.5650351189
 10
55.1863597816
 20
88.4690273377
  0
LINE
  5
4C1
100
AcDbEntity
  8
0
100
AcDbLine
 62
7
  6
CONTINUOUS
 10
54.1398171887
 20
95.0874865056
 11
54.1401118643
 21
95.0473138223
  0
LINE
  5
4C2
100
AcDbEntity
  8
BEZUGSACHSEN
100
AcDbLine
 62
9
  6
CONTINUOUS
 10
53.1352514484
 20
97.7960785911
 11
53.1352514484
 21
88.4690273377
  0
LINE
  5
4C3
100
AcDbEntity
  8
0
100
AcDbLine
 62
7
  6
CONTINUOUS
 10
54.140111869
 20
91.2177925233
 11
54.1398171887
 21
91.1776194232
  0
LINE
  5
4C4
100
AcDbEntity
  8
0
100
AcDbLine
 62
7
  6
CONTINUOUS
 10
54.1407212877
 20
91.257892882
 11
54.140111869
 21
91.2177925233
  0
LWPOLYLINE
  5
4C5
100
AcDbEntity
  8
0
100
AcDbPolyline
 62
7
  6
CONTINUOUS
 90
6
 70
0
 10
54.1691475812
 20
93.7791256022
 10
54.163003935
 20
93.4787687757
 10
54.1605049156
 20
93.3104548375
 10
54.1595617978
 20
93.14035244
 10
54.1603318595
 20
92.9695591481
 10
54.1627455625
 20
92.7987095393
  0
LWPOLYLINE
  5
4C6
100
AcDbEntity
  8
0
100
AcDbPolyline
 62
7
  6
CONTINUOUS
 90
3
 70
0
 10
54.1454236604
 20
91.4371526345
 10
54.1428158488
 20
91.3482606198
 10
54.1407212877
 20
91.257892882
  0
LWPOLYLINE
  5
4C7
100
AcDbEntity
  8
0
100
AcDbPolyline
 62
7
  6
CONTINUOUS
 90
3
 70
0
 10
54.1627340446
 20
91.8683603377
 10
54.1519538689
 20
91.6106081951
 10
54.1454236604
 20
91.4371526345
  0
LWPOLYLINE
  5
4C8
100
AcDbEntity
  8
0
100
AcDbPolyline
 62
7
  6
CONTINUOUS
 90
43
 70
0
 10
55.1863597816
 20
97.7960785911
 10
55.1428665337
 20
97.7493198636
 10
55.1002085712
 20
97.7022058081
 10
55.0584690633
 20
97.6548611856
 10
55.0174073954
 20
97.6069722983
 10
54.9769097949
 20
97.5583835345
 10
54.9367273645
 20
97.5087104952
 10
54.8965948056
 20
97.45754523
 10
54.856525824
 20
97.4047553516
 10
54.8164085431
 20
97.3500659899
 10
54.7764071401
 20
97.2934812185
 10
54.7365843652
 20
97.2348829986
 10
54.6971548382
 20
97.1743803905
 10
54.6582177226
 20
97.1118896031
 10
54.6201740476
 20
97.0479083308
 10
54.5833869785
 20
96.982861467
 10
54.5479753518
 20
96.9169540624
 10
54.5141034969
 20
96.8504380696
 10
54.4819286423
 20
96.7836339696
 10
54.4516289031
 20
96.7168683359
 10
54.4232250366
 20
96.6504029324
 10
54.3968613431
 20
96.5847006772
 10
54.37227576
 20
96.5194873302
 10
54.3492715122
 20
96.4546168504
 10
54.3278310027
 20
96.3901331985
 10
54.3079175096
 20
96.3261055598
 10
54.2893991794
 20
96.2622982765
 10
54.2721926173
 20
96.1986251368
 10
54.2561627155
 20
96.1346911877
 10
54.2411985955
 20
96.0701660975
 10
54.2272306089
 20
96.0047600158
 10
54.2141753289
 20
95.9381297535
 10
54.2020471552
 20
95.8701045463
 10
54.1908402486
 20
95.8004223133
 10
54.1805979656
 20
95.7290247244
 10
54.1713568171
 20
95.6557807138
 10
54.1631741571
 20
95.5806613273
 10
54.1561121583
 20
95.5036242969
 10
54.150223682
 20
95.4245959411
 10
54.1455682862
 20
95.3435091257
 10
54.1422260598
 20
95.260322673
 10
54.1402763475
 20
95.1749495553
 10
54.1398171887
 20
95.0874865056
  0
LINE
  5
4C9
100
AcDbEntity
  8
FASEN
100
AcDbLine
 62
7
  6
CONTINUOUS
 10
55.4352514484
 20
76.7951831768
 11
55.4352514484
 21
88.2182880143
  0
LINE
  5
4CA
100
AcDbEntity
  8
BEZUGSACHSEN
100
AcDbLine
 62
9
  6
CONTINUOUS
 10
55.4717258218
 20
100.1325529644
 11
55.4717258218
 21
98.0814446312
  0
LINE
  5
4CB
100
AcDbEntity
  8
FASEN
100
AcDbLine
 62
7
  6
CONTINUOUS
 10
56.0352514484
 20
74.3104914408
 11
56.0352514484
 21
93.1325529644
  0
LINE
  5
4CC
100
AcDbEntity
  8
FASEN
100
AcDbLine
 62
7
  6
CONTINUOUS
 10
55.2898906237
 20
73.7283658266
 11
55.3523922679
 21
75.1460041408
  0
LWPOLYLINE
  5
4CD
100
AcDbEntity
  8
FASEN
100
AcDbPolyline
 62
7
  6
CONTINUOUS
 90
3
 70
0
 10
55.3523922679
 20
75.1460041408
 10
55.3990190302
 20
76.1040030192
 10
55.4352514484
 20
76.7951725134
  0
LINE
  5
4CE
100
AcDbEntity
  8
BEZUGSACHSEN
100
AcDbLine
 62
9
  6
CONTINUOUS
 10
53.1352514484
 20
88.4690273377
 11
55.1863597816
 21
88.4690273377
  0
LINE
  5
4CF
100
AcDbEntity
  8
BEZUGSACHSEN
100
AcDbLine
 62
9
  6
CONTINUOUS
 10
65.0841431152
 20
88.4690273377
 11
67.1352514484
 21
88.4690273377
  0
LINE
  5
4D0
100
AcDbEntity
  8
BEZUGSACHSEN
100
AcDbLine
 62
9
  6
CONTINUOUS
 10
58.2605890738
 20
99.1270831686
 11
58.2599651013
 21
100.1325529644
  0
LINE
  5
4D1
100
AcDbEntity
  8
BEZUGSACHSEN
100
AcDbLine
 62
9
  6
CONTINUOUS
 10
58.1803179072
 20
99.1279872242
 11
58.1803179072
 21
100.1325529644
  0
LWPOLYLINE
  5
4D2
100
AcDbEntity
  8
BEZUGSACHSEN
100
AcDbPolyline
 62
9
  6
CONTINUOUS
 90
21
 70
0
 10
67.1352514484
 20
91.2572666173
 10
67.4285498518
 20
91.2807397259
 10
67.7145539634
 20
91.3496431511
 10
67.9863126252
 20
91.462251358
 10
68.2371503119
 20
91.6159192905
 10
68.4608378859
 20
91.806966527
 10
68.6518851223
 20
92.0306541009
 10
68.8055878043
 20
92.2814740819
 10
68.9181612617
 20
92.5532504495
 10
68.9868335624
 20
92.8392911676
 10
69.0099137663
 20
93.1325529644
 10
68.9868335624
 20
93.4258147612
 10
68.9181612617
 20
93.7118554794
 10
68.8055878043
 20
93.983631847
 10
68.6518851223
 20
94.2344518279
 10
68.4608378859
 20
94.4581394018
 10
68.2371503119
 20
94.6491866383
 10
67.9863126252
 20
94.8028545708
 10
67.7145539634
 20
94.9154627777
 10
67.4285498518
 20
94.9843662029
 10
67.1352514484
 20
95.0078393115
  0
LINE
  5
4D3
100
AcDbEntity
  8
BEZUGSACHSEN
100
AcDbLine
 62
9
  6
CONTINUOUS
 10
54.1407212442
 20
91.2578905898
 11
53.1352514484
 21
91.2572666173
  0
LINE
  5
4D4
100
AcDbEntity
  8
BEZUGSACHSEN
100
AcDbLine
 62
9
  6
CONTINUOUS
 10
67.1352514484
 20
91.1776194232
 11
66.1306857082
 21
91.1776194232
  0
LINE
  5
4D5
100
AcDbEntity
  8
BEZUGSACHSEN
100
AcDbLine
 62
9
  6
CONTINUOUS
 10
54.1398171887
 20
91.1776194232
 11
53.1352514484
 21
91.1776194232
  0
LINE
  5
4D6
100
AcDbEntity
  8
BEZUGSACHSEN
100
AcDbLine
 62
9
  6
CONTINUOUS
 10
67.1352514484
 20
91.2572666173
 11
66.1297816526
 21
91.2578905898
  0
LINE
  5
4D7
100
AcDbEntity
  8
BEZUGSACHSEN
100
AcDbLine
 62
7
  6
CENTER
 10
60.1352514484
 20
93.1325529644
 11
60.1352514484
 21
90.1324529644
  0
LINE
  5
4D8
100
AcDbEntity
  8
BEZUGSACHSEN
100
AcDbLine
 62
7
  6
CENTER
 10
60.1352514484
 20
93.1325529644
 11
60.1352514484
 21
96.1326529644
  0
LINE
  5
4D9
100
AcDbEntity
  8
BEZUGSACHSEN
100
AcDbLine
 62
7
  6
CENTER
 10
60.1352514484
 20
93.1325529644
 11
57.1351514484
 21
93.1325529644
  0
LINE
  5
4DA
100
AcDbEntity
  8
BEZUGSACHSEN
100
AcDbLine
 62
7
  6
CENTER
 10
60.1352514484
 20
93.1325529644
 11
63.1353514484
 21
93.1325529644
  0
LINE
  5
4DB
100
AcDbEntity
  8
BEZUGSACHSEN
100
AcDbLine
 62
9
  6
CONTINUOUS
 10
62.0901849896
 20
99.1279872242
 11
62.0901849896
 21
100.1325529644
  0
LINE
  5
4DC
100
AcDbEntity
  8
BEZUGSACHSEN
100
AcDbLine
 62
9
  6
CONTINUOUS
 10
62.0099137663
 20
99.1270831491
 11
62.0105377955
 21
100.1325529644
  0
LINE
  5
4DD
100
AcDbEntity
  8
BEZUGSACHSEN
100
AcDbLine
 62
9
  6
CONTINUOUS
 10
67.1352514484
 20
95.0078393115
 11
66.1297816331
 21
95.0072152823
  0
LINE
  5
4DE
100
AcDbEntity
  8
BEZUGSACHSEN
100
AcDbLine
 62
9
  6
CONTINUOUS
 10
67.1352514484
 20
95.0874865056
 11
66.1306857082
 21
95.0874865056
  0
LINE
  5
4DF
100
AcDbEntity
  8
BEZUGSACHSEN
100
AcDbLine
 62
9
  6
CONTINUOUS
 10
54.1398171887
 20
95.0874865056
 11
53.1352514484
 21
95.0874865056
  0
LINE
  5
4E0
100
AcDbEntity
  8
BEZUGSACHSEN
100
AcDbLine
 62
9
  6
CONTINUOUS
 10
54.1407212637
 20
95.0072152823
 11
53.1352514484
 21
95.0078393115
  0
LWPOLYLINE
  5
4E1
100
AcDbEntity
  8
BEZUGSACHSEN
100
AcDbPolyline
 62
9
  6
CONTINUOUS
 90
21
 70
0
 10
62.0105377955
 20
100.1325529644
 10
61.9870646869
 20
100.4258513678
 10
61.9181612617
 20
100.7118554794
 10
61.8055530548
 20
100.9836141412
 10
61.6518851223
 20
101.2344518279
 10
61.4608378859
 20
101.4581394018
 10
61.2371503119
 20
101.6491866383
 10
60.986330331
 20
101.8028893203
 10
60.7145539634
 20
101.9154627777
 10
60.4285132452
 20
101.9841350784
 10
60.1352514484
 20
102.0072152823
 10
59.8419896516
 20
101.9841350784
 10
59.5559489335
 20
101.9154627777
 10
59.2841725659
 20
101.8028893203
 10
59.0333525849
 20
101.6491866383
 10
58.809665011
 20
101.4581394018
 10
58.6186177745
 20
101.2344518279
 10
58.464949842
 20
100.9836141412
 10
58.3523416351
 20
100.7118554794
 10
58.2834382099
 20
100.4258513678
 10
58.2599651013
 20
100.1325529644
  0
LINE
  5
4E2
100
AcDbEntity
  8
FASEN
100
AcDbLine
 62
7
  6
CONTINUOUS
 10
64.8352514484
 20
76.7951725134
 11
64.9037274518
 21
75.4490582425
  0
LINE
  5
4E3
100
AcDbEntity
  8
FASEN
100
AcDbLine
 62
7
  6
CONTINUOUS
 10
64.9037274518
 20
75.4490582425
 11
64.9613348116
 21
74.1837488769
  0
LWPOLYLINE
  5
4E4
100
AcDbEntity
  8
BEZUGSACHSEN
100
AcDbPolyline
 62
9
  6
CONTINUOUS
 90
21
 70
0
 10
53.1352514484
 20
95.0078393115
 10
52.841953045
 20
94.9843662029
 10
52.5559489335
 20
94.9154627777
 10
52.2841902716
 20
94.8028545708
 10
52.0333525849
 20
94.6491866383
 10
51.809665011
 20
94.4581394018
 10
51.6186177745
 20
94.2344518279
 10
51.4649150925
 20
93.983631847
 10
51.3523416351
 20
93.7118554794
 10
51.2836693345
 20
93.4258147612
 10
51.2605891305
 20
93.1325529644
 10
51.2836693345
 20
92.8392911676
 10
51.3523416351
 20
92.5532504495
 10
51.4649150925
 20
92.2814740819
 10
51.6186177745
 20
92.0306541009
 10
51.809665011
 20
91.806966527
 10
52.0333525849
 20
91.6159192905
 10
52.2841902716
 20
91.462251358
 10
52.5559489335
 20
91.3496431511
 10
52.841953045
 20
91.2807397259
 10
53.1352514484
 20
91.2572666173
  0
LINE
  5
4E5
100
AcDbEntity
  8
FASEN
100
AcDbLine
 62
7
  6
CONTINUOUS
 10
64.9613348116
 20
74.1837488769
 11
64.9806122732
 21
73.7283658266
  0
LINE
  5
4E6
100
AcDbEntity
  8
FASEN
100
AcDbLine
 62
7
  6
CONTINUOUS
 10
64.2352514484
 20
74.3104914408
 11
64.2352514484
 21
93.1325529644
  0
LINE
  5
4E7
100
AcDbEntity
  8
BEZUGSACHSEN
100
AcDbLine
 62
9
  6
CONTINUOUS
 10
64.7987770751
 20
98.0814446312
 11
64.7987770751
 21
100.1325529644
  0
LINE
  5
4E8
100
AcDbEntity
  8
FASEN
100
AcDbLine
 62
7
  6
CONTINUOUS
 10
64.8352514484
 20
88.2182880143
 11
64.8352514484
 21
76.7951831686
  0
LWPOLYLINE
  5
4E9
100
AcDbEntity
  8
0
100
AcDbPolyline
 62
7
  6
CONTINUOUS
 90
9
 70
0
 10
61.4270319076
 20
99.1061586884
 10
61.3434143543
 20
99.1030273139
 10
61.2575996771
 20
99.1002612841
 10
61.167530312
 20
99.0981985864
 10
61.0718000819
 20
99.096835291
 10
60.9677862592
 20
99.0965975345
 10
60.8529026557
 20
99.0975451346
 10
60.7255189732
 20
99.0996189815
 10
60.4255626468
 20
99.1056390382
  0
LWPOLYLINE
  5
4EA
100
AcDbEntity
  8
0
100
AcDbPolyline
 62
7
  6
CONTINUOUS
 90
5
 70
0
 10
62.0099114076
 20
99.1270831229
 10
61.923524858
 20
99.1250988206
 10
61.8385303558
 20
99.1226367347
 10
61.7550897925
 20
99.1197049158
 10
61.4270319076
 20
99.1061586884
  0
LWPOLYLINE
  5
4EB
100
AcDbEntity
  8
0
100
AcDbPolyline
 62
7
  6
CONTINUOUS
 90
7
 70
0
 10
59.4964730919
 20
99.0987270598
 10
59.3772581469
 20
99.0970570616
 10
59.269888791
 20
99.0965516071
 10
59.1720249829
 20
99.0970849857
 10
59.0813090319
 20
99.0986380096
 10
58.9949410543
 20
99.1007946667
 10
58.911976838
 20
99.1035652472
  0
LINE
  5
4EC
100
AcDbEntity
  8
0
100
AcDbLine
 62
7
  6
CONTINUOUS
 10
62.0500123063
 20
99.1276925485
 11
62.0099114076
 21
99.1270831229
  0
LWPOLYLINE
  5
4ED
100
AcDbEntity
  8
0
100
AcDbPolyline
 62
7
  6
CONTINUOUS
 90
33
 70
0
 10
58.1803179072
 20
99.1279872242
 10
58.0818813663
 20
99.1273648216
 10
57.9857360328
 20
99.1248439257
 10
57.8920379503
 20
99.1205527507
 10
57.800591949
 20
99.1145717347
 10
57.7112921242
 20
99.1069852348
 10
57.6239893644
 20
99.0978402223
 10
57.5385346013
 20
99.0871755121
 10
57.4547954152
 20
99.0750280827
 10
57.372635009
 20
99.0614259004
 10
57.2918983346
 20
99.0463710945
 10
57.2124691619
 20
99.0298802982
 10
57.1340834841
 20
99.0118755981
 10
57.056523395
 20
98.9922899437
 10
56.9795373005
 20
98.9710253463
 10
56.902802068
 20
98.9479447341
 10
56.8263274468
 20
98.9230143205
 10
56.7500349345
 20
98.8961817897
 10
56.6738793947
 20
98.8673349691
 10
56.5978717843
 20
98.8364029588
 10
56.5217907321
 20
98.8031842897
 10
56.4455268067
 20
98.7674953222
 10
56.3688003134
 20
98.7291498481
 10
56.2917958867
 20
98.6882170703
 10
56.2130654597
 20
98.6436568477
 10
56.1316435276
 20
98.5947027834
 10
56.0465038466
 20
98.5402233459
 10
55.9558487311
 20
98.4784653708
 10
55.8614281256
 20
98.4100679232
 10
55.7635762748
 20
98.3345860857
 10
55.6647898944
 20
98.2537396684
 10
55.567733603
 20
98.1695914146
 10
55.4717258218
 20
98.0814446312
  0
LINE
  5
4EE
100
AcDbEntity
  8
0
100
AcDbLine
 62
7
  6
CONTINUOUS
 10
62.0901849896
 20
99.1279872242
 11
62.0500123063
 21
99.1276925485
  0
LINE
  5
4EF
100
AcDbEntity
  8
BEZUGSACHSEN
100
AcDbLine
 62
9
  6
CONTINUOUS
 10
53.1352514484
 20
97.7960785911
 11
55.1863597816
 21
97.7960785911
  0
LINE
  5
4F0
100
AcDbEntity
  8
BEZUGSACHSEN
100
AcDbLine
 62
9
  6
CONTINUOUS
 10
65.0841431152
 20
97.7960785911
 11
67.1352514484
 21
97.7960785911
  0
LINE
  5
4F1
100
AcDbEntity
  8
0
100
AcDbLine
 62
7
  6
CONTINUOUS
 10
58.2204910073
 20
99.1276925438
 11
58.1803179072
 21
99.1279872242
  0
LWPOLYLINE
  5
4F2
100
AcDbEntity
  8
0
100
AcDbPolyline
 62
7
  6
CONTINUOUS
 90
5
 70
0
 10
60.4255626468
 20
99.1056390382
 10
60.265026655
 20
99.1077618708
 10
60.1017506104
 20
99.1083814523
 10
59.9383493788
 20
99.1071212847
 10
59.4964730919
 20
99.0987270598
  0
LINE
  5
4F3
100
AcDbEntity
  8
0
100
AcDbLine
 62
7
  6
CONTINUOUS
 10
58.2605915514
 20
99.1270831217
 11
58.2204910073
 21
99.1276925438
  0
LWPOLYLINE
  5
4F4
100
AcDbEntity
  8
0
100
AcDbPolyline
 62
7
  6
CONTINUOUS
 90
3
 70
0
 10
58.4282744504
 20
99.1227554459
 10
58.3450964318
 20
99.1251498228
 10
58.2605915514
 20
99.1270831217
  0
LINE
  5
4F5
100
AcDbEntity
  8
0
100
AcDbLine
 62
7
  6
CONTINUOUS
 10
58.5907305289
 20
99.116773863
 11
58.4282744504
 21
99.1227554459
  0
LINE
  5
4F6
100
AcDbEntity
  8
0
100
AcDbLine
 62
7
  6
CONTINUOUS
 10
58.911976838
 20
99.1035652472
 11
58.5907305289
 21
99.116773863
  0
LWPOLYLINE
  5
4F7
100
AcDbEntity
  8
0
100
AcDbPolyline
 62
7
  6
CONTINUOUS
 90
7
 70
0
 10
66.107881695
 20
91.8654882689
 10
66.1047429993
 20
91.9532965175
 10
66.102046437
 20
92.0437200534
 10
66.1002195067
 20
92.1394392863
 10
66.0992651912
 20
92.2424167319
 10
66.0996023194
 20
92.3554929506
 10
66.1012730211
 20
92.4819613148
  0
LWPOLYLINE
  5
4F8
100
AcDbEntity
  8
0
100
AcDbPolyline
 62
7
  6
CONTINUOUS
 90
5
 70
0
 10
66.129781609
 20
91.2578928928
 10
66.1276973007
 20
91.3478997514
 10
66.1251029699
 20
91.4364275277
 10
66.1220042061
 20
91.5232880817
 10
66.107881695
 20
91.8654882689
  0
LWPOLYLINE
  5
4F9
100
AcDbEntity
  8
0
100
AcDbPolyline
 62
7
  6
CONTINUOUS
 90
8
 70
0
 10
66.1077812193
 20
93.4639401414
 10
66.1015496009
 20
93.7685192537
 10
66.0997014939
 20
93.8979500615
 10
66.0992466991
 20
94.0133870853
 10
66.100111421
 20
94.1183357203
 10
66.1018949267
 20
94.2154653162
 10
66.1045836381
 20
94.3069343669
 10
66.1077204459
 20
94.395527835
  0
LINE
  5
4FA
100
AcDbEntity
  8
0
100
AcDbLine
 62
7
  6
CONTINUOUS
 10
66.1303910278
 20
91.2177925233
 11
66.129781609
 21
91.2578928928
  0
LINE
  5
4FB
100
AcDbEntity
  8
0
100
AcDbLine
 62
7
  6
CONTINUOUS
 10
66.1306857082
 20
91.1776194232
 11
66.1303910278
 21
91.2177925233
  0
LWPOLYLINE
  5
4FC
100
AcDbEntity
  8
0
100
AcDbPolyline
 62
7
  6
CONTINUOUS
 90
45
 70
0
 10
66.1306857082
 20
95.0874865056
 10
66.1302806519
 20
95.1709839487
 10
66.1285133301
 20
95.2526273003
 10
66.1254667609
 20
95.3323435172
 10
66.1212093637
 20
95.4101757492
 10
66.115810993
 20
95.4861379011
 10
66.1093272828
 20
95.5602649161
 10
66.1018092773
 20
95.6325972428
 10
66.0933154238
 20
95.7031489666
 10
66.0838990127
 20
95.7719275781
 10
66.0736064434
 20
95.8390077652
 10
66.0624952168
 20
95.9043692513
 10
66.0505574351
 20
95.9683179243
 10
66.0378083246
 20
96.0310302871
 10
66.0241691317
 20
96.0928859418
 10
66.0095837141
 20
96.1541819484
 10
65.9939122266
 20
96.2153443392
 10
65.9770053577
 20
96.2768294001
 10
65.9587346601
 20
96.3388335932
 10
65.9388889249
 20
96.4018060919
 10
65.9174965619
 20
96.4654255963
 10
65.8945543515
 20
96.5295279189
 10
65.8699727796
 20
96.5940797148
 10
65.8436689499
 20
96.6590495788
 10
65.8156308773
 20
96.7242495269
 10
65.785740104
 20
96.7896477852
 10
65.7542669193
 20
96.8547326482
 10
65.7214436924
 20
96.9190306647
 10
65.6873671107
 20
96.9824287917
 10
65.65214733
 20
97.0447562373
 10
65.6160262185
 20
97.1057403054
 10
65.5792440065
 20
97.1650955093
 10
65.5419752556
 20
97.2227352743
 10
65.5044627805
 20
97.2784546391
 10
65.4667697565
 20
97.3323636575
 10
65.4290228045
 20
97.3844760197
 10
65.3912600807
 20
97.4348954315
 10
65.3535790147
 20
97.4836666562
 10
65.3159043583
 20
97.5309882639
 10
65.2782478072
 20
97.5769627534
 10
65.2404074949
 20
97.6219117193
 10
65.2022061108
 20
97.6661254399
 10
65.1635242781
 20
97.7097664127
 10
65.1241438329
 20
97.7531201301
 10
65.0841431152
 20
97.7960785911
  0
LINE
  5
4FD
100
AcDbEntity
  8
BEZUGSACHSEN
100
AcDbLine
 62
9
  6
CONTINUOUS
 10
67.1352514484
 20
88.4690273377
 11
67.1352514484
 21
97.7960785911
  0
LINE
  5
4FE
100
AcDbEntity
  8
0
100
AcDbLine
 62
7
  6
CONTINUOUS
 10
66.1303910325
 20
95.0473138223
 11
66.1306857082
 21
95.0874865056
  0
LINE
  5
4FF
100
AcDbEntity
  8
0
100
AcDbLine
 62
7
  6
CONTINUOUS
 10
66.1297816093
 20
95.0072130541
 11
66.1303910325
 21
95.0473138223
  0
LWPOLYLINE
  5
500
100
AcDbEntity
  8
0
100
AcDbPolyline
 62
7
  6
CONTINUOUS
 90
6
 70
0
 10
66.1012730211
 20
92.4819613148
 10
66.1074524521
 20
92.7827188763
 10
66.1099681413
 20
92.9521847901
 10
66.1109443499
 20
93.1229756665
 10
66.1101884953
 20
93.2939788178
 10
66.1077812193
 20
93.4639401414
  0
LWPOLYLINE
  5
501
100
AcDbEntity
  8
0
100
AcDbPolyline
 62
7
  6
CONTINUOUS
 90
3
 70
0
 10
66.125063306
 20
94.8274671853
 10
66.1276802057
 20
94.9165874768
 10
66.1297816093
 20
95.0072130541
  0
LWPOLYLINE
  5
502
100
AcDbEntity
  8
0
100
AcDbPolyline
 62
7
  6
CONTINUOUS
 90
3
 70
0
 10
66.1077204459
 20
94.395527835
 10
66.1185137428
 20
94.6536417859
 10
66.125063306
 20
94.8274671853
  0
LWPOLYLINE
  5
503
100
AcDbEntity
  8
0
100
AcDbPolyline
 62
7
  6
CONTINUOUS
 90
33
 70
0
 10
65.0841431152
 20
88.4690273377
 10
65.202952965
 20
88.5996913563
 10
65.3127077493
 20
88.7301647303
 10
65.41453882
 20
88.8612665394
 10
65.5057704225
 20
88.9885565757
 10
65.5838236596
 20
89.1073122871
 10
65.6510959631
 20
89.2185204363
 10
65.7084124805
 20
89.3213607678
 10
65.7576754727
 20
89.4172479045
 10
65.800556832
 20
89.5073641611
 10
65.8378911847
 20
89.5922608378
 10
65.8707026967
 20
89.6728176369
 10
65.8996701477
 20
89.7495715553
 10
65.9256521641
 20
89.8234189049
 10
65.948844447
 20
89.8943579846
 10
65.9695734119
 20
89.9625248404
 10
65.9881931636
 20
90.0284856493
 10
66.005015588
 20
90.0926091444
 10
66.0203411029
 20
90.1556804594
 10
66.0344592224
 20
90.2184091474
 10
66.0475283027
 20
90.281420094
 10
66.059741659
 20
90.3454525034
 10
66.0711159348
 20
90.4108777874
 10
66.0817142847
 20
90.4783145992
 10
66.0914621319
 20
90.5477461559
 10
66.1003176521
 20
90.6193970962
 10
66.1081925605
 20
90.6931431123
 10
66.1150038095
 20
90.768935886
 10
66.1206875372
 20
90.846755814
 10
66.1251747247
 20
90.9265753706
 10
66.1283880851
 20
91.0083538018
 10
66.1302534002
 20
91.0920514574
 10
66.1306857082
 20
91.1776194232
  0
LINE
  5
504
100
AcDbEntity
  8
BEZUGSACHSEN
100
AcDbLine
 62
9
  6
CONTINUOUS
 10
64.7987770751
 20
100.1325529644
 11
55.4717258218
 21
100.1325529644
  0
LWPOLYLINE
  5
505
100
AcDbEntity
  8
0
100
AcDbPolyline
 62
7
  6
CONTINUOUS
 90
33
 70
0
 10
64.7987770751
 20
98.0814446312
 10
64.6694168713
 20
98.1990951918
 10
64.5406311341
 20
98.3075850333
 10
64.4119475578
 20
98.4078270872
 10
64.2867821377
 20
98.4978937793
 10
64.1685310153
 20
98.5760277175
 10
64.0572223273
 20
98.6437822997
 10
63.9543925452
 20
98.7014480875
 10
63.8583916036
 20
98.7510906608
 10
63.7679857856
 20
98.7943960569
 10
63.6827916448
 20
98.8321183769
 10
63.6021181711
 20
98.8651992506
 10
63.5253252155
 20
98.8943787909
 10
63.4514671156
 20
98.9205458806
 10
63.3805657065
 20
98.943893653
 10
63.3125251781
 20
98.9647448637
 10
63.2466677213
 20
98.9834866818
 10
63.1825252752
 20
99.000458747
 10
63.1193140196
 20
99.0159538493
 10
63.0562809619
 20
99.0302652411
 10
62.9928368177
 20
99.043539287
 10
62.9282550534
 20
99.0559624606
 10
62.8621902701
 20
99.0675425699
 10
62.794028523
 20
99.0783372777
 10
62.7238637122
 20
99.0882592088
 10
62.6515582243
 20
99.0972549177
 10
62.5772101187
 20
99.1052427362
 10
62.5008723496
 20
99.1121416241
 10
62.4225583568
 20
99.1178911156
 10
62.3422902862
 20
99.1224254341
 10
62.2601107717
 20
99.1256692306
 10
62.1760593655
 20
99.1275510945
 10
62.0901849896
 20
99.1279872242
  0
LINE
  5
506
100
AcDbEntity
  8
FASEN
100
AcDbLine
 62
7
  6
CONTINUOUS
 10
55.2898906237
 20
73.7283658266
 11
56.0352514484
 21
74.3104914408
  0
ARC
  5
507
100
AcDbEntity
  8
0
100
AcDbCircle
 62
7
  6
CONTINUOUS
 10
77.1352514484
 20
211.7117396338
 40
3.0
100
AcDbArc
 50
0.0
 51
90.0
  0
ARC
  5
508
100
AcDbEntity
  8
0
100
AcDbCircle
 62
7
  6
CONTINUOUS
 10
43.1352514484
 20
211.7117396338
 40
3.0
100
AcDbArc
 50
90.0
 51
180.0
  0
ARC
  5
509
100
AcDbEntity
  8
0
100
AcDbCircle
 62
7
  6
CONTINUOUS
 10
43.1352514484
 20
137.7117396338
 40
3.0
100
AcDbArc
 50
180.0
 51
270.0
  0
ARC
  5
50A
100
AcDbEntity
  8
0
100
AcDbCircle
 62
7
  6
CONTINUOUS
 10
77.1352514484
 20
137.7117396338
 40
3.0
100
AcDbArc
 50
270.0
 51
360.0
  0
ARC
  5
50B
100
AcDbEntity
  8
BEZUGSACHSEN
100
AcDbCircle
 62
9
  6
CONTINUOUS
 10
51.8352514484
 20
260.6735352671
 40
6.3650254961
100
AcDbArc
 50
90.0022031715
 51
270.0022026449
  0
ARC
  5
50C
100
AcDbEntity
  8
BEZUGSACHSEN
100
AcDbCircle
 62
9
  6
CONTINUOUS
 10
51.8352514484
 20
260.6735352671
 40
2.9
100
AcDbArc
 50
90.0
 51
270.0
  0
ARC
  5
50D
100
AcDbEntity
  8
BEZUGSACHSEN
100
AcDbCircle
 62
9
  6
CONTINUOUS
 10
60.1352514484
 20
252.3735352671
 40
6.3650254961
100
AcDbArc
 50
179.997796818
 51
360.0
  0
ARC
  5
50E
100
AcDbEntity
  8
BEZUGSACHSEN
100
AcDbCircle
 62
9
  6
CONTINUOUS
 10
60.1352514484
 20
252.3735352671
 40
2.9
100
AcDbArc
 50
180.0
 51
360.0
  0
ARC
  5
50F
100
AcDbEntity
  8
RUNDUNGEN
100
AcDbCircle
 62
7
  6
CONTINUOUS
 10
60.1352514484
 20
260.6735352671
 40
20.0
100
AcDbArc
 50
104.0204407441
 51
75.9795592559
  0
ARC
  5
510
100
AcDbEntity
  8
FASEN
100
AcDbCircle
 62
7
  6
CONTINUOUS
 10
60.1352514484
 20
260.6735352671
 40
20.0
100
AcDbArc
 50
104.0204407441
 51
75.9795592559
  0
ARC
  5
511
100
AcDbEntity
  8
FASEN
100
AcDbCircle
 62
9
  6
CONTINUOUS
 10
60.1352514484
 20
260.6735352671
 40
17.0
100
AcDbArc
 50
106.0496809268
 51
73.950319081
  0
ARC
  5
512
100
AcDbEntity
  8
0
100
AcDbCircle
 62
7
  6
CONTINUOUS
 10
60.1352514484
 20
260.6735352671
 40
9.085
100
AcDbArc
 50
314.4755950139
 51
315.5244060072
  0
ARC
  5
513
100
AcDbEntity
  8
0
100
AcDbCircle
 62
7
  6
CONTINUOUS
 10
60.1352514484
 20
260.6735352671
 40
9.085
100
AcDbArc
 50
44.4755950138
 51
45.5244264334
  0
ARC
  5
514
100
AcDbEntity
  8
0
100
AcDbCircle
 62
7
  6
CONTINUOUS
 10
60.1352514484
 20
260.6735352671
 40
9.085
100
AcDbArc
 50
134.4760671459
 51
135.5244060019
  0
ARC
  5
515
100
AcDbEntity
  8
0
100
AcDbCircle
 62
7
  6
CONTINUOUS
 10
60.1352514484
 20
260.6735352671
 40
9.085
100
AcDbArc
 50
224.4755950118
 51
225.5239543016
  0
ARC
  5
516
100
AcDbEntity
  8
BEZUGSACHSEN
100
AcDbCircle
 62
9
  6
CONTINUOUS
 10
68.4352514484
 20
260.6735352671
 40
6.3650254961
100
AcDbArc
 50
269.9977973551
 51
90.0
  0
ARC
  5
517
100
AcDbEntity
  8
BEZUGSACHSEN
100
AcDbCircle
 62
9
  6
CONTINUOUS
 10
60.1352514484
 20
268.9735352671
 40
6.3650254961
100
AcDbArc
 50
0.0024914024
 51
42.4038321359
  0
ARC
  5
518
100
AcDbEntity
  8
BEZUGSACHSEN
100
AcDbCircle
 62
9
  6
CONTINUOUS
 10
60.1352514484
 20
268.9735352671
 40
6.3650254961
100
AcDbArc
 50
137.5961678641
 51
180.0024914142
  0
ARC
  5
519
100
AcDbEntity
  8
0
100
AcDbCircle
 62
7
  6
CONTINUOUS
 10
60.1352514484
 20
260.6735352671
 40
4.1
100
AcDbArc
 50
180.0
 51
360.0
  0
ARC
  5
51A
100
AcDbEntity
  8
BEZUGSACHSEN
100
AcDbCircle
 62
9
  6
CONTINUOUS
 10
68.4352514484
 20
260.6735352671
 40
2.9
100
AcDbArc
 50
270.0
 51
90.0
  0
ARC
  5
51B
100
AcDbEntity
  8
RUNDUNGEN
100
AcDbCircle
 62
7
  6
CONTINUOUS
 10
60.1352514484
 20
93.1325529644
 40
20.0
100
AcDbArc
 50
74.8219105169
 51
255.9795592559
  0
ARC
  5
51C
100
AcDbEntity
  8
RUNDUNGEN
100
AcDbCircle
 62
7
  6
CONTINUOUS
 10
60.1352514484
 20
93.1325529644
 40
20.0
100
AcDbArc
 50
72.0562638642
 51
72.2890204513
  0
ARC
  5
51D
100
AcDbEntity
  8
FASEN
100
AcDbCircle
 62
7
  6
CONTINUOUS
 10
60.1352514484
 20
93.1325529644
 40
20.0
100
AcDbArc
 50
284.0204407441
 51
255.9795592559
  0
ARC
  5
51E
100
AcDbEntity
  8
FASEN
100
AcDbCircle
 62
9
  6
CONTINUOUS
 10
60.1352514484
 20
93.1325529644
 40
17.0
100
AcDbArc
 50
286.0496807326
 51
253.9503192597
  0
ARC
  5
51F
100
AcDbEntity
  8
0
100
AcDbCircle
 62
7
  6
CONTINUOUS
 10
60.1352514484
 20
93.1325529644
 40
6.8
100
AcDbArc
 50
133.2995464702
 51
136.7004535298
  0
ARC
  5
520
100
AcDbEntity
  8
0
100
AcDbCircle
 62
7
  6
CONTINUOUS
 10
60.1352514484
 20
93.1325529644
 40
6.8
100
AcDbArc
 50
43.2995464702
 51
46.7004535298
  0
ARC
  5
521
100
AcDbEntity
  8
0
100
AcDbCircle
 62
7
  6
CONTINUOUS
 10
60.1352514484
 20
93.1325529644
 40
6.8
100
AcDbArc
 50
313.7233090053
 51
316.7004535298
  0
ARC
  5
522
100
AcDbEntity
  8
0
100
AcDbCircle
 62
7
  6
CONTINUOUS
 10
60.1352514484
 20
93.1325529644
 40
6.8
100
AcDbArc
 50
223.2995464702
 51
226.2766909947
  0
ARC
  5
523
100
AcDbEntity
  8
BEZUGSACHSEN
100
AcDbCircle
 62
9
  6
CONTINUOUS
 10
53.1352514484
 20
93.1325529644
 40
4.6635256267
100
AcDbArc
 50
90.0
 51
270.0
  0
ARC
  5
524
100
AcDbEntity
  8
BEZUGSACHSEN
100
AcDbCircle
 62
9
  6
CONTINUOUS
 10
67.1352514484
 20
93.1325529644
 40
4.6635256267
100
AcDbArc
 50
270.0
 51
90.0
  0
ARC
  5
525
100
AcDbEntity
  8
BEZUGSACHSEN
100
AcDbCircle
 62
9
  6
CONTINUOUS
 10
60.1352514484
 20
100.1325529644
 40
4.6635256267
100
AcDbArc
 50
0.0
 51
180.0
  0
ARC
  5
526
100
AcDbEntity
  8
0
100
AcDbCircle
 62
7
  6
CONTINUOUS
 10
60.1352514484
 20
93.1325529644
 40
4.1
100
AcDbArc
 50
0.0
 51
180.0
  0
ARC
  5
527
100
AcDbEntity
  8
BEZUGSACHSEN
100
AcDbCircle
 62
9
  6
CONTINUOUS
 10
53.1352514484
 20
93.1325529644
 40
1.9549335412
100
AcDbArc
 50
90.0
 51
270.0
  0
ARC
  5
528
100
AcDbEntity
  8
BEZUGSACHSEN
100
AcDbCircle
 62
9
  6
CONTINUOUS
 10
67.1352514484
 20
93.1325529644
 40
1.9549335412
100
AcDbArc
 50
270.0
 51
90.0
  0
ARC
  5
529
100
AcDbEntity
  8
BEZUGSACHSEN
100
AcDbCircle
 62
9
  6
CONTINUOUS
 10
60.1352514484
 20
100.1325529644
 40
1.9549335412
100
AcDbArc
 50
0.0
 51
180.0
  0
ELLIPSE
  5
52A
100
AcDbEntity
  8
FASEN
100
AcDbEllipse
 62
7
  6
CONTINUOUS
 10
60.7521602663
 20
93.1325529644
 30
0.0
 11
6.4068430364
 21
-0.0
 31
0.0
 40
0.9953534142
 41
-0.9960144726
 42
-0.879804802
  0
ELLIPSE
  5
52B
100
AcDbEntity
  8
FASEN
100
AcDbEllipse
 62
7
  6
CONTINUOUS
 10
59.5183426305
 20
93.1325529644
 30
0.0
 11
6.4068430364
 21
0.0
 31
0.0
 40
0.9953534142
 41
-2.2617878516
 42
-2.145578181
  0
ENDSEC
  0
SECTION
  2
OBJECTS
  0
DICTIONARY
  5
C
100
AcDbDictionary
280
0
281
1
  3
ACAD_GROUP
350
D
  3
ACAD_MLINESTYLE
350
17
  3
ACAD_LAYOUT
350
1A
  3
ACAD_PLOTSETTINGS
350
19
  3
ACAD_PLOTSTYLENAME
350
E
  3
ACAD_TABLESTYLE
350
       52C
  0
DICTIONARY
  5
D
102
{ACAD_REACTORS
330
C
102
}
100
AcDbDictionary
280
0
281
1
  0
ACDBDICTIONARYWDFLT
  5
E
102
{ACAD_REACTORS
330
C
102
}
100
AcDbDictionary
281
1
  3
Normal
350
F
100
AcDbDictionaryWithDefault
340
F
  0
DICTIONARY
  5
17
102
{ACAD_REACTORS
330
C
102
}
100
AcDbDictionary
280
0
281
1
  3
Standard
350
18
  0
DICTIONARY
  5
52C
330
C
100
AcDbDictionary
281
1
  3
Standard
350
       52F
  3
Standard1
350
       530
  0
DICTIONARY
  5
19
102
{ACAD_REACTORS
330
C
102
}
100
AcDbDictionary
281
1
  0
DICTIONARY
  5
1A
102
{ACAD_REACTORS
330
C
102
}
100
AcDbDictionary
281
1
  3
Model
350
52D
  3
Layout1
350
52E
  0
ACDBPLACEHOLDER
  5
F
102
{ACAD_REACTORS
330
E
102
}
  0
MLINESTYLE
  5
18
102
{ACAD_REACTORS
330
17
102
}
100
AcDbMlineStyle
  2
STANDARD
 70
0
  3

 62
256
 51
90.0
 52
90.0
 71
2
 49
0.5
 62
256
  6
BYLAYER
 49
-0.5
 62
256
  6
BYLAYER
  0
LAYOUT
  5
52D
102
{ACAD_REACTORS
330
1A
102
}
100
AcDbPlotSettings
  1

  2
none_device
  4

  6

 40
0.0
 41
0.0
 42
0.0
 43
0.0
 44
210.0
 45
297.0
 46
0.0
 47
0.0
 48
0.0
 49
0.0
140
0.0
141
0.0
142
1.0
143
1.0
 70
1024
 72
1
 73
0
 74
0
  7

 75
0
147
1.0
148
0.0
149
0.0
100
AcDbLayout
  1
Model
 70
0
 71
0
 10
0.0
 20
0.0
 11
210.0
 21
297.0
 12
0.0
 22
0.0
 32
0.0
 14
0.0
 24
0.0
 34
0.0
 15
0.0
 25
0.0
 35
0.0
146
0.0
 13
0.0
 23
0.0
 33
0.0
 16
1.0
 26
0.0
 36
0.0
 17
0.0
 27
1.0
 37
0.0
 76
0
330
20E
345
0
346
0
  0
LAYOUT
  5
52E
102
{ACAD_REACTORS
330
1A
102
}
100
AcDbPlotSettings
  1

  2
none_device
  4

  6

 40
0.0
 41
0.0
 42
0.0
 43
0.0
 44
210.0
 45
297.0
 46
0.0
 47
0.0
 48
0.0
 49
0.0
140
0.0
141
0.0
142
1.0
143
1.0
 70
0
 72
1
 73
0
 74
0
  7

 75
0
147
1.0
148
0.0
149
0.0
100
AcDbLayout
  1
Layout1
 70
0
 71
1
 10
0.0
 20
0.0
 11
210.0
 21
297.0
 12
0.0
 22
0.0
 32
0.0
 14
0.0
 24
0.0
 34
0.0
 15
0.0
 25
0.0
 35
0.0
146
0.0
 13
0.0
 23
0.0
 33
0.0
 16
1.0
 26
0.0
 36
0.0
 17
0.0
 27
1.0
 37
0.0
 76
0
330
20F
345
0
346
0
  0
TABLESTYLE
  5
52F
102
{ACAD_REACTORS
330
52C
330
302
102
}
330
52C
100
AcDbTableStyle
  3
Standard
 70
0
 71
0
 40
0.06
 41
0.06
280
1
281
1
  7
Standard
140
0.18
170
1
 62
0
 63
7
283
0
  7
Standard
140
0.18
170
1
 62
0
 63
7
283
0
  7
Standard
140
0.18
170
1
 62
0
 63
7
283
0
  0
TABLESTYLE
  5
530
102
{ACAD_REACTORS
330
52C
102
}
330
52C
100
AcDbTableStyle
  3
Standard1
 70
1
 71
0
 40
0.06
 41
0.06
280
1
281
1
  7
Standard
140
0.18
170
1
 62
0
 63
7
283
0
  7
Standard
140
0.18
170
1
 62
0
 63
7
283
0
  7
Standard
140
0.18
170
1
 62
0
 63
7
283
0
  0
ENDSEC
  0
EOF
