999
DXF file: st-nzpfbp.dxf
999
Pro/ENGINEER 2009220 by Parametric Technology Corporation
  0
SECTION
  2
HEADER
  9
$ACADVER
  1
AC1021
  9
$DWGCODEPAGE
  3
ANSI_1252
  9
$EXTMAX
 10
210.0
 20
297.0
 30
0.0
  9
$EXTMIN
 10
0.0
 20
0.0
 30
0.0
  9
$LIMMIN
 10
0.0
 20
0.0
  9
$LIMMAX
 10
210.0
 20
297.0
  9
$VIEWCTR
 10
105.0
 20
148.5
  9
$VIEWSIZE
 40
297.0
  9
$CLAYER
  8
0
  9
$LTSCALE
 40
19.36
  9
$CELTYPE
  6
BYLAYER
  9
$DIMSCALE
 40
1.0
  9
$DIMASZ
 40
3.5
  9
$DIMEXO
 40
2.2
  9
$DIMDLI
 40
13.376
  9
$DIMEXE
 40
6.336
  9
$DIMCEN
 40
3.168
  9
$DIMLFAC
 40
1.0
  9
$DIMBLK
  1
_FILLED
  9
$DIMTXT
 40
3.5
  9
$DIMTOL
 70
1
  9
$DIMLIM
 70
0
  9
$DIMTFAC
 40
1.0
  9
$DIMTP
 40
0.005
  9
$DIMTM
 40
0.005
  9
$PDMODE
 70
3
  9
$PDSIZE
 40
0.3125
  9
$HANDSEED
  5
4B2
  9
$TILEMODE
 70
1
  9
$MEASUREMENT
 70
1
  9
$INSUNITS
 70
4
  0
ENDSEC
  0
SECTION
  2
CLASSES
  0
CLASS
  1
ACDBDICTIONARYWDFLT
  2
AcDbDictionaryWithDefault
  3
AutoCAD 2000
 90
0
 91
1
280
0
281
0
  0
CLASS
  1
ACDBPLACEHOLDER
  2
AcDbPlaceHolder
  3
AutoCAD 2000
 90
0
 91
1
280
0
281
0
  0
CLASS
  1
LAYOUT
  2
AcDbLayout
  3
AutoCAD 2000
 90
0
 91
0
280
0
281
0
  0
CLASS
  1
TABLESTYLE
  2
AcDbTableStyle
  3
ObjectDBX Classes
 90
2047
 91
1
280
0
281
0
  0
CLASS
  1
ACAD_TABLE
  2
AcDbTable
  3
ObjectDBX Classes
 90
1025
 91
1
280
0
281
1
  0
ENDSEC
  0
SECTION
  2
TABLES
  0
TABLE
  2
VPORT
  5
8
100
AcDbSymbolTable
 70
2
  0
VPORT
  5
1F4
100
AcDbSymbolTableRecord
100
AcDbViewportTableRecord
  2
*ACTIVE
 70
0
 10
0.0
 20
0.0
 11
1.0
 21
1.0
 12
105.0
 22
148.5
 13
0.0
 23
0.0
 14
1.0
 24
1.0
 15
0.0
 25
0.0
 16
0.0
 26
0.0
 36
1.0
 17
0.0
 27
0.0
 37
0.0
 40
297.0
 41
0.7070707071
 42
50.0
 43
0.0
 44
0.0
 50
0.0
 51
0.0
 71
0
 72
100
 73
1
 74
1
 75
0
 76
0
 77
0
 78
0
  0
ENDTAB
  0
TABLE
  2
LTYPE
  5
5
100
AcDbSymbolTable
 70
6
  0
LTYPE
  5
14
100
AcDbSymbolTableRecord
100
AcDbLinetypeTableRecord
  2
BYBLOCK
 70
0
  3

 72
65
 73
0
 40
0.0
  0
LTYPE
  5
15
100
AcDbSymbolTableRecord
100
AcDbLinetypeTableRecord
  2
BYLAYER
 70
0
  3

 72
65
 73
0
 40
0.0
  0
LTYPE
  5
16
100
AcDbSymbolTableRecord
100
AcDbLinetypeTableRecord
  2
CONTINUOUS
 70
64
  3
Solid line
 72
65
 73
0
 40
0.0
  0
LTYPE
  5
1F5
100
AcDbSymbolTableRecord
100
AcDbLinetypeTableRecord
  2
CENTER
 70
64
  3
____ _ ____ _ ____ _ ____ _ ____ _ ____ _ ____
 72
65
 73
4
 40
0.6
 49
0.375
 74
0
 49
-0.075
 74
0
 49
0.075
 74
0
 49
-0.075
 74
0
  0
LTYPE
  5
1F6
100
AcDbSymbolTableRecord
100
AcDbLinetypeTableRecord
  2
HIDDEN
 70
64
  3
- - - - - - - - - - - - - - - - - - - -
 72
65
 73
2
 40
0.2
 49
0.1
 74
0
 49
-0.1
 74
0
  0
LTYPE
  5
1F7
100
AcDbSymbolTableRecord
100
AcDbLinetypeTableRecord
  2
PHANTOM
 70
64
  3
_____ _ _ _____ _ _ _____ _ _ _____
 72
65
 73
6
 40
0.8
 49
0.45
 74
0
 49
-0.05
 74
0
 49
0.1
 74
0
 49
-0.05
 74
0
 49
0.1
 74
0
 49
-0.05
 74
0
  0
LTYPE
  5
1F8
100
AcDbSymbolTableRecord
100
AcDbLinetypeTableRecord
  2
DOT
 70
64
  3
. . . . . . . . . . . . . . . . . . . .
 72
65
 73
2
 40
0.2
 49
0.1
 74
0
 49
-0.1
 74
0
  0
LTYPE
  5
1F9
100
AcDbSymbolTableRecord
100
AcDbLinetypeTableRecord
  2
DASHED
 70
64
  3
- - - - - - - - - - - - - - - - - - - -
 72
65
 73
2
 40
0.2
 49
0.1
 74
0
 49
-0.1
 74
0
  0
ENDTAB
  0
TABLE
  2
LAYER
  5
2
100
AcDbSymbolTable
 70
36
  0
LAYER
  5
10
100
AcDbSymbolTableRecord
100
AcDbLayerTableRecord
  2
0
 70
0
 62
7
  6
CONTINUOUS
370
-3
390
F
  0
LAYER
  5
1FA
100
AcDbSymbolTableRecord
100
AcDbLayerTableRecord
  2
DEFAULT_1
 70
0
 62
7
  6
CENTER
370
-3
390
F
  0
LAYER
  5
1FB
100
AcDbSymbolTableRecord
100
AcDbLayerTableRecord
  2
DEFAULT_2
 70
0
 62
8
  6
HIDDEN
370
-3
390
F
  0
LAYER
  5
1FC
100
AcDbSymbolTableRecord
100
AcDbLayerTableRecord
  2
DEFAULT_3
 70
0
 62
7
  6
PHANTOM
370
-3
390
F
  0
LAYER
  5
1FD
100
AcDbSymbolTableRecord
100
AcDbLayerTableRecord
  2
BEZUGSACHSEN
 70
0
 62
7
  6
CONTINUOUS
370
-3
390
F
  0
LAYER
  5
1FE
100
AcDbSymbolTableRecord
100
AcDbLayerTableRecord
  2
BEZUGSEBENEN
 70
0
 62
7
  6
CONTINUOUS
370
-3
390
F
  0
LAYER
  5
1FF
100
AcDbSymbolTableRecord
100
AcDbLayerTableRecord
  2
BG_STARTBEZUEGE
 70
0
 62
7
  6
CONTINUOUS
370
-3
390
F
  0
LAYER
  5
200
100
AcDbSymbolTableRecord
100
AcDbLayerTableRecord
  2
BOHRUNGEN
 70
0
 62
7
  6
CONTINUOUS
370
-3
390
F
  0
LAYER
  5
201
100
AcDbSymbolTableRecord
100
AcDbLayerTableRecord
  2
FLAECHEN
 70
0
 62
7
  6
CONTINUOUS
370
-3
390
F
  0
LAYER
  5
202
100
AcDbSymbolTableRecord
100
AcDbLayerTableRecord
  2
GEWINDE
 70
0
 62
7
  6
CONTINUOUS
370
-3
390
F
  0
LAYER
  5
203
100
AcDbSymbolTableRecord
100
AcDbLayerTableRecord
  2
HILFEN
 70
0
 62
7
  6
CONTINUOUS
370
-3
390
F
  0
LAYER
  5
204
100
AcDbSymbolTableRecord
100
AcDbLayerTableRecord
  2
KURVEN
 70
0
 62
7
  6
CONTINUOUS
370
-3
390
F
  0
LAYER
  5
205
100
AcDbSymbolTableRecord
100
AcDbLayerTableRecord
  2
PLAZIERUNG
 70
0
 62
7
  6
CONTINUOUS
370
-3
390
F
  0
LAYER
  5
206
100
AcDbSymbolTableRecord
100
AcDbLayerTableRecord
  2
RUNDUNGEN
 70
0
 62
7
  6
CONTINUOUS
370
-3
390
F
  0
LAYER
  5
207
100
AcDbSymbolTableRecord
100
AcDbLayerTableRecord
  2
TEIL_STARTBEZUEGE
 70
0
 62
7
  6
CONTINUOUS
370
-3
390
F
  0
LAYER
  5
208
100
AcDbSymbolTableRecord
100
AcDbLayerTableRecord
  2
ZEICHNUNGSBEMASSUNGEN
 70
0
 62
7
  6
CONTINUOUS
370
-3
390
F
  0
ENDTAB
  0
TABLE
  2
STYLE
  5
3
100
AcDbSymbolTable
 70
1
  0
STYLE
  5
11
100
AcDbSymbolTableRecord
100
AcDbTextStyleTableRecord
  2
STANDARD
 70
0
 40
0.0
 41
0.7
 50
0.0
 71
0
 42
0.2
  3
txt
  4

  0
STYLE
  5
209
100
AcDbSymbolTableRecord
100
AcDbTextStyleTableRecord
  2
TEXTSTYLE_1
 70
0
 40
0.0
 41
0.8
 50
0.0
 71
0
 42
0.2
  3
gdt
  4

  0
STYLE
  5
20A
100
AcDbSymbolTableRecord
100
AcDbTextStyleTableRecord
  2
TEXTSTYLE_2
 70
0
 40
0.0
 41
0.8
 50
0.0
 71
0
 42
0.2
  3
txt
  4

  0
ENDTAB
  0
TABLE
  2
VIEW
  5
6
100
AcDbSymbolTable
 70
0
  0
ENDTAB
  0
TABLE
  2
UCS
  5
7
100
AcDbSymbolTable
 70
0
  0
ENDTAB
  0
TABLE
  2
APPID
  5
9
100
AcDbSymbolTable
 70
1
  0
APPID
  5
20B
100
AcDbSymbolTableRecord
100
AcDbRegAppTableRecord
  2
ACAD
 70
0
  0
ENDTAB
  0
TABLE
  2
BLOCK_RECORD
  5
1
100
AcDbSymbolTable
 70
0
  0
BLOCK_RECORD
  5
20C
100
AcDbSymbolTableRecord
100
AcDbBlockTableRecord
  2
*Model_Space
  0
BLOCK_RECORD
  5
20D
100
AcDbSymbolTableRecord
100
AcDbBlockTableRecord
  2
*Paper_Space
  0
BLOCK_RECORD
  5
20E
100
AcDbSymbolTableRecord
100
AcDbBlockTableRecord
  2
_FILLED
  0
BLOCK_RECORD
  5
20F
100
AcDbSymbolTableRecord
100
AcDbBlockTableRecord
  2
*D0
  0
BLOCK_RECORD
  5
210
100
AcDbSymbolTableRecord
100
AcDbBlockTableRecord
  2
*D1
  0
BLOCK_RECORD
  5
211
100
AcDbSymbolTableRecord
100
AcDbBlockTableRecord
  2
NEUTRIK_LOGO_BL0
  0
BLOCK_RECORD
  5
212
100
AcDbSymbolTableRecord
100
AcDbBlockTableRecord
  2
*T1
  0
ENDTAB
  0
TABLE
  2
DIMSTYLE
  5
A
100
AcDbSymbolTable
 70
1
100
AcDbDimStyleTable
 71
0
  0
DIMSTYLE
105
213
100
AcDbSymbolTableRecord
100
AcDbDimStyleTableRecord
  2
STANDARD
 70
0
  3

  4

 40
1.0
 41
3.5
 42
0.0625
 43
0.38
 44
0.18
 45
0.0
 46
0.0
 47
0.005
 48
0.005
140
3.5
141
0.09
142
0.0
143
25.4
144
1.0
145
0.0
146
1.0
147
0.09
 71
1.0
 72
0.0
 73
0
 74
0
 75
0
 76
0
 77
1
 78
8
170
0
171
2
172
0
173
0
174
0
175
0
176
0
177
0
178
5
270
2
271
3
272
3
273
2
274
2
275
0
280
0
281
0
282
0
283
1
284
8
285
0
286
0
287
3
288
0
340
11
341
20E
342
20E
343
20E
344
20E
  0
DIMSTYLE
105
214
100
AcDbSymbolTableRecord
100
AcDbDimStyleTableRecord
  2
DIMSTYLE_1
 70
0
  3

  4

 40
1.0
 41
3.5
 42
0.0625
 43
0.38
 44
0.18
 45
0.0
 46
0.0
 47
0.3
 48
0.3
140
3.5
141
0.09
142
0.0
143
25.4
144
1.0
145
0.0
146
1.0
147
0.09
 71
0.0
 72
0.0
 73
0
 74
0
 75
0
 76
0
 77
1
 78
8
170
0
171
2
172
0
173
0
174
0
175
0
176
0
177
0
178
5
270
2
271
3
272
3
273
2
274
2
275
0
280
0
281
0
282
0
283
1
284
8
285
0
286
0
287
3
288
0
340
11
341
20E
342
20E
343
20E
344
20E
  0
DIMSTYLE
105
215
100
AcDbSymbolTableRecord
100
AcDbDimStyleTableRecord
  2
DIMSTYLE_2
 70
0
  3

  4

 40
1.0
 41
3.5
 42
0.0625
 43
0.38
 44
0.18
 45
0.0
 46
0.0
 47
0.5
 48
0.5
140
3.5
141
0.09
142
0.0
143
25.4
144
1.0
145
0.0
146
1.0
147
0.09
 71
0.0
 72
0.0
 73
0
 74
0
 75
0
 76
0
 77
1
 78
8
170
0
171
2
172
0
173
0
174
0
175
0
176
0
177
0
178
5
270
2
271
3
272
3
273
2
274
2
275
0
280
0
281
0
282
0
283
1
284
8
285
0
286
0
287
3
288
0
340
11
341
20E
342
20E
343
20E
344
20E
  0
ENDTAB
  0
ENDSEC
  0
SECTION
  2
BLOCKS
  0
BLOCK
  5
20
100
AcDbEntity
  8
0
100
AcDbBlockBegin
  2
*Model_Space
 70
0
 10
0.0
 20
0.0
 30
0.0
  3
*Model_Space
  1

  0
ENDBLK
  5
21
100
AcDbEntity
  8
0
100
AcDbBlockEnd
  0
BLOCK
  5
1C
100
AcDbEntity
  8
0
100
AcDbBlockBegin
  2
*Paper_Space
 70
0
 10
0.0
 20
0.0
 30
0.0
  3
*Paper_Space
  1

  0
ENDBLK
  5
1D
100
AcDbEntity
  8
0
100
AcDbBlockEnd
  0
BLOCK
  5
216
100
AcDbEntity
  8
0
100
AcDbBlockBegin
 62
2
  6
CONTINUOUS
  2
NEUTRIK_LOGO_BL0
 70
64
 10
98.0245925022
 20
9.2066660654
  3
NEUTRIK_LOGO_BL0
  1

  0
LINE
  5
217
100
AcDbEntity
  8
0
100
AcDbLine
 62
2
  6
CONTINUOUS
 10
77.5544360471
 20
8.0329859648
 11
75.0539855722
 21
9.5420032339
  0
LINE
  5
218
100
AcDbEntity
  8
0
100
AcDbLine
 62
2
  6
CONTINUOUS
 10
75.2018073047
 20
10.3803457168
 11
77.7022587796
 21
8.8713284476
  0
LINE
  5
219
100
AcDbEntity
  8
0
100
AcDbLine
 62
2
  6
CONTINUOUS
 10
107.6509415813
 20
8.0329859648
 11
106.0530264731
 21
8.9551632959
  0
LINE
  5
21A
100
AcDbEntity
  8
0
100
AcDbLine
 62
2
  6
CONTINUOUS
 10
97.3194792782
 20
8.8713284476
 11
98.5968389666
 21
8.0329859648
  0
LINE
  5
21B
100
AcDbEntity
  8
0
100
AcDbLine
 62
2
  6
CONTINUOUS
 10
100.5250274771
 20
8.0329859648
 11
99.2476677888
 21
8.8713284476
  0
LINE
  5
21C
100
AcDbEntity
  8
0
100
AcDbLine
 62
2
  6
CONTINUOUS
 10
107.8554912111
 20
9.2904996891
 11
109.7467977884
 21
8.0329859648
  0
LINE
  5
21D
100
AcDbEntity
  8
0
100
AcDbLine
 62
2
  6
CONTINUOUS
 10
115.1413990258
 20
10.1843850714
 11
115.471200429
 21
8.8651804588
  0
LINE
  5
21E
100
AcDbEntity
  8
0
100
AcDbLine
 62
2
  6
CONTINUOUS
 10
115.5621982643
 20
8.5011891175
 11
115.6792490525
 21
8.0329859648
  0
LINE
  5
21F
100
AcDbEntity
  8
0
100
AcDbLine
 62
2
  6
CONTINUOUS
 10
116.611688365
 20
10.3803457168
 11
117.198528303
 21
8.0329859648
  0
LINE
  5
220
100
AcDbEntity
  8
0
100
AcDbLine
 62
2
  6
CONTINUOUS
 10
73.1950539363
 20
8.0329859648
 11
73.6089561873
 21
10.3803457168
  0
LINE
  5
221
100
AcDbEntity
  8
0
100
AcDbLine
 62
2
  6
CONTINUOUS
 10
75.0539855722
 20
9.5420032339
 11
74.7879050537
 21
8.0329859648
  0
LINE
  5
222
100
AcDbEntity
  8
0
100
AcDbLine
 62
2
  6
CONTINUOUS
 10
77.7022587796
 20
8.8713284476
 11
77.9683382981
 21
10.3803457168
  0
LINE
  5
223
100
AcDbEntity
  8
0
100
AcDbLine
 62
2
  6
CONTINUOUS
 10
79.5611904155
 20
10.3803457168
 11
79.1472871645
 21
8.0329859648
  0
LINE
  5
224
100
AcDbEntity
  8
0
100
AcDbLine
 62
2
  6
CONTINUOUS
 10
80.4048008888
 20
8.0329859648
 11
80.8187041397
 21
10.3803457168
  0
LINE
  5
225
100
AcDbEntity
  8
0
100
AcDbLine
 62
2
  6
CONTINUOUS
 10
82.2390275694
 20
9.8773396271
 11
82.1651167031
 21
9.4581683856
  0
LINE
  5
226
100
AcDbEntity
  8
0
100
AcDbLine
 62
2
  6
CONTINUOUS
 10
82.0764228636
 20
8.9551632959
 11
82.0025119974
 21
8.5359920545
  0
LINE
  5
227
100
AcDbEntity
  8
0
100
AcDbLine
 62
2
  6
CONTINUOUS
 10
84.3448077585
 20
9.4581683856
 11
84.256113919
 21
8.9551632959
  0
LINE
  5
228
100
AcDbEntity
  8
0
100
AcDbLine
 62
2
  6
CONTINUOUS
 10
85.010417554
 20
10.3803457168
 11
84.9217247145
 21
9.8773396271
  0
LINE
  5
229
100
AcDbEntity
  8
0
100
AcDbLine
 62
2
  6
CONTINUOUS
 10
84.6852081425
 20
8.5359920545
 11
84.596515303
 21
8.0329859648
  0
LINE
  5
22A
100
AcDbEntity
  8
0
100
AcDbLine
 62
2
  6
CONTINUOUS
 10
85.5789415251
 20
8.850126486
 11
85.8487610368
 21
10.3803457168
  0
LINE
  5
22B
100
AcDbEntity
  8
0
100
AcDbLine
 62
2
  6
CONTINUOUS
 10
87.357777306
 20
10.3803457168
 11
87.1119527508
 21
8.9862012398
  0
LINE
  5
22C
100
AcDbEntity
  8
0
100
AcDbLine
 62
2
  6
CONTINUOUS
 10
88.9423444384
 20
8.907020383
 11
89.2021319682
 21
10.3803457168
  0
LINE
  5
22D
100
AcDbEntity
  8
0
100
AcDbLine
 62
2
  6
CONTINUOUS
 10
90.7111492373
 20
10.3803457168
 11
90.4145627741
 21
8.6983237607
  0
LINE
  5
22E
100
AcDbEntity
  8
0
100
AcDbLine
 62
2
  6
CONTINUOUS
 10
91.1945133626
 20
9.7935057788
 11
91.2979891753
 21
10.3803457168
  0
LINE
  5
22F
100
AcDbEntity
  8
0
100
AcDbLine
 62
2
  6
CONTINUOUS
 10
92.0577658004
 20
8.0329859648
 11
92.3681932386
 21
9.7935057788
  0
LINE
  5
230
100
AcDbEntity
  8
0
100
AcDbLine
 62
2
  6
CONTINUOUS
 10
94.0448782043
 20
9.7935057788
 11
93.7344517661
 21
8.0329859648
  0
LINE
  5
231
100
AcDbEntity
  8
0
100
AcDbLine
 62
2
  6
CONTINUOUS
 10
95.322033893
 20
10.3803457168
 11
95.2185580803
 21
9.7935057788
  0
LINE
  5
232
100
AcDbEntity
  8
0
100
AcDbLine
 62
2
  6
CONTINUOUS
 10
95.908873831
 20
10.3803457168
 11
95.49497158
 21
8.0329859648
  0
LINE
  5
233
100
AcDbEntity
  8
0
100
AcDbLine
 62
2
  6
CONTINUOUS
 10
97.1716565457
 20
8.0329859648
 11
97.3194792782
 21
8.8713284476
  0
LINE
  5
234
100
AcDbEntity
  8
0
100
AcDbLine
 62
2
  6
CONTINUOUS
 10
97.4081721177
 20
9.3743345373
 11
97.5116479304
 21
9.9611744753
  0
LINE
  5
235
100
AcDbEntity
  8
0
100
AcDbLine
 62
2
  6
CONTINUOUS
 10
101.1957022634
 20
8.0329859648
 11
101.6096045144
 21
10.3803457168
  0
LINE
  5
236
100
AcDbEntity
  8
0
100
AcDbLine
 62
2
  6
CONTINUOUS
 10
103.28629048
 20
10.3803457168
 11
102.8723872291
 21
8.0329859648
  0
LINE
  5
237
100
AcDbEntity
  8
0
100
AcDbLine
 62
2
  6
CONTINUOUS
 10
104.2137358016
 20
8.0329859648
 11
104.6276390526
 21
10.3803457168
  0
LINE
  5
238
100
AcDbEntity
  8
0
100
AcDbLine
 62
2
  6
CONTINUOUS
 10
106.3043240183
 20
10.3803457168
 11
106.1121553661
 21
9.2904996891
  0
LINE
  5
239
100
AcDbEntity
  8
0
100
AcDbLine
 62
2
  6
CONTINUOUS
 10
106.0530264731
 20
8.9551632959
 11
105.8904217673
 21
8.0329859648
  0
LINE
  5
23A
100
AcDbEntity
  8
0
100
AcDbLine
 62
2
  6
CONTINUOUS
 10
117.8923160475
 20
8.5313940628
 11
118.1405795982
 21
9.9393685148
  0
LINE
  5
23B
100
AcDbEntity
  8
0
100
AcDbLine
 62
2
  6
CONTINUOUS
 10
119.4637212037
 20
8.8526434815
 11
119.6196779214
 21
9.7371138808
  0
LINE
  5
23C
100
AcDbEntity
  8
0
100
AcDbLine
 62
2
  6
CONTINUOUS
 10
120.5561772267
 20
8.8812524297
 11
120.5944831573
 21
9.0984910365
  0
LINE
  5
23D
100
AcDbEntity
  8
0
100
AcDbLine
 62
2
  6
CONTINUOUS
 10
121.0125094008
 20
8.0329859648
 11
121.017391392
 21
8.0606719147
  0
LINE
  5
23E
100
AcDbEntity
  8
0
100
AcDbLine
 62
2
  6
CONTINUOUS
 10
121.1430231646
 20
8.7731656253
 11
121.1620821301
 21
8.8812524297
  0
LINE
  5
23F
100
AcDbEntity
  8
0
100
AcDbLine
 62
2
  6
CONTINUOUS
 10
122.5272706596
 20
8.0329859648
 11
122.7151483196
 21
9.0984910365
  0
LINE
  5
240
100
AcDbEntity
  8
0
100
AcDbLine
 62
2
  6
CONTINUOUS
 10
122.8291061133
 20
9.7447798669
 11
122.854131068
 21
9.8867056101
  0
LINE
  5
241
100
AcDbEntity
  8
0
100
AcDbLine
 62
2
  6
CONTINUOUS
 10
109.7467977884
 20
8.0329859648
 11
107.6509415813
 21
8.0329859648
  0
LINE
  5
242
100
AcDbEntity
  8
0
100
AcDbLine
 62
2
  6
CONTINUOUS
 10
73.1950539363
 20
8.0329859648
 11
74.7879050537
 21
8.0329859648
  0
LINE
  5
243
100
AcDbEntity
  8
0
100
AcDbLine
 62
2
  6
CONTINUOUS
 10
105.8904217673
 20
8.0329859648
 11
104.2137358016
 21
8.0329859648
  0
LINE
  5
244
100
AcDbEntity
  8
0
100
AcDbLine
 62
2
  6
CONTINUOUS
 10
102.8723872291
 20
8.0329859648
 11
101.1957022634
 21
8.0329859648
  0
LINE
  5
245
100
AcDbEntity
  8
0
100
AcDbLine
 62
2
  6
CONTINUOUS
 10
93.7344517661
 20
8.0329859648
 11
92.0577658004
 21
8.0329859648
  0
LINE
  5
246
100
AcDbEntity
  8
0
100
AcDbLine
 62
2
  6
CONTINUOUS
 10
95.49497158
 20
8.0329859648
 11
97.1716565457
 21
8.0329859648
  0
LINE
  5
247
100
AcDbEntity
  8
0
100
AcDbLine
 62
2
  6
CONTINUOUS
 10
84.596515303
 20
8.0329859648
 11
80.4048008888
 21
8.0329859648
  0
LINE
  5
248
100
AcDbEntity
  8
0
100
AcDbLine
 62
2
  6
CONTINUOUS
 10
98.5968389666
 20
8.0329859648
 11
100.5250274771
 21
8.0329859648
  0
LINE
  5
249
100
AcDbEntity
  8
0
100
AcDbLine
 62
2
  6
CONTINUOUS
 10
79.1472871645
 20
8.0329859648
 11
77.5544360471
 21
8.0329859648
  0
LINE
  5
24A
100
AcDbEntity
  8
0
100
AcDbLine
 62
2
  6
CONTINUOUS
 10
111.8930159044
 20
8.0329859648
 11
113.5278499458
 21
8.0329859648
  0
LINE
  5
24B
100
AcDbEntity
  8
0
100
AcDbLine
 62
2
  6
CONTINUOUS
 10
115.6792490525
 20
8.0329859648
 11
117.198528303
 21
8.0329859648
  0
LINE
  5
24C
100
AcDbEntity
  8
0
100
AcDbLine
 62
2
  6
CONTINUOUS
 10
121.0125094008
 20
8.0329859648
 11
122.5272706596
 21
8.0329859648
  0
LINE
  5
24D
100
AcDbEntity
  8
0
100
AcDbLine
 62
2
  6
CONTINUOUS
 10
113.8790013104
 20
8.5011891175
 11
115.5621982643
 21
8.5011891175
  0
LINE
  5
24E
100
AcDbEntity
  8
0
100
AcDbLine
 62
2
  6
CONTINUOUS
 10
82.0025119974
 20
8.5359920545
 11
84.6852081425
 21
8.5359920545
  0
LINE
  5
24F
100
AcDbEntity
  8
0
100
AcDbLine
 62
2
  6
CONTINUOUS
 10
114.1519948163
 20
8.8651804588
 11
115.471200429
 21
8.8651804588
  0
LINE
  5
250
100
AcDbEntity
  8
0
100
AcDbLine
 62
2
  6
CONTINUOUS
 10
120.5561772267
 20
8.8812524297
 11
121.1620821301
 21
8.8812524297
  0
LINE
  5
251
100
AcDbEntity
  8
0
100
AcDbLine
 62
2
  6
CONTINUOUS
 10
84.256113919
 20
8.9551632959
 11
82.0764228636
 21
8.9551632959
  0
LINE
  5
252
100
AcDbEntity
  8
0
100
AcDbLine
 62
2
  6
CONTINUOUS
 10
120.5944831573
 20
9.0984910365
 11
122.7151483196
 21
9.0984910365
  0
LINE
  5
253
100
AcDbEntity
  8
0
100
AcDbLine
 62
2
  6
CONTINUOUS
 10
98.4693321973
 20
9.3743345373
 11
97.4081721177
 21
9.3743345373
  0
LINE
  5
254
100
AcDbEntity
  8
0
100
AcDbLine
 62
2
  6
CONTINUOUS
 10
82.1651167031
 20
9.4581683856
 11
84.3448077585
 21
9.4581683856
  0
LINE
  5
255
100
AcDbEntity
  8
0
100
AcDbLine
 62
2
  6
CONTINUOUS
 10
121.2929528933
 20
9.7447798669
 11
122.8291061133
 21
9.7447798669
  0
LINE
  5
256
100
AcDbEntity
  8
0
100
AcDbLine
 62
2
  6
CONTINUOUS
 10
95.2185580803
 20
9.7935057788
 11
94.0448782043
 21
9.7935057788
  0
LINE
  5
257
100
AcDbEntity
  8
0
100
AcDbLine
 62
2
  6
CONTINUOUS
 10
92.3681932386
 20
9.7935057788
 11
91.1945133626
 21
9.7935057788
  0
LINE
  5
258
100
AcDbEntity
  8
0
100
AcDbLine
 62
2
  6
CONTINUOUS
 10
84.9217247145
 20
9.8773396271
 11
82.2390275694
 21
9.8773396271
  0
LINE
  5
259
100
AcDbEntity
  8
0
100
AcDbLine
 62
2
  6
CONTINUOUS
 10
97.5116479304
 20
9.9611744753
 11
98.7657596609
 21
9.9611744753
  0
LINE
  5
25A
100
AcDbEntity
  8
0
100
AcDbLine
 62
2
  6
CONTINUOUS
 10
73.6089561873
 20
10.3803457168
 11
75.2018073047
 21
10.3803457168
  0
LINE
  5
25B
100
AcDbEntity
  8
0
100
AcDbLine
 62
2
  6
CONTINUOUS
 10
77.9683382981
 20
10.3803457168
 11
79.5611904155
 21
10.3803457168
  0
LINE
  5
25C
100
AcDbEntity
  8
0
100
AcDbLine
 62
2
  6
CONTINUOUS
 10
80.8187041397
 20
10.3803457168
 11
85.010417554
 21
10.3803457168
  0
LINE
  5
25D
100
AcDbEntity
  8
0
100
AcDbLine
 62
2
  6
CONTINUOUS
 10
99.0107422175
 20
10.3803457168
 11
95.908873831
 21
10.3803457168
  0
LINE
  5
25E
100
AcDbEntity
  8
0
100
AcDbLine
 62
2
  6
CONTINUOUS
 10
85.8487610368
 20
10.3803457168
 11
87.357777306
 21
10.3803457168
  0
LINE
  5
25F
100
AcDbEntity
  8
0
100
AcDbLine
 62
2
  6
CONTINUOUS
 10
89.2021319682
 20
10.3803457168
 11
90.7111492373
 21
10.3803457168
  0
LINE
  5
260
100
AcDbEntity
  8
0
100
AcDbLine
 62
2
  6
CONTINUOUS
 10
91.2979891753
 20
10.3803457168
 11
95.322033893
 21
10.3803457168
  0
LINE
  5
261
100
AcDbEntity
  8
0
100
AcDbLine
 62
2
  6
CONTINUOUS
 10
101.6096045144
 20
10.3803457168
 11
103.28629048
 21
10.3803457168
  0
LINE
  5
262
100
AcDbEntity
  8
0
100
AcDbLine
 62
2
  6
CONTINUOUS
 10
104.6276390526
 20
10.3803457168
 11
106.3043240183
 21
10.3803457168
  0
LINE
  5
263
100
AcDbEntity
  8
0
100
AcDbLine
 62
2
  6
CONTINUOUS
 10
108.0476608634
 20
10.3803457168
 11
110.1607010394
 21
10.3803457168
  0
LINE
  5
264
100
AcDbEntity
  8
0
100
AcDbLine
 62
2
  6
CONTINUOUS
 10
113.6535357184
 20
10.3803457168
 11
116.611688365
 21
10.3803457168
  0
LINE
  5
265
100
AcDbEntity
  8
0
100
AcDbLine
 62
2
  6
CONTINUOUS
 10
111.8930159044
 20
8.0329859648
 11
113.6535357184
 21
10.3803457168
  0
LINE
  5
266
100
AcDbEntity
  8
0
100
AcDbLine
 62
2
  6
CONTINUOUS
 10
113.5278499458
 20
8.0329859648
 11
113.8790013104
 21
8.5011891175
  0
LINE
  5
267
100
AcDbEntity
  8
0
100
AcDbLine
 62
2
  6
CONTINUOUS
 10
114.1519948163
 20
8.8651804588
 11
115.1413990258
 21
10.1843850714
  0
LINE
  5
268
100
AcDbEntity
  8
0
100
AcDbLine
 62
2
  6
CONTINUOUS
 10
106.1121553661
 20
9.2904996891
 11
108.0476608634
 21
10.3803457168
  0
LINE
  5
269
100
AcDbEntity
  8
0
100
AcDbLine
 62
2
  6
CONTINUOUS
 10
110.1607010394
 20
10.3803457168
 11
107.8554912111
 21
9.2904996891
  0
ARC
  5
26A
100
AcDbEntity
  8
0
100
AcDbCircle
 62
2
  6
CONTINUOUS
 10
87.4421951532
 20
8.9279703451
 40
0.335336967
100
AcDbArc
 50
169.9999581174
 51
257.3876854477
  0
ARC
  5
26B
100
AcDbEntity
  8
0
100
AcDbCircle
 62
2
  6
CONTINUOUS
 10
87.9547452256
 20
11.2186881996
 40
2.6826964808
100
AcDbArc
 50
257.3877479741
 51
286.262665946
  0
ARC
  5
26C
100
AcDbEntity
  8
0
100
AcDbCircle
 62
2
  6
CONTINUOUS
 10
88.612102036
 20
8.9652512777
 40
0.3353371135
100
AcDbArc
 50
286.2627744417
 51
349.9999581174
  0
ARC
  5
26D
100
AcDbEntity
  8
0
100
AcDbCircle
 62
2
  6
CONTINUOUS
 10
89.9191986705
 20
8.7856696027
 40
0.5030061094
100
AcDbArc
 50
284.4613069912
 51
350.0000240953
  0
ARC
  5
26E
100
AcDbEntity
  8
0
100
AcDbCircle
 62
2
  6
CONTINUOUS
 10
87.9512572319
 20
16.4164137933
 40
8.3834278607
100
AcDbArc
 50
256.2209051549
 51
284.4612653568
  0
ARC
  5
26F
100
AcDbEntity
  8
0
100
AcDbCircle
 62
2
  6
CONTINUOUS
 10
86.0743056287
 20
8.7627806441
 40
0.503005856
100
AcDbArc
 50
170.0000240953
 51
256.2208762229
  0
ARC
  5
270
100
AcDbEntity
  8
0
100
AcDbCircle
 62
2
  6
CONTINUOUS
 10
99.5460702487
 20
10.1920990574
 40
1.3167024847
100
AcDbArc
 50
270.8139664646
 51
287.332045501
  0
ARC
  5
271
100
AcDbEntity
  8
0
100
AcDbCircle
 62
2
  6
CONTINUOUS
 10
99.6328970916
 20
9.9138785609
 40
1.025248295
100
AcDbArc
 50
287.332041554
 51
306.9952583027
  0
ARC
  5
272
100
AcDbEntity
  8
0
100
AcDbCircle
 62
2
  6
CONTINUOUS
 10
99.765875851
 20
9.7373788803
 40
0.8042604703
100
AcDbArc
 50
306.9952804959
 51
331.1991469186
  0
ARC
  5
273
100
AcDbEntity
  8
0
100
AcDbCircle
 62
2
  6
CONTINUOUS
 10
99.9698034819
 20
9.6252650832
 40
0.5715468569
100
AcDbArc
 50
331.1991187457
 51
28.8007934081
  0
ARC
  5
274
100
AcDbEntity
  8
0
100
AcDbCircle
 62
2
  6
CONTINUOUS
 10
99.765875851
 20
9.5131502861
 40
0.8042612359
100
AcDbArc
 50
28.8008530814
 51
53.0047195041
  0
ARC
  5
275
100
AcDbEntity
  8
0
100
AcDbCircle
 62
2
  6
CONTINUOUS
 10
99.6328970916
 20
9.3366506055
 40
1.0252479986
100
AcDbArc
 50
53.0047416973
 51
72.667958446
  0
ARC
  5
276
100
AcDbEntity
  8
0
100
AcDbCircle
 62
2
  6
CONTINUOUS
 10
99.5460702487
 20
9.058430109
 40
1.3167024858
100
AcDbArc
 50
72.667954499
 51
88.2637233921
  0
ARC
  5
277
100
AcDbEntity
  8
0
100
AcDbCircle
 62
2
  6
CONTINUOUS
 10
99.1751869199
 20
-1.8011792383
 40
12.1826353158
100
AcDbArc
 50
88.0677150838
 51
90.7734183662
  0
ARC
  5
278
100
AcDbEntity
  8
0
100
AcDbCircle
 62
2
  6
CONTINUOUS
 10
97.8450613271
 20
126.7276131626
 40
117.8646306221
100
AcDbArc
 50
270.6818443076
 51
270.8360085966
  0
ARC
  5
279
100
AcDbEntity
  8
0
100
AcDbCircle
 62
2
  6
CONTINUOUS
 10
98.7233307377
 20
9.4400284185
 40
0.5228699142
100
AcDbArc
 50
74.2117758502
 51
85.3455498836
  0
ARC
  5
27A
100
AcDbEntity
  8
0
100
AcDbCircle
 62
2
  6
CONTINUOUS
 10
98.7726766484
 20
9.6145531026
 40
0.3415029724
100
AcDbArc
 50
49.80595642
 51
74.2116374161
  0
ARC
  5
27B
100
AcDbEntity
  8
0
100
AcDbCircle
 62
2
  6
CONTINUOUS
 10
98.8829964487
 20
9.7451268663
 40
0.1705654939
100
AcDbArc
 50
340.193968067
 51
49.8058745946
  0
ARC
  5
27C
100
AcDbEntity
  8
0
100
AcDbCircle
 62
2
  6
CONTINUOUS
 10
98.7221697398
 20
9.8030467615
 40
0.3415041793
100
AcDbArc
 50
315.7883508031
 51
340.1940327095
  0
ARC
  5
27D
100
AcDbEntity
  8
0
100
AcDbCircle
 62
2
  6
CONTINUOUS
 10
98.592172975
 20
9.9295155326
 40
0.5228695114
100
AcDbArc
 50
298.8638229053
 51
315.7882717965
  0
ARC
  5
27E
100
AcDbEntity
  8
0
100
AcDbCircle
 62
2
  6
CONTINUOUS
 10
98.4693321973
 20
10.1523731293
 40
0.777340892
100
AcDbArc
 50
285.0000006491
 51
298.8638426666
  0
ARC
  5
27F
100
AcDbEntity
  8
0
100
AcDbCircle
 62
2
  6
CONTINUOUS
 10
98.4666332022
 20
10.1523751293
 40
0.7780452733
100
AcDbArc
 50
270.1987562222
 51
285.191946156
  0
ARC
  5
280
100
AcDbEntity
  8
0
100
AcDbCircle
 62
2
  6
CONTINUOUS
 10
120.6619260353
 20
-2.9792851063
 40
13.3596308353
100
AcDbArc
 50
81.6598945895
 51
99.8027888696
  0
ARC
  5
281
100
AcDbEntity
  8
0
100
AcDbCircle
 62
2
  6
CONTINUOUS
 10
120.1292479993
 20
21.3907487912
 40
13.3596309136
100
AcDbArc
 50
261.4614728694
 51
273.8118136955
  0
ARC
  5
282
100
AcDbEntity
  8
0
100
AcDbCircle
 62
2
  6
CONTINUOUS
 10
118.4389290582
 20
9.88676061
 40
0.302952678
100
AcDbArc
 50
99.8027796749
 51
169.9998425607
  0
ARC
  5
283
100
AcDbEntity
  8
0
100
AcDbCircle
 62
2
  6
CONTINUOUS
 10
118.1906655075
 20
8.478787158
 40
0.3029519545
100
AcDbArc
 50
170.000028812
 51
261.4614258049
  0
ARC
  5
284
100
AcDbEntity
  8
0
100
AcDbCircle
 62
2
  6
CONTINUOUS
 10
122.555781608
 20
9.9393125149
 40
0.3029519545
100
AcDbArc
 50
350.000028812
 51
81.6598857953
  0
ARC
  5
285
100
AcDbEntity
  8
0
100
AcDbCircle
 62
2
  6
CONTINUOUS
 10
120.4567834065
 20
6.5595326313
 40
3.4740280808
100
AcDbArc
 50
80.2083456985
 51
99.7818280968
  0
ARC
  5
286
100
AcDbEntity
  8
0
100
AcDbCircle
 62
2
  6
CONTINUOUS
 10
120.2291178185
 20
11.9365299005
 40
3.4740282835
100
AcDbArc
 50
261.5304821195
 51
281.1930777907
  0
ARC
  5
287
100
AcDbEntity
  8
0
100
AcDbCircle
 62
2
  6
CONTINUOUS
 10
119.9180273815
 20
9.684506976
 40
0.3029528628
100
AcDbArc
 50
99.7818543358
 51
170.000028812
  0
ARC
  5
288
100
AcDbEntity
  8
0
100
AcDbCircle
 62
2
  6
CONTINUOUS
 10
120.9960754306
 20
9.6844149762
 40
0.3029523856
100
AcDbArc
 50
11.4934186918
 51
80.2083192078
  0
ARC
  5
289
100
AcDbEntity
  8
0
100
AcDbCircle
 62
2
  6
CONTINUOUS
 10
119.7620716637
 20
8.8000365767
 40
0.3029529393
100
AcDbArc
 50
170.000061653
 51
261.5304593161
  0
ARC
  5
28A
100
AcDbEntity
  8
0
100
AcDbCircle
 62
2
  6
CONTINUOUS
 10
120.8446737046
 20
8.8257725301
 40
0.3029520503
100
AcDbArc
 50
281.1930976978
 51
350.000028812
  0
ENDBLK
  5
28B
100
AcDbEntity
  8
0
  6
BYBLOCK
 62
0
100
AcDbBlockEnd
  0
BLOCK
  5
28C
100
AcDbEntity
  8
0
100
AcDbBlockBegin
  2
_FILLED
 70
64
 10
0.0
 20
0.0
  3
_FILLED
  1

  0
SOLID
  5
28D
100
AcDbEntity
  8
0
  6
BYBLOCK
 62
0
100
AcDbTrace
 10
0.0
 20
0.0
 11
-1.0
 21
0.125
 12
-1.0
 22
-0.125
 13
-1.0
 23
-0.125
  0
ENDBLK
  5
28E
100
AcDbEntity
  8
0
  6
BYBLOCK
 62
0
100
AcDbBlockEnd
  0
BLOCK
  5
28F
100
AcDbEntity
  8
ZEICHNUNGSBEMASSUNGEN
100
AcDbBlockBegin
 62
2
  6
CONTINUOUS
  2
*D0
 70
65
 10
0.0
 20
0.0
  3
*D0
  1

  0
MTEXT
  5
290
100
AcDbEntity
  8
ZEICHNUNGSBEMASSUNGEN
100
AcDbMText
 62
5
  6
CONTINUOUS
  7
STANDARD
 71
2
 72
1
 10
68.0480363748
 20
252.4251977306
 30
0.0
 11
1.0
 21
0.0
 31
0.0
 44
0.9
  1
\Q15.0;44
 40
3.5
 41
5.5
  0
LINE
  5
291
100
AcDbEntity
  8
ZEICHNUNGSBEMASSUNGEN
100
AcDbLine
 62
2
  6
CONTINUOUS
 10
46.0480363748
 20
238.8756525232
 11
46.0480363748
 21
249.5193310727
  0
LINE
  5
292
100
AcDbEntity
  8
ZEICHNUNGSBEMASSUNGEN
100
AcDbLine
 62
2
  6
CONTINUOUS
 10
90.0480363748
 20
238.6790425838
 11
90.0480363748
 21
249.5193310727
  0
LINE
  5
293
100
AcDbEntity
  8
ZEICHNUNGSBEMASSUNGEN
100
AcDbLine
 62
2
  6
CONTINUOUS
 10
46.0480363748
 20
248.0193310727
 11
68.0480363748
 21
248.0193310727
  0
LINE
  5
294
100
AcDbEntity
  8
ZEICHNUNGSBEMASSUNGEN
100
AcDbLine
 62
2
  6
CONTINUOUS
 10
90.0480363748
 20
248.0193310727
 11
68.0480363748
 21
248.0193310727
  0
INSERT
  5
295
100
AcDbEntity
  8
ZEICHNUNGSBEMASSUNGEN
100
AcDbBlockReference
 62
2
  6
CONTINUOUS
  2
_FILLED
 10
46.0480363748
 20
248.0193310727
 41
3.5
 42
3.5
 43
3.5
 50
180.0
  0
INSERT
  5
296
100
AcDbEntity
  8
ZEICHNUNGSBEMASSUNGEN
100
AcDbBlockReference
 62
2
  6
CONTINUOUS
  2
_FILLED
 10
90.0480363748
 20
248.0193310727
 41
3.5
 42
3.5
 43
3.5
  0
ENDBLK
  5
297
100
AcDbEntity
  8
0
  6
BYBLOCK
 62
0
100
AcDbBlockEnd
  0
BLOCK
  5
298
100
AcDbEntity
  8
ZEICHNUNGSBEMASSUNGEN
100
AcDbBlockBegin
 62
2
  6
CONTINUOUS
  2
*D1
 70
65
 10
0.0
 20
0.0
  3
*D1
  1

  0
MTEXT
  5
299
100
AcDbEntity
  8
ZEICHNUNGSBEMASSUNGEN
100
AcDbMText
 62
5
  6
CONTINUOUS
  7
STANDARD
 71
2
 72
1
 10
31.642169717
 20
171.5193310727
 30
0.0
 11
0.0
 21
1.0
 31
0.0
 44
0.9
  1
\Q15.0;133
 40
3.5
 41
7.0
  0
LINE
  5
29A
100
AcDbEntity
  8
ZEICHNUNGSBEMASSUNGEN
100
AcDbLine
 62
2
  6
CONTINUOUS
 10
45.1699864293
 20
238.0193310727
 11
34.5480363748
 21
238.0193310727
  0
LINE
  5
29B
100
AcDbEntity
  8
ZEICHNUNGSBEMASSUNGEN
100
AcDbLine
 62
2
  6
CONTINUOUS
 10
45.4442521348
 20
105.0193310727
 11
34.5480363748
 21
105.0193310727
  0
LINE
  5
29C
100
AcDbEntity
  8
ZEICHNUNGSBEMASSUNGEN
100
AcDbLine
 62
2
  6
CONTINUOUS
 10
36.0480363748
 20
238.0193310727
 11
36.0480363748
 21
171.5193310727
  0
LINE
  5
29D
100
AcDbEntity
  8
ZEICHNUNGSBEMASSUNGEN
100
AcDbLine
 62
2
  6
CONTINUOUS
 10
36.0480363748
 20
105.0193310727
 11
36.0480363748
 21
171.5193310727
  0
INSERT
  5
29E
100
AcDbEntity
  8
ZEICHNUNGSBEMASSUNGEN
100
AcDbBlockReference
 62
2
  6
CONTINUOUS
  2
_FILLED
 10
36.0480363748
 20
238.0193310727
 41
3.5
 42
3.5
 43
3.5
 50
90.0
  0
INSERT
  5
29F
100
AcDbEntity
  8
ZEICHNUNGSBEMASSUNGEN
100
AcDbBlockReference
 62
2
  6
CONTINUOUS
  2
_FILLED
 10
36.0480363748
 20
105.0193310727
 41
3.5
 42
3.5
 43
3.5
 50
270.0
  0
ENDBLK
  5
2A0
100
AcDbEntity
  8
0
  6
BYBLOCK
 62
0
100
AcDbBlockEnd
  0
BLOCK
  5
2A1
100
AcDbEntity
  8
0
100
AcDbBlockBegin
  2
*T1
 70
1
 10
0.0
 20
0.0
  3
*T1
  1

  0
LINE
  5
2A2
100
AcDbEntity
  8
0
100
AcDbLine
 62
7
  6
CONTINUOUS
 10
0.0
 20
0.0
 11
133.0
 21
0.0
  0
LINE
  5
2A3
100
AcDbEntity
  8
0
100
AcDbLine
 62
7
  6
CONTINUOUS
 10
0.0
 20
0.0
 11
0.0
 21
-46.0
  0
LINE
  5
2A4
100
AcDbEntity
  8
0
100
AcDbLine
 62
7
  6
CONTINUOUS
 10
82.0
 20
-5.0
 11
133.0
 21
-5.0
  0
LINE
  5
2A5
100
AcDbEntity
  8
0
100
AcDbLine
 62
7
  6
CONTINUOUS
 10
0.0
 20
-10.0
 11
41.0
 21
-10.0
  0
LINE
  5
2A6
100
AcDbEntity
  8
0
100
AcDbLine
 62
7
  6
CONTINUOUS
 10
82.0
 20
-10.0
 11
133.0
 21
-10.0
  0
LINE
  5
2A7
100
AcDbEntity
  8
0
100
AcDbLine
 62
7
  6
CONTINUOUS
 10
82.0
 20
-15.0
 11
133.0
 21
-15.0
  0
LINE
  5
2A8
100
AcDbEntity
  8
0
100
AcDbLine
 62
7
  6
CONTINUOUS
 10
0.0
 20
-20.0
 11
133.0
 21
-20.0
  0
LINE
  5
2A9
100
AcDbEntity
  8
0
100
AcDbLine
 62
7
  6
CONTINUOUS
 10
82.0
 20
-28.0
 11
133.0
 21
-28.0
  0
LINE
  5
2AA
100
AcDbEntity
  8
0
100
AcDbLine
 62
7
  6
CONTINUOUS
 10
0.0
 20
-37.0
 11
133.0
 21
-37.0
  0
LINE
  5
2AB
100
AcDbEntity
  8
0
100
AcDbLine
 62
7
  6
CONTINUOUS
 10
0.0
 20
-46.0
 11
133.0
 21
-46.0
  0
LINE
  5
2AC
100
AcDbEntity
  8
0
100
AcDbLine
 62
7
  6
CONTINUOUS
 10
41.0
 20
0.0
 11
41.0
 21
-20.0
  0
LINE
  5
2AD
100
AcDbEntity
  8
0
100
AcDbLine
 62
7
  6
CONTINUOUS
 10
64.0
 20
0.0
 11
64.0
 21
-20.0
  0
LINE
  5
2AE
100
AcDbEntity
  8
0
100
AcDbLine
 62
7
  6
CONTINUOUS
 10
82.0
 20
0.0
 11
82.0
 21
-46.0
  0
LINE
  5
2AF
100
AcDbEntity
  8
0
100
AcDbLine
 62
7
  6
CONTINUOUS
 10
101.0
 20
0.0
 11
101.0
 21
-20.0
  0
LINE
  5
2B0
100
AcDbEntity
  8
0
100
AcDbLine
 62
7
  6
CONTINUOUS
 10
116.0
 20
0.0
 11
116.0
 21
-37.0
  0
LINE
  5
2B1
100
AcDbEntity
  8
0
100
AcDbLine
 62
7
  6
CONTINUOUS
 10
133.0
 20
0.0
 11
133.0
 21
-46.0
  0
MTEXT
  5
2B2
100
AcDbEntity
  8
0
100
AcDbMText
 62
5
  6
CONTINUOUS
  7
TEXTSTYLE_2
 71
1
 72
1
 10
0.0625
 20
-2.7341257188
 30
0.0
 11
1.0
 21
0.0
 31
0.0
 44
0.9
  1
\Q15.0; Allgemeintoleranzen\P ISO 2768-m
 40
1.8
 41
24.6
  0
MTEXT
  5
2B3
100
AcDbEntity
  8
0
100
AcDbMText
 62
5
  6
CONTINUOUS
  7
TEXTSTYLE_2
 71
2
 72
1
 10
52.5
 20
-1.5352761804
 30
0.0
 11
1.0
 21
0.0
 31
0.0
 44
0.9
  1
\Q15.0;Werkstoff
 40
2.0
 41
13.1428571429
  0
MTEXT
  5
2B4
100
AcDbEntity
  8
0
100
AcDbMText
 62
5
  6
CONTINUOUS
  7
TEXTSTYLE_2
 71
2
 72
1
 10
73.0
 20
-1.5352761804
 30
0.0
 11
1.0
 21
0.0
 31
0.0
 44
0.9
  1
\Q15.0;Massstab:
 40
2.0
 41
12.1428571429
  0
MTEXT
  5
2B5
100
AcDbEntity
  8
0
100
AcDbMText
 62
5
  6
CONTINUOUS
  7
TEXTSTYLE_2
 71
2
 72
1
 10
108.5
 20
-1.5352761804
 30
0.0
 11
1.0
 21
0.0
 31
0.0
 44
0.9
  1
\Q15.0;Datum
 40
2.0
 41
7.6666666667
  0
MTEXT
  5
2B6
100
AcDbEntity
  8
0
100
AcDbMText
 62
5
  6
CONTINUOUS
  7
TEXTSTYLE_2
 71
2
 72
1
 10
124.5
 20
-1.5352761804
 30
0.0
 11
1.0
 21
0.0
 31
0.0
 44
0.9
  1
\Q15.0;Name
 40
2.0
 41
6.2857142857
  0
MTEXT
  5
2B7
100
AcDbEntity
  8
0
100
AcDbMText
 62
5
  6
CONTINUOUS
  7
TEXTSTYLE_2
 71
1
 72
1
 10
82.0625
 20
-6.5352761804
 30
0.0
 11
1.0
 21
0.0
 31
0.0
 44
0.9
  1
\Q15.0; Gezeichnet
 40
2.0
 41
15.1904761905
  0
MTEXT
  5
2B8
100
AcDbEntity
  8
0
100
AcDbMText
 62
5
  6
CONTINUOUS
  7
TEXTSTYLE_2
 71
2
 72
1
 10
108.5
 20
-6.5352761804
 30
0.0
 11
1.0
 21
0.0
 31
0.0
 44
0.9
  1
\Q15.0;01.10.10
 40
2.0
 41
10.4285714286
  0
MTEXT
  5
2B9
100
AcDbEntity
  8
0
100
AcDbMText
 62
5
  6
CONTINUOUS
  7
TEXTSTYLE_2
 71
2
 72
1
 10
124.5
 20
-6.5352761804
 30
0.0
 11
1.0
 21
0.0
 31
0.0
 44
0.9
  1
\Q15.0;Koch
 40
2.0
 41
5.7142857143
  0
MTEXT
  5
2BA
100
AcDbEntity
  8
0
100
AcDbMText
 62
5
  6
CONTINUOUS
  7
TEXTSTYLE_2
 71
1
 72
1
 10
0.0625
 20
-12.7341257188
 30
0.0
 11
1.0
 21
0.0
 31
0.0
 44
0.9
  1
\Q15.0; Zeichnung urheberrechtlich\P geschuetzt (DIN 34) (C)
 40
1.8
 41
33.0
  0
MTEXT
  5
2BB
100
AcDbEntity
  8
0
100
AcDbMText
 62
5
  6
CONTINUOUS
  7
TEXTSTYLE_2
 71
2
 72
1
 10
52.5
 20
-11.5352761804
 30
0.0
 11
1.0
 21
0.0
 31
0.0
 44
0.9
  1
\Q15.0;-
 40
2.0
 41
1.4285714286
  0
MTEXT
  5
2BC
100
AcDbEntity
  8
0
100
AcDbMText
 62
5
  6
CONTINUOUS
  7
TEXTSTYLE_2
 71
2
 72
1
 10
73.0
 20
-10.2015916314
 30
0.0
 11
1.0
 21
0.0
 31
0.0
 44
0.9
  1
\Q15.0;1:1
 40
3.5
 41
5.25
  0
MTEXT
  5
2BD
100
AcDbEntity
  8
0
100
AcDbMText
 62
5
  6
CONTINUOUS
  7
TEXTSTYLE_2
 71
1
 72
1
 10
82.0625
 20
-11.5352761804
 30
0.0
 11
1.0
 21
0.0
 31
0.0
 44
0.9
  1
\Q15.0; Freigegeben
 40
2.0
 41
16.7619047619
  0
MTEXT
  5
2BE
100
AcDbEntity
  8
0
100
AcDbMText
 62
5
  6
CONTINUOUS
  7
TEXTSTYLE_2
 71
2
 72
1
 10
52.5
 20
-16.5352761804
 30
0.0
 11
1.0
 21
0.0
 31
0.0
 44
0.9
  1
\Q15.0;-
 40
2.0
 41
1.4285714286
  0
MTEXT
  5
2BF
100
AcDbEntity
  8
0
100
AcDbMText
 62
5
  6
CONTINUOUS
  7
TEXTSTYLE_2
 71
2
 72
1
 10
73.0
 20
-16.5352761804
 30
0.0
 11
1.0
 21
0.0
 31
0.0
 44
0.9
  1
\Q15.0;(A4)
 40
2.0
 41
5.0
  0
MTEXT
  5
2C0
100
AcDbEntity
  8
0
100
AcDbMText
 62
5
  6
CONTINUOUS
  7
TEXTSTYLE_2
 71
1
 72
1
 10
82.0625
 20
-16.5352761804
 30
0.0
 11
1.0
 21
0.0
 31
0.0
 44
0.9
  1
\Q15.0; Geaendert
 40
2.0
 41
14.1428571429
  0
MTEXT
  5
2C1
100
AcDbEntity
  8
0
100
AcDbMText
 62
5
  6
CONTINUOUS
  7
TEXTSTYLE_2
 71
2
 72
1
 10
108.5
 20
-16.5352761804
 30
0.0
 11
1.0
 21
0.0
 31
0.0
 44
0.9
  1
\Q15.0;-
 40
2.0
 41
1.4285714286
  0
MTEXT
  5
2C2
100
AcDbEntity
  8
0
100
AcDbMText
 62
5
  6
CONTINUOUS
  7
TEXTSTYLE_2
 71
2
 72
1
 10
124.5
 20
-16.5352761804
 30
0.0
 11
1.0
 21
0.0
 31
0.0
 44
0.9
  1
\Q15.0;-
 40
2.0
 41
1.4285714286
  0
MTEXT
  5
2C3
100
AcDbEntity
  8
0
100
AcDbMText
 62
5
  6
CONTINUOUS
  7
TEXTSTYLE_2
 71
1
 72
1
 10
0.0625
 20
-20.921875
 30
0.0
 11
1.0
 21
0.0
 31
0.0
 44
0.9
  1
\Q15.0; Benennung
 40
2.0
 41
14.5714285714
  0
MTEXT
  5
2C4
100
AcDbEntity
  8
0
100
AcDbMText
 62
5
  6
CONTINUOUS
  7
TEXTSTYLE_2
 71
1
 72
1
 10
82.0625
 20
-20.9647238196
 30
0.0
 11
1.0
 21
0.0
 31
0.0
 44
1.2
  1
\Q15.0; Aend.-Nr.\P -
 40
2.0
 41
14.1428571429
  0
MTEXT
  5
2C5
100
AcDbEntity
  8
0
100
AcDbMText
 62
5
  6
CONTINUOUS
  7
TEXTSTYLE_2
 71
2
 72
1
 10
124.5
 20
-20.835314297
 30
0.0
 11
1.0
 21
0.0
 31
0.0
 44
0.9
  1
\Q15.0;Aend.-Index\P\H3.0;-
 40
2.0
 41
15.5714285714
  0
MTEXT
  5
2C6
100
AcDbEntity
  8
0
100
AcDbMText
 62
5
  6
CONTINUOUS
  7
TEXTSTYLE_2
 71
2
 72
1
 10
41.0
 20
-23.8117333157
 30
0.0
 11
1.0
 21
0.0
 31
0.0
 44
0.9
  1
\Q15.0;Panel Solutions
 40
3.5
 41
35.5833333333
  0
MTEXT
  5
2C7
100
AcDbEntity
  8
0
100
AcDbMText
 62
5
  6
CONTINUOUS
  7
TEXTSTYLE_2
 71
2
 72
1
 10
40.25
 20
-30.088190451
 30
0.0
 11
1.0
 21
0.0
 31
0.0
 44
0.9
  1
\Q15.0;Blind Plate
 40
5.0
 41
36.5476190476
  0
MTEXT
  5
2C8
100
AcDbEntity
  8
0
100
AcDbMText
 62
5
  6
CONTINUOUS
  7
TEXTSTYLE_2
 71
1
 72
1
 10
82.0625
 20
-31.5352761804
 30
0.0
 11
1.0
 21
0.0
 31
0.0
 44
0.9
  1
\Q15.0; Ersatz fuer:
 40
2.0
 41
17.2857142857
  0
MTEXT
  5
2C9
100
AcDbEntity
  8
0
100
AcDbMText
 62
5
  6
CONTINUOUS
  7
TEXTSTYLE_2
 71
2
 72
1
 10
124.5
 20
-29.4647238196
 30
0.0
 11
1.0
 21
0.0
 31
0.0
 44
1.2
  1
\Q15.0;Blatt 1\Pvon 1 Bl.
 40
2.0
 41
12.2857142857
  0
MTEXT
  5
2CA
100
AcDbEntity
  8
0
100
AcDbMText
 62
5
  6
CONTINUOUS
  7
TEXTSTYLE_2
 71
1
 72
1
 10
82.0625
 20
-37.5352761804
 30
0.0
 11
1.0
 21
0.0
 31
0.0
 44
0.9
  1
\Q15.0; Zeichn. Nr.
 40
2.0
 41
16.4761904762
  0
MTEXT
  5
2CB
100
AcDbEntity
  8
0
100
AcDbMText
 62
5
  6
CONTINUOUS
  7
TEXTSTYLE_2
 71
2
 72
1
 10
108.5
 20
-41.3117333157
 30
0.0
 11
1.0
 21
0.0
 31
0.0
 44
0.9
  1
\Q15.0;ST-NZPFBP
 40
3.5
 41
24.5
  0
ENDBLK
  5
2CC
100
AcDbEntity
  8
0
100
AcDbBlockEnd
  0
ENDSEC
  0
SECTION
  2
ENTITIES
  0
MTEXT
  5
2CD
100
AcDbEntity
  8
0
100
AcDbMText
 62
4
  6
CONTINUOUS
  7
STANDARD
 71
1
 72
1
 10
126.0467415329
 20
10.4742136272
 30
0.0
 11
1.0
 21
0.0
 31
0.0
 44
0.9
  1
\Q15.0;FL-9494 SCHAAN
 40
2.43
 41
26.4985714286
  0
INSERT
  5
2CE
100
AcDbEntity
  8
0
100
AcDbBlockReference
 62
2
  6
CONTINUOUS
  2
NEUTRIK_LOGO_BL0
 10
98.0245925022
 20
9.2066660654
  0
DIMENSION
  5
2CF
100
AcDbEntity
  8
ZEICHNUNGSBEMASSUNGEN
100
AcDbDimension
 62
2
  6
CONTINUOUS
  2
*D0
 10
90.0480363748
 20
248.0193310727
 11
65.2980363748
 21
250.6751977306
 70
160
 71
2
 42
44.0
  3
DIMSTYLE_1
100
AcDbAlignedDimension
 13
46.0480363748
 23
238.8756525232
 14
90.0480363748
 24
238.6790425838
100
AcDbRotatedDimension
  0
DIMENSION
  5
2D0
100
AcDbEntity
  8
ZEICHNUNGSBEMASSUNGEN
100
AcDbDimension
 62
2
  6
CONTINUOUS
  2
*D1
 10
36.0480363748
 20
105.0193310727
 11
34.9604273734
 21
168.3903427501
 70
160
 71
2
 42
133.0
  3
DIMSTYLE_2
100
AcDbAlignedDimension
 13
45.1699864293
 23
238.0193310727
 14
45.4442521348
 24
105.0193310727
 50
270.0
100
AcDbRotatedDimension
  0
ACAD_TABLE
  5
2D1
100
AcDbEntity
  8
0
 62
2
  6
CONTINUOUS
100
AcDbBlockReference
  2
*T1
 10
72.0
 20
51.0
 30
0.0
100
AcDbTable
342
       4B0
343
212
 11
1.0
 21
0.0
 31
0.0
 90
22
 91
9
 92
8
 93
0
 94
0
 95
0
 96
0
141
5.0
141
5.0
141
5.0
141
5.0
141
3.0
141
5.0
141
9.0
141
3.0
141
6.0
142
20.5
142
19.0
142
1.5
142
23.0
142
18.0
142
19.0
142
15.0
142
17.0
171
1
172
0
173
0
174
0
175
2
176
2
 91
41
178
0
145
0.0
301
CELL_VALUE
 90
4
  1
\Q15.0; Allgemeintoleranzen\P ISO 2768-m
304
ACVALUE_END
170
4
140
1.8
 64
5
171
1
172
0
173
1
174
0
175
1
176
1
 91
1
178
0
145
0.0
170
1
171
1
172
0
173
0
174
0
175
1
176
2
 91
1
178
0
145
0.0
170
1
171
1
172
0
173
0
174
0
175
1
176
1
 91
41
178
0
145
0.0
301
CELL_VALUE
 90
4
  1
\Q15.0;Werkstoff
304
ACVALUE_END
170
5
140
2.0
 64
5
171
1
172
0
173
0
174
0
175
1
176
1
 91
41
178
0
145
0.0
301
CELL_VALUE
 90
4
  1
\Q15.0;Massstab:
304
ACVALUE_END
170
5
140
2.0
 64
5
171
1
172
0
173
0
174
0
175
1
176
1
 91
1
178
0
145
0.0
170
1
171
1
172
0
173
0
174
0
175
1
176
1
 91
41
178
0
145
0.0
301
CELL_VALUE
 90
4
  1
\Q15.0;Datum
304
ACVALUE_END
170
5
140
2.0
 64
5
171
1
172
0
173
0
174
0
175
1
176
1
 91
41
178
0
145
0.0
301
CELL_VALUE
 90
4
  1
\Q15.0;Name
304
ACVALUE_END
170
5
140
2.0
 64
5
171
1
172
0
173
1
174
0
175
1
176
1
 91
1
178
0
145
0.0
170
1
171
1
172
0
173
1
174
0
175
1
176
1
 91
1
178
0
145
0.0
170
1
171
1
172
0
173
1
174
0
175
1
176
1
 91
1
178
0
145
0.0
170
1
171
1
172
0
173
0
174
0
175
1
176
1
 91
1
178
0
145
0.0
170
1
171
1
172
0
173
0
174
0
175
1
176
1
 91
1
178
0
145
0.0
170
1
171
1
172
0
173
0
174
0
175
1
176
1
 91
41
178
0
145
0.0
301
CELL_VALUE
 90
4
  1
\Q15.0; Gezeichnet
304
ACVALUE_END
170
4
140
2.0
 64
5
171
1
172
0
173
0
174
0
175
1
176
1
 91
41
178
0
145
0.0
301
CELL_VALUE
 90
4
  1
\Q15.0;01.10.10
304
ACVALUE_END
170
5
140
2.0
 64
5
171
1
172
0
173
0
174
0
175
1
176
1
 91
41
178
0
145
0.0
301
CELL_VALUE
 90
4
  1
\Q15.0;Koch
304
ACVALUE_END
170
5
140
2.0
 64
5
171
1
172
0
173
0
174
0
175
2
176
2
 91
41
178
0
145
0.0
301
CELL_VALUE
 90
4
  1
\Q15.0; Zeichnung urheberrechtlich\P geschuetzt (DIN 34) (C)
304
ACVALUE_END
170
4
140
1.8
 64
5
171
1
172
0
173
1
174
0
175
1
176
1
 91
1
178
0
145
0.0
170
1
171
1
172
0
173
0
174
0
175
1
176
2
 91
1
178
0
145
0.0
170
1
171
1
172
0
173
0
174
0
175
1
176
1
 91
41
178
0
145
0.0
301
CELL_VALUE
 90
4
  1
\Q15.0;-
304
ACVALUE_END
170
5
140
2.0
 64
5
171
1
172
0
173
0
174
0
175
1
176
1
 91
41
178
0
145
0.0
301
CELL_VALUE
 90
4
  1
\Q15.0;1:1
304
ACVALUE_END
170
2
140
3.5
 64
5
171
1
172
0
173
0
174
0
175
1
176
1
 91
41
178
0
145
0.0
301
CELL_VALUE
 90
4
  1
\Q15.0; Freigegeben
304
ACVALUE_END
170
4
140
2.0
 64
5
171
1
172
0
173
0
174
0
175
1
176
1
 91
1
178
0
145
0.0
170
1
171
1
172
0
173
0
174
0
175
1
176
1
 91
1
178
0
145
0.0
170
1
171
1
172
0
173
1
174
0
175
1
176
1
 91
1
178
0
145
0.0
170
1
171
1
172
0
173
1
174
0
175
1
176
1
 91
1
178
0
145
0.0
170
1
171
1
172
0
173
1
174
0
175
1
176
1
 91
1
178
0
145
0.0
170
1
171
1
172
0
173
0
174
0
175
1
176
1
 91
41
178
0
145
0.0
301
CELL_VALUE
 90
4
  1
\Q15.0;-
304
ACVALUE_END
170
5
140
2.0
 64
5
171
1
172
0
173
0
174
0
175
1
176
1
 91
41
178
0
145
0.0
301
CELL_VALUE
 90
4
  1
\Q15.0;(A4)
304
ACVALUE_END
170
5
140
2.0
 64
5
171
1
172
0
173
0
174
0
175
1
176
1
 91
41
178
0
145
0.0
301
CELL_VALUE
 90
4
  1
\Q15.0; Geaendert
304
ACVALUE_END
170
4
140
2.0
 64
5
171
1
172
0
173
0
174
0
175
1
176
1
 91
41
178
0
145
0.0
301
CELL_VALUE
 90
4
  1
\Q15.0;-
304
ACVALUE_END
170
5
140
2.0
 64
5
171
1
172
0
173
0
174
0
175
1
176
1
 91
41
178
0
145
0.0
301
CELL_VALUE
 90
4
  1
\Q15.0;-
304
ACVALUE_END
170
5
140
2.0
 64
5
171
1
172
0
173
0
174
0
175
2
176
1
 91
41
178
0
145
0.0
301
CELL_VALUE
 90
4
  1
\Q15.0; Benennung
304
ACVALUE_END
170
7
140
2.0
 64
5
171
1
172
0
173
1
174
0
175
1
176
1
 91
1
178
0
145
0.0
170
1
171
1
172
0
173
0
174
0
175
1
176
1
 91
1
178
0
145
0.0
170
1
171
1
172
0
173
0
174
0
175
1
176
1
 91
1
178
0
145
0.0
170
1
171
1
172
0
173
0
174
0
175
1
176
1
 91
1
178
0
145
0.0
170
1
171
1
172
0
173
0
174
0
175
2
176
2
 91
41
178
0
145
0.0
301
CELL_VALUE
 90
4
  1
\Q15.0; Aend.-Nr.\P -
304
ACVALUE_END
170
4
140
2.0
 64
5
171
1
172
0
173
1
174
0
175
1
176
1
 91
1
178
0
145
0.0
170
1
171
1
172
0
173
0
174
0
175
1
176
2
 91
41
178
0
145
0.0
301
CELL_VALUE
 90
4
  1
\Q15.0;Aend.-Index\P\H3.0;-
304
ACVALUE_END
170
5
140
2.0
 64
5
171
1
172
0
173
0
174
0
175
5
176
1
 91
41
178
0
145
0.0
301
CELL_VALUE
 90
4
  1
\Q15.0;Panel Solutions
304
ACVALUE_END
170
5
140
3.5
 64
5
171
1
172
0
173
1
174
0
175
1
176
1
 91
1
178
0
145
0.0
170
1
171
1
172
0
173
1
174
0
175
1
176
1
 91
1
178
0
145
0.0
170
1
171
1
172
0
173
1
174
0
175
1
176
1
 91
1
178
0
145
0.0
170
1
171
1
172
0
173
1
174
0
175
1
176
1
 91
1
178
0
145
0.0
170
1
171
1
172
0
173
1
174
0
175
1
176
1
 91
1
178
0
145
0.0
170
1
171
1
172
0
173
1
174
0
175
1
176
1
 91
1
178
0
145
0.0
170
1
171
1
172
0
173
1
174
0
175
1
176
1
 91
1
178
0
145
0.0
170
1
171
1
172
0
173
0
174
0
175
1
176
1
 91
1
178
0
145
0.0
170
1
171
1
172
0
173
0
174
0
175
1
176
1
 91
1
178
0
145
0.0
170
1
171
1
172
0
173
0
174
0
175
1
176
1
 91
41
178
0
145
0.0
301
CELL_VALUE
 90
4
  1
\Q15.0;Blind Plate
304
ACVALUE_END
170
5
140
5.0
 64
5
171
1
172
0
173
0
174
0
175
1
176
1
 91
1
178
0
145
0.0
170
1
171
1
172
0
173
0
174
0
175
1
176
1
 91
1
178
0
145
0.0
170
1
171
1
172
0
173
0
174
0
175
1
176
1
 91
41
178
0
145
0.0
301
CELL_VALUE
 90
4
  1
\Q15.0; Ersatz fuer:
304
ACVALUE_END
170
4
140
2.0
 64
5
171
1
172
0
173
0
174
0
175
1
176
1
 91
1
178
0
145
0.0
170
1
171
1
172
0
173
0
174
0
175
1
176
1
 91
41
178
0
145
0.0
301
CELL_VALUE
 90
4
  1
\Q15.0;Blatt 1\Pvon 1 Bl.
304
ACVALUE_END
170
5
140
2.0
 64
5
171
1
172
0
173
0
174
0
175
5
176
2
 91
1
178
0
145
0.0
170
1
171
1
172
0
173
1
174
0
175
1
176
1
 91
1
178
0
145
0.0
170
1
171
1
172
0
173
1
174
0
175
1
176
1
 91
1
178
0
145
0.0
170
1
171
1
172
0
173
1
174
0
175
1
176
1
 91
1
178
0
145
0.0
170
1
171
1
172
0
173
1
174
0
175
1
176
1
 91
1
178
0
145
0.0
170
1
171
1
172
0
173
0
174
0
175
1
176
1
 91
41
178
0
145
0.0
301
CELL_VALUE
 90
4
  1
\Q15.0; Zeichn. Nr.
304
ACVALUE_END
170
4
140
2.0
 64
5
171
1
172
0
173
0
174
0
175
1
176
1
 91
1
178
0
145
0.0
170
1
171
1
172
0
173
0
174
0
175
1
176
1
 91
1
178
0
145
0.0
170
1
171
1
172
0
173
1
174
0
175
1
176
1
 91
1
178
0
145
0.0
170
1
171
1
172
0
173
1
174
0
175
1
176
1
 91
1
178
0
145
0.0
170
1
171
1
172
0
173
1
174
0
175
1
176
1
 91
1
178
0
145
0.0
170
1
171
1
172
0
173
1
174
0
175
1
176
1
 91
1
178
0
145
0.0
170
1
171
1
172
0
173
1
174
0
175
1
176
1
 91
1
178
0
145
0.0
170
1
171
1
172
0
173
0
174
0
175
1
176
1
 91
1
178
0
145
0.0
170
1
171
1
172
0
173
0
174
0
175
1
176
1
 91
41
178
0
145
0.0
301
CELL_VALUE
 90
4
  1
\Q15.0;ST-NZPFBP
304
ACVALUE_END
170
5
140
3.5
 64
5
171
1
172
0
173
0
174
0
175
1
176
1
 91
1
178
0
145
0.0
170
1
  0
LEADER
  5
2D2
100
AcDbEntity
  8
0
100
AcDbLeader
 62
2
  6
CONTINUOUS
  3
STANDARD
 71
1
 72
0
 73
0
 75
0
 40
3.5
 41
38.5
 76
3
 10
149.6357504552
 20
227.6704458022
 30
0.0
 10
155.7892705302
 20
260.248465598
 30
0.0
 10
160.7892705302
 20
260.248465598
 30
0.0
340
2D3
1001
ACAD
1000
DSTYLE
1002
{
1070
77
1070
0
1002
}
  0
MTEXT
  5
2D3
102
{ACAD_REACTORS
330
2D2
102
}
100
AcDbEntity
  8
0
100
AcDbMText
 62
5
  6
CONTINUOUS
  7
STANDARD
 71
1
 72
1
 10
160.7892705302
 20
261.9367322823
 30
0.0
 11
1.0
 21
0.0
 31
0.0
 44
0.9
  1
\Q15.0;mounting screws\P(4x) included
 40
3.5
 41
38.5
  0
LINE
  5
2D4
100
AcDbEntity
  8
0
100
AcDbLine
 62
7
  6
CONTINUOUS
 10
0.0
 20
0.0
 11
210.0
 21
0.0
  0
LINE
  5
2D5
100
AcDbEntity
  8
0
100
AcDbLine
 62
7
  6
CONTINUOUS
 10
5.0
 20
5.0
 11
205.0
 21
5.0
  0
LINE
  5
2D6
100
AcDbEntity
  8
0
100
AcDbLine
 62
7
  6
CONTINUOUS
 10
0.0
 20
0.0
 11
0.0
 21
297.0
  0
LINE
  5
2D7
100
AcDbEntity
  8
0
100
AcDbLine
 62
7
  6
CONTINUOUS
 10
5.0
 20
5.0
 11
5.0
 21
292.0
  0
LINE
  5
2D8
100
AcDbEntity
  8
0
100
AcDbLine
 62
7
  6
CONTINUOUS
 10
205.0
 20
5.0
 11
205.0
 21
292.0
  0
LINE
  5
2D9
100
AcDbEntity
  8
0
100
AcDbLine
 62
7
  6
CONTINUOUS
 10
210.0
 20
0.0
 11
210.0
 21
297.0
  0
LINE
  5
2DA
100
AcDbEntity
  8
0
100
AcDbLine
 62
7
  6
CONTINUOUS
 10
5.0
 20
292.0
 11
205.0
 21
292.0
  0
LINE
  5
2DB
100
AcDbEntity
  8
0
100
AcDbLine
 62
7
  6
CONTINUOUS
 10
0.0
 20
297.0
 11
210.0
 21
297.0
  0
LINE
  5
2DC
100
AcDbEntity
  8
0
100
AcDbLine
 62
7
  6
CONTINUOUS
 10
135.7716610169
 20
108.1411326086
 11
134.5453734039
 21
108.8509914401
  0
LINE
  5
2DD
100
AcDbEntity
  8
0
100
AcDbLine
 62
3
  6
CONTINUOUS
 10
168.8047755437
 20
114.1446838083
 11
153.8657779224
 21
111.4296192927
  0
LINE
  5
2DE
100
AcDbEntity
  8
0
100
AcDbLine
 62
3
  6
CONTINUOUS
 10
147.0189830935
 20
110.185259386
 11
135.7716610169
 21
108.1411326086
  0
LINE
  5
2DF
100
AcDbEntity
  8
RUNDUNGEN
100
AcDbLine
 62
9
  6
CONTINUOUS
 10
151.4932371409
 20
110.6751129342
 11
150.277556549
 21
111.2163176009
  0
LINE
  5
2E0
100
AcDbEntity
  8
RUNDUNGEN
100
AcDbLine
 62
9
  6
CONTINUOUS
 10
151.4878715229
 20
110.7933242499
 11
150.2721938386
 21
111.3345276222
  0
LINE
  5
2E1
100
AcDbEntity
  8
RUNDUNGEN
100
AcDbLine
 62
9
  6
CONTINUOUS
 10
150.7482036751
 20
111.2275309576
 11
150.2400570085
 21
111.4537510265
  0
LINE
  5
2E2
100
AcDbEntity
  8
RUNDUNGEN
100
AcDbLine
 62
9
  6
CONTINUOUS
 10
150.6993064924
 20
111.3651219411
 11
150.2402205916
 21
111.5695008162
  0
LINE
  5
2E3
100
AcDbEntity
  8
BEZUGSACHSEN
100
AcDbLine
 62
7
  6
CONTINUOUS
 10
146.4173917834
 20
112.5717983824
 11
146.0529732623
 21
112.7827486545
  0
LINE
  5
2E4
100
AcDbEntity
  8
0
100
AcDbLine
 62
9
  6
CONTINUOUS
 10
135.7876986125
 20
119.4891792997
 11
134.5614109995
 21
120.1990381311
  0
LINE
  5
2E5
100
AcDbEntity
  8
RUNDUNGEN
100
AcDbLine
 62
7
  6
CONTINUOUS
 10
151.5328181073
 20
110.7733426595
 11
150.7482036751
 21
111.2275309576
  0
LINE
  5
2E6
100
AcDbEntity
  8
RUNDUNGEN
100
AcDbLine
 62
9
  6
CONTINUOUS
 10
151.675551018
 20
114.0904398761
 11
152.8912316099
 21
113.5492352095
  0
LINE
  5
2E7
100
AcDbEntity
  8
RUNDUNGEN
100
AcDbLine
 62
7
  6
CONTINUOUS
 10
151.5528479785
 20
114.0421764231
 11
152.8465658069
 21
113.4662432968
  0
LINE
  5
2E8
100
AcDbEntity
  8
RUNDUNGEN
100
AcDbLine
 62
7
  6
CONTINUOUS
 10
152.8411230681
 20
111.8298828513
 11
152.0565086359
 21
112.2840711494
  0
LINE
  5
2E9
100
AcDbEntity
  8
BEZUGSACHSEN
100
AcDbLine
 62
7
  6
CONTINUOUS
 10
148.8463356387
 20
116.7697422451
 11
148.4827501011
 21
116.9802103295
  0
LINE
  5
2EA
100
AcDbEntity
  8
0
100
AcDbLine
 62
9
  6
CONTINUOUS
 10
174.1306933248
 20
126.4577662828
 11
135.7876986125
 21
119.4891792997
  0
LINE
  5
2EB
100
AcDbEntity
  8
RUNDUNGEN
100
AcDbLine
 62
9
  6
CONTINUOUS
 10
173.279029591
 20
114.6345373565
 11
172.0633489992
 21
115.1757420231
  0
LINE
  5
2EC
100
AcDbEntity
  8
0
100
AcDbLine
 62
9
  6
CONTINUOUS
 10
173.0026806062
 20
130.5418158857
 11
134.659685894
 21
123.5732289026
  0
LINE
  5
2ED
100
AcDbEntity
  8
RUNDUNGEN
100
AcDbLine
 62
9
  6
CONTINUOUS
 10
173.2736639731
 20
114.7527486722
 11
172.0579862888
 21
115.2939520444
  0
LINE
  5
2EE
100
AcDbEntity
  8
RUNDUNGEN
100
AcDbLine
 62
9
  6
CONTINUOUS
 10
172.5339961253
 20
115.1869553799
 11
172.0258494587
 21
115.4131754488
  0
LINE
  5
2EF
100
AcDbEntity
  8
RUNDUNGEN
100
AcDbLine
 62
9
  6
CONTINUOUS
 10
172.4850989426
 20
115.3245463633
 11
172.0260130418
 21
115.5289252385
  0
LINE
  5
2F0
100
AcDbEntity
  8
RUNDUNGEN
100
AcDbLine
 62
9
  6
CONTINUOUS
 10
173.4613434682
 20
118.0498642984
 11
174.6770240601
 21
117.5086596317
  0
LINE
  5
2F1
100
AcDbEntity
  8
RUNDUNGEN
100
AcDbLine
 62
7
  6
CONTINUOUS
 10
173.3386404287
 20
118.0016008453
 11
174.6323582571
 21
117.425667719
  0
LINE
  5
2F2
100
AcDbEntity
  8
BEZUGSACHSEN
100
AcDbLine
 62
7
  6
CONTINUOUS
 10
168.2031842336
 20
116.5312228046
 11
167.8387657124
 21
116.7421730767
  0
LINE
  5
2F3
100
AcDbEntity
  8
0
100
AcDbLine
 62
7
  6
CONTINUOUS
 10
134.13840623
 20
121.7305567322
 11
129.1295558783
 21
129.1423979726
  0
LINE
  5
2F4
100
AcDbEntity
  8
0
100
AcDbLine
 62
3
  6
CONTINUOUS
 10
134.659685894
 20
123.5732289026
 11
129.6508355422
 21
130.985070143
  0
LINE
  5
2F5
100
AcDbEntity
  8
RUNDUNGEN
100
AcDbLine
 62
7
  6
CONTINUOUS
 10
151.696511666
 20
225.619811814
 11
151.7211561034
 21
225.6399941189
  0
LINE
  5
2F6
100
AcDbEntity
  8
RUNDUNGEN
100
AcDbLine
 62
9
  6
CONTINUOUS
 10
150.4378859129
 20
224.6638200784
 11
151.6557212607
 21
225.6473002535
  0
LINE
  5
2F7
100
AcDbEntity
  8
RUNDUNGEN
100
AcDbLine
 62
9
  6
CONTINUOUS
 10
152.0780941454
 20
223.9403519156
 11
150.8570095154
 21
222.9542477366
  0
LINE
  5
2F8
100
AcDbEntity
  8
RUNDUNGEN
100
AcDbLine
 62
9
  6
CONTINUOUS
 10
152.2142116588
 20
223.8731969449
 11
150.9059066981
 21
222.8166567531
  0
LINE
  5
2F9
100
AcDbEntity
  8
RUNDUNGEN
100
AcDbLine
 62
9
  6
CONTINUOUS
 10
152.9537994687
 20
223.3823561086
 11
151.7359670329
 21
222.3988782851
  0
LINE
  5
2FA
100
AcDbEntity
  8
RUNDUNGEN
100
AcDbLine
 62
9
  6
CONTINUOUS
 10
153.0463082919
 20
223.2799843229
 11
151.8284729442
 21
222.2965041478
  0
LWPOLYLINE
  5
2FB
100
AcDbEntity
  8
RUNDUNGEN
100
AcDbPolyline
 62
7
  6
CONTINUOUS
 90
3
 70
0
 10
150.399559196
 20
224.5727182938
 10
150.4229081529
 20
224.5913076078
 10
151.696511666
 20
225.619811814
  0
LINE
  5
2FC
100
AcDbEntity
  8
0
100
AcDbLine
 62
9
  6
CONTINUOUS
 10
167.9938302545
 20
137.9536571261
 11
129.6508355422
 21
130.985070143
  0
LINE
  5
2FD
100
AcDbEntity
  8
RUNDUNGEN
100
AcDbLine
 62
7
  6
CONTINUOUS
 10
173.3186105575
 20
114.7327670817
 11
172.5339961253
 21
115.1869553799
  0
LINE
  5
2FE
100
AcDbEntity
  8
RUNDUNGEN
100
AcDbLine
 62
7
  6
CONTINUOUS
 10
174.6269155182
 20
115.7893072735
 11
173.842301086
 21
116.2434955717
  0
LINE
  5
2FF
100
AcDbEntity
  8
BEZUGSACHSEN
100
AcDbLine
 62
7
  6
CONTINUOUS
 10
170.6321280889
 20
120.7291666673
 11
170.2685425513
 21
120.9396347517
  0
LINE
  5
300
100
AcDbEntity
  8
0
100
AcDbLine
 62
9
  6
CONTINUOUS
 10
129.4012574496
 20
133.328741469
 11
128.4640142979
 21
135.3921881754
  0
LINE
  5
301
100
AcDbEntity
  8
0
100
AcDbLine
 62
9
  6
CONTINUOUS
 10
167.7442521619
 20
140.2973284522
 11
129.4012574496
 21
133.328741469
  0
LINE
  5
302
100
AcDbEntity
  8
RUNDUNGEN
100
AcDbLine
 62
7
  6
CONTINUOUS
 10
173.4823041161
 20
229.5792362362
 11
173.5069485536
 21
229.5994185411
  0
LINE
  5
303
100
AcDbEntity
  8
RUNDUNGEN
100
AcDbLine
 62
9
  6
CONTINUOUS
 10
172.2236783631
 20
228.6232445007
 11
173.4415137108
 21
229.6067246758
  0
LINE
  5
304
100
AcDbEntity
  8
RUNDUNGEN
100
AcDbLine
 62
9
  6
CONTINUOUS
 10
173.8638865956
 20
227.8997763378
 11
172.6428019655
 21
226.9136721588
  0
LINE
  5
305
100
AcDbEntity
  8
RUNDUNGEN
100
AcDbLine
 62
9
  6
CONTINUOUS
 10
174.000004109
 20
227.8326213672
 11
172.6916991482
 21
226.7760811753
  0
LWPOLYLINE
  5
306
100
AcDbEntity
  8
RUNDUNGEN
100
AcDbPolyline
 62
7
  6
CONTINUOUS
 90
3
 70
0
 10
172.1853516462
 20
228.532142716
 10
172.2087006031
 20
228.5507320301
 10
173.4823041161
 20
229.5792362362
  0
LINE
  5
307
100
AcDbEntity
  8
RUNDUNGEN
100
AcDbLine
 62
9
  6
CONTINUOUS
 10
174.7395919188
 20
227.3417805308
 11
173.521759483
 21
226.3583027073
  0
LINE
  5
308
100
AcDbEntity
  8
RUNDUNGEN
100
AcDbLine
 62
9
  6
CONTINUOUS
 10
174.8321007421
 20
227.2394087451
 11
173.6142653943
 21
226.25592857
  0
LINE
  5
309
100
AcDbEntity
  8
0
100
AcDbLine
 62
7
  6
CONTINUOUS
 10
134.5453734039
 20
108.8509914401
 11
134.5614109995
 21
120.1990381311
  0
LINE
  5
30A
100
AcDbEntity
  8
0
100
AcDbLine
 62
7
  6
CONTINUOUS
 10
134.6256153006
 20
165.6293773893
 11
134.7231234213
 21
234.6251755994
  0
LINE
  5
30B
100
AcDbEntity
  8
0
100
AcDbLine
 62
9
  6
CONTINUOUS
 10
179.1318004579
 20
159.8060989304
 11
140.7888057456
 21
152.8375119472
  0
LINE
  5
30C
100
AcDbEntity
  8
0
100
AcDbLine
 62
7
  6
CONTINUOUS
 10
139.4815850473
 20
157.3989631086
 11
136.0746932297
 21
161.1337727758
  0
LINE
  5
30D
100
AcDbEntity
  8
0
100
AcDbLine
 62
3
  6
CONTINUOUS
 10
139.8021989546
 20
159.4988571606
 11
136.395307137
 21
163.2336668278
  0
LINE
  5
30E
100
AcDbEntity
  8
0
100
AcDbLine
 62
9
  6
CONTINUOUS
 10
140.7888057456
 20
152.8375119472
 11
139.8515625939
 21
154.9009586536
  0
LINE
  5
30F
100
AcDbEntity
  8
0
100
AcDbLine
 62
3
  6
CONTINUOUS
 10
135.7716610169
 20
108.1411326086
 11
135.7876986125
 21
119.4891792997
  0
LINE
  5
310
100
AcDbEntity
  8
0
100
AcDbLine
 62
3
  6
CONTINUOUS
 10
135.8519029136
 20
164.9195185578
 11
135.9494110343
 21
233.9153167679
  0
LINE
  5
311
100
AcDbEntity
  8
0
100
AcDbLine
 62
9
  6
CONTINUOUS
 10
136.395307137
 20
163.2336668278
 11
136.0746932297
 21
161.1337727758
  0
LINE
  5
312
100
AcDbEntity
  8
0
100
AcDbLine
 62
9
  6
CONTINUOUS
 10
135.8519029136
 20
164.9195185578
 11
134.6256153006
 21
165.6293773893
  0
LINE
  5
313
100
AcDbEntity
  8
0
100
AcDbLine
 62
9
  6
CONTINUOUS
 10
139.8021989546
 20
159.4988571606
 11
139.4815850473
 21
157.3989631086
  0
LINE
  5
314
100
AcDbEntity
  8
0
100
AcDbLine
 62
9
  6
CONTINUOUS
 10
129.6508355422
 20
130.985070143
 11
129.1295558783
 21
129.1423979726
  0
LINE
  5
315
100
AcDbEntity
  8
0
100
AcDbLine
 62
9
  6
CONTINUOUS
 10
178.1451936669
 20
166.4674441437
 11
139.8021989546
 21
159.4988571606
  0
LINE
  5
316
100
AcDbEntity
  8
0
100
AcDbLine
 62
3
  6
CONTINUOUS
 10
173.0026806062
 20
130.5418158857
 11
167.9938302545
 21
137.9536571261
  0
LINE
  5
317
100
AcDbEntity
  8
0
100
AcDbLine
 62
9
  6
CONTINUOUS
 10
134.659685894
 20
123.5732289026
 11
134.13840623
 21
121.7305567322
  0
LINE
  5
318
100
AcDbEntity
  8
0
100
AcDbLine
 62
9
  6
CONTINUOUS
 10
174.7383018493
 20
170.2022538109
 11
136.395307137
 21
163.2336668278
  0
LINE
  5
319
100
AcDbEntity
  8
0
100
AcDbLine
 62
9
  6
CONTINUOUS
 10
174.1948976259
 20
171.8881055409
 11
135.8519029136
 21
164.9195185578
  0
LINE
  5
31A
100
AcDbEntity
  8
RUNDUNGEN
100
AcDbLine
 62
7
  6
CONTINUOUS
 10
150.2421046443
 20
112.953895881
 11
150.2419558843
 21
112.9838006488
  0
LINE
  5
31B
100
AcDbEntity
  8
RUNDUNGEN
100
AcDbLine
 62
7
  6
CONTINUOUS
 10
150.3998076672
 20
224.5430216765
 11
150.3996589073
 21
224.5729264443
  0
LINE
  5
31C
100
AcDbEntity
  8
RUNDUNGEN
100
AcDbLine
 62
9
  6
CONTINUOUS
 10
150.1890259844
 20
111.3670308699
 11
150.1911807409
 21
112.8917156076
  0
LINE
  5
31D
100
AcDbEntity
  8
RUNDUNGEN
100
AcDbLine
 62
9
  6
CONTINUOUS
 10
150.3467290074
 20
222.9561566654
 11
150.3488837638
 21
224.4808414031
  0
LINE
  5
31E
100
AcDbEntity
  8
RUNDUNGEN
100
AcDbLine
 62
9
  6
CONTINUOUS
 10
152.0802512543
 20
225.4667011984
 11
152.0780941454
 21
223.9403519156
  0
LINE
  5
31F
100
AcDbEntity
  8
RUNDUNGEN
100
AcDbLine
 62
9
  6
CONTINUOUS
 10
151.9225482314
 20
113.8775754029
 11
151.9203911225
 21
112.3512261201
  0
LINE
  5
320
100
AcDbEntity
  8
RUNDUNGEN
100
AcDbLine
 62
9
  6
CONTINUOUS
 10
152.216378029
 20
225.4060993872
 11
152.2142116588
 21
223.8731969449
  0
LINE
  5
321
100
AcDbEntity
  8
RUNDUNGEN
100
AcDbLine
 62
9
  6
CONTINUOUS
 10
152.058675006
 20
113.8169735917
 11
152.0565086359
 21
112.2840711494
  0
LINE
  5
322
100
AcDbEntity
  8
RUNDUNGEN
100
AcDbLine
 62
9
  6
CONTINUOUS
 10
153.0012705207
 20
225.0002026171
 11
152.9991157692
 21
223.4755214214
  0
LINE
  5
323
100
AcDbEntity
  8
RUNDUNGEN
100
AcDbLine
 62
9
  6
CONTINUOUS
 10
152.8435674977
 20
113.4110768216
 11
152.8414127462
 21
111.8863956259
  0
LINE
  5
324
100
AcDbEntity
  8
RUNDUNGEN
100
AcDbLine
 62
9
  6
CONTINUOUS
 10
153.1374651975
 20
224.9876477359
 11
153.135310441
 21
223.4629629982
  0
LINE
  5
325
100
AcDbEntity
  8
RUNDUNGEN
100
AcDbLine
 62
9
  6
CONTINUOUS
 10
152.9797621745
 20
113.3985219405
 11
152.977607418
 21
111.8738372027
  0
LINE
  5
326
100
AcDbEntity
  8
RUNDUNGEN
100
AcDbLine
 62
7
  6
CONTINUOUS
 10
150.3976633427
 20
222.9768929913
 11
150.3998076672
 21
224.5430216765
  0
LINE
  5
327
100
AcDbEntity
  8
RUNDUNGEN
100
AcDbLine
 62
7
  6
CONTINUOUS
 10
150.2399603198
 20
111.3877671958
 11
150.2421046443
 21
112.953895881
  0
LINE
  5
328
100
AcDbEntity
  8
RUNDUNGEN
100
AcDbLine
 62
7
  6
CONTINUOUS
 10
150.3973226631
 20
222.9207289921
 11
150.3976633427
 21
222.9768929913
  0
LINE
  5
329
100
AcDbEntity
  8
RUNDUNGEN
100
AcDbLine
 62
7
  6
CONTINUOUS
 10
150.2396196401
 20
111.3316031967
 11
150.2399603198
 21
111.3877671958
  0
LINE
  5
32A
100
AcDbEntity
  8
0
100
AcDbLine
 62
7
  6
CONTINUOUS
 10
128.4640142979
 20
135.3921881754
 11
139.8515625939
 21
154.9009586536
  0
LINE
  5
32B
100
AcDbEntity
  8
0
100
AcDbLine
 62
3
  6
CONTINUOUS
 10
129.4012574496
 20
133.328741469
 11
140.7888057456
 21
152.8375119472
  0
LINE
  5
32C
100
AcDbEntity
  8
0
100
AcDbLine
 62
3
  6
CONTINUOUS
 10
178.1451936669
 20
166.4674441437
 11
174.7383018493
 21
170.2022538109
  0
LINE
  5
32D
100
AcDbEntity
  8
RUNDUNGEN
100
AcDbLine
 62
7
  6
CONTINUOUS
 10
172.0278970944
 20
116.9133203032
 11
172.0277483345
 21
116.9432250711
  0
LINE
  5
32E
100
AcDbEntity
  8
RUNDUNGEN
100
AcDbLine
 62
7
  6
CONTINUOUS
 10
172.1856001174
 20
228.5024460987
 11
172.1854513575
 21
228.5323508666
  0
LINE
  5
32F
100
AcDbEntity
  8
RUNDUNGEN
100
AcDbLine
 62
9
  6
CONTINUOUS
 10
171.9748184346
 20
115.3264552921
 11
171.9769731911
 21
116.8511400299
  0
LINE
  5
330
100
AcDbEntity
  8
RUNDUNGEN
100
AcDbLine
 62
9
  6
CONTINUOUS
 10
172.1325214575
 20
226.9155810876
 11
172.134676214
 21
228.4402658253
  0
LINE
  5
331
100
AcDbEntity
  8
RUNDUNGEN
100
AcDbLine
 62
7
  6
CONTINUOUS
 10
172.1834557929
 20
226.9363174135
 11
172.1856001174
 21
228.5024460987
  0
LINE
  5
332
100
AcDbEntity
  8
RUNDUNGEN
100
AcDbLine
 62
7
  6
CONTINUOUS
 10
172.0257527699
 20
115.347191618
 11
172.0278970944
 21
116.9133203032
  0
LINE
  5
333
100
AcDbEntity
  8
RUNDUNGEN
100
AcDbLine
 62
7
  6
CONTINUOUS
 10
172.1831151133
 20
226.8801534144
 11
172.1834557929
 21
226.9363174135
  0
LINE
  5
334
100
AcDbEntity
  8
RUNDUNGEN
100
AcDbLine
 62
7
  6
CONTINUOUS
 10
172.0254120903
 20
115.2910276189
 11
172.0257527699
 21
115.347191618
  0
LINE
  5
335
100
AcDbEntity
  8
RUNDUNGEN
100
AcDbLine
 62
9
  6
CONTINUOUS
 10
173.8660437045
 20
229.4261256206
 11
173.8638865956
 21
227.8997763378
  0
LINE
  5
336
100
AcDbEntity
  8
RUNDUNGEN
100
AcDbLine
 62
9
  6
CONTINUOUS
 10
173.7083406815
 20
117.8369998252
 11
173.7061835726
 21
116.3106505423
  0
LINE
  5
337
100
AcDbEntity
  8
RUNDUNGEN
100
AcDbLine
 62
9
  6
CONTINUOUS
 10
174.0021704791
 20
229.3655238095
 11
174.000004109
 21
227.8326213672
  0
LINE
  5
338
100
AcDbEntity
  8
RUNDUNGEN
100
AcDbLine
 62
9
  6
CONTINUOUS
 10
173.8444674562
 20
117.776398014
 11
173.842301086
 21
116.2434955717
  0
LINE
  5
339
100
AcDbEntity
  8
0
100
AcDbLine
 62
3
  6
CONTINUOUS
 10
174.1231808913
 20
121.1420414056
 11
174.1306933248
 21
126.4577662828
  0
LINE
  5
33A
100
AcDbEntity
  8
0
100
AcDbLine
 62
3
  6
CONTINUOUS
 10
174.1948976259
 20
171.8881055409
 11
174.2701631765
 21
225.1452773987
  0
LINE
  5
33B
100
AcDbEntity
  8
0
100
AcDbLine
 62
3
  6
CONTINUOUS
 10
174.2808839143
 20
232.7311672011
 11
174.2924057466
 21
240.883903751
  0
LINE
  5
33C
100
AcDbEntity
  8
RUNDUNGEN
100
AcDbLine
 62
9
  6
CONTINUOUS
 10
174.7870629708
 20
228.9596270394
 11
174.7849082193
 21
227.4349458436
  0
LINE
  5
33D
100
AcDbEntity
  8
RUNDUNGEN
100
AcDbLine
 62
9
  6
CONTINUOUS
 10
174.6293599479
 20
117.3705012439
 11
174.6272051964
 21
115.8458200481
  0
LINE
  5
33E
100
AcDbEntity
  8
RUNDUNGEN
100
AcDbLine
 62
9
  6
CONTINUOUS
 10
174.9232576476
 20
228.9470721582
 11
174.9211028912
 21
227.4223874205
  0
LINE
  5
33F
100
AcDbEntity
  8
RUNDUNGEN
100
AcDbLine
 62
9
  6
CONTINUOUS
 10
174.7655546247
 20
117.3579463627
 11
174.7633998682
 21
115.833261625
  0
LINE
  5
340
100
AcDbEntity
  8
0
100
AcDbLine
 62
3
  6
CONTINUOUS
 10
167.7442521619
 20
140.2973284522
 11
179.1318004579
 21
159.8060989304
  0
LINE
  5
341
100
AcDbEntity
  8
RUNDUNGEN
100
AcDbLine
 62
9
  6
CONTINUOUS
 10
151.6509401638
 20
222.2642387297
 11
150.435259572
 21
222.8054433964
  0
LINE
  5
342
100
AcDbEntity
  8
RUNDUNGEN
100
AcDbLine
 62
9
  6
CONTINUOUS
 10
151.6455745459
 20
222.3824500454
 11
150.4298968616
 21
222.9236534176
  0
LINE
  5
343
100
AcDbEntity
  8
RUNDUNGEN
100
AcDbLine
 62
9
  6
CONTINUOUS
 10
150.9059066981
 20
222.8166567531
 11
150.3977600315
 21
223.042876822
  0
LINE
  5
344
100
AcDbEntity
  8
RUNDUNGEN
100
AcDbLine
 62
9
  6
CONTINUOUS
 10
150.8570095154
 20
222.9542477366
 11
150.3979236146
 21
223.1586266117
  0
LINE
  5
345
100
AcDbEntity
  8
BEZUGSACHSEN
100
AcDbLine
 62
7
  6
CONTINUOUS
 10
146.5750948064
 20
224.1609241779
 11
146.2106762852
 21
224.37187445
  0
LINE
  5
346
100
AcDbEntity
  8
RUNDUNGEN
100
AcDbLine
 62
7
  6
CONTINUOUS
 10
151.6905211303
 20
222.3624684549
 11
150.9059066981
 21
222.8166567531
  0
LINE
  5
347
100
AcDbEntity
  8
RUNDUNGEN
100
AcDbLine
 62
7
  6
CONTINUOUS
 10
152.998826091
 20
223.4190086468
 11
152.2142116588
 21
223.8731969449
  0
LINE
  5
348
100
AcDbEntity
  8
0
100
AcDbLine
 62
7
  6
CONTINUOUS
 10
135.9494110343
 20
233.9153167679
 11
134.7231234213
 21
234.6251755994
  0
LINE
  5
349
100
AcDbEntity
  8
RUNDUNGEN
100
AcDbLine
 62
7
  6
CONTINUOUS
 10
151.538808643
 20
114.0306860185
 11
151.5634530805
 21
114.0508683234
  0
LINE
  5
34A
100
AcDbEntity
  8
RUNDUNGEN
100
AcDbLine
 62
9
  6
CONTINUOUS
 10
150.28018289
 20
113.074694283
 11
151.4980182377
 21
114.0581744581
  0
LINE
  5
34B
100
AcDbEntity
  8
RUNDUNGEN
100
AcDbLine
 62
9
  6
CONTINUOUS
 10
151.9203911225
 20
112.3512261201
 11
150.6993064924
 21
111.3651219411
  0
LINE
  5
34C
100
AcDbEntity
  8
RUNDUNGEN
100
AcDbLine
 62
9
  6
CONTINUOUS
 10
152.0565086359
 20
112.2840711494
 11
150.7482036751
 21
111.2275309576
  0
LWPOLYLINE
  5
34D
100
AcDbEntity
  8
RUNDUNGEN
100
AcDbPolyline
 62
7
  6
CONTINUOUS
 90
3
 70
0
 10
150.241856173
 20
112.9835924983
 10
150.2652051299
 20
113.0021818124
 10
151.538808643
 20
114.0306860185
  0
LINE
  5
34E
100
AcDbEntity
  8
RUNDUNGEN
100
AcDbLine
 62
9
  6
CONTINUOUS
 10
151.833254041
 20
225.6795656716
 11
153.0489346329
 21
225.138361005
  0
LINE
  5
34F
100
AcDbEntity
  8
RUNDUNGEN
100
AcDbLine
 62
7
  6
CONTINUOUS
 10
151.7105510015
 20
225.6313022186
 11
153.0042688299
 21
225.0553690923
  0
LINE
  5
350
100
AcDbEntity
  8
BEZUGSACHSEN
100
AcDbLine
 62
7
  6
CONTINUOUS
 10
149.0040386617
 20
228.3588680406
 11
148.6404531241
 21
228.569336125
  0
LINE
  5
351
100
AcDbEntity
  8
RUNDUNGEN
100
AcDbLine
 62
9
  6
CONTINUOUS
 10
152.7960964457
 20
111.7932303131
 11
151.5782640099
 21
110.8097524896
  0
LINE
  5
352
100
AcDbEntity
  8
RUNDUNGEN
100
AcDbLine
 62
9
  6
CONTINUOUS
 10
152.888605269
 20
111.6908585274
 11
151.6707699212
 21
110.7073783523
  0
LINE
  5
353
100
AcDbEntity
  8
RUNDUNGEN
100
AcDbLine
 62
7
  6
CONTINUOUS
 10
173.3246010932
 20
117.9901104407
 11
173.3492455306
 21
118.0102927456
  0
LINE
  5
354
100
AcDbEntity
  8
RUNDUNGEN
100
AcDbLine
 62
9
  6
CONTINUOUS
 10
172.0659753401
 20
117.0341187052
 11
173.2838106879
 21
118.0175988803
  0
LWPOLYLINE
  5
355
100
AcDbEntity
  8
RUNDUNGEN
100
AcDbPolyline
 62
7
  6
CONTINUOUS
 90
3
 70
0
 10
172.0276486232
 20
116.9430169205
 10
172.0509975801
 20
116.9616062346
 10
173.3246010932
 20
117.9901104407
  0
LINE
  5
356
100
AcDbEntity
  8
RUNDUNGEN
100
AcDbLine
 62
9
  6
CONTINUOUS
 10
173.436732614
 20
226.223663152
 11
172.2210520222
 21
226.7648678186
  0
LINE
  5
357
100
AcDbEntity
  8
RUNDUNGEN
100
AcDbLine
 62
9
  6
CONTINUOUS
 10
173.4313669961
 20
226.3418744676
 11
172.2156893118
 21
226.8830778399
  0
LINE
  5
358
100
AcDbEntity
  8
RUNDUNGEN
100
AcDbLine
 62
9
  6
CONTINUOUS
 10
172.6916991482
 20
226.7760811753
 11
172.1835524817
 21
227.0023012443
  0
LINE
  5
359
100
AcDbEntity
  8
RUNDUNGEN
100
AcDbLine
 62
9
  6
CONTINUOUS
 10
172.6428019655
 20
226.9136721588
 11
172.1837160647
 21
227.1180510339
  0
LINE
  5
35A
100
AcDbEntity
  8
BEZUGSACHSEN
100
AcDbLine
 62
7
  6
CONTINUOUS
 10
168.3608872566
 20
228.1203486001
 11
167.9964687354
 21
228.3312988722
  0
LINE
  5
35B
100
AcDbEntity
  8
RUNDUNGEN
100
AcDbLine
 62
7
  6
CONTINUOUS
 10
173.4763135804
 20
226.3218928772
 11
172.6916991482
 21
226.7760811753
  0
LINE
  5
35C
100
AcDbEntity
  8
RUNDUNGEN
100
AcDbLine
 62
7
  6
CONTINUOUS
 10
174.7846185412
 20
227.378433069
 11
174.000004109
 21
227.8326213672
  0
LINE
  5
35D
100
AcDbEntity
  8
RUNDUNGEN
100
AcDbLine
 62
9
  6
CONTINUOUS
 10
173.7061835726
 20
116.3106505423
 11
172.4850989426
 21
115.3245463633
  0
LINE
  5
35E
100
AcDbEntity
  8
RUNDUNGEN
100
AcDbLine
 62
9
  6
CONTINUOUS
 10
173.842301086
 20
116.2434955717
 11
172.5339961253
 21
115.1869553799
  0
LINE
  5
35F
100
AcDbEntity
  8
RUNDUNGEN
100
AcDbLine
 62
9
  6
CONTINUOUS
 10
174.5818888959
 20
115.7526547354
 11
173.3640564601
 21
114.7691769119
  0
LINE
  5
360
100
AcDbEntity
  8
RUNDUNGEN
100
AcDbLine
 62
9
  6
CONTINUOUS
 10
174.6743977191
 20
115.6502829496
 11
173.4565623714
 21
114.6668027745
  0
LINE
  5
361
100
AcDbEntity
  8
0
100
AcDbLine
 62
3
  6
CONTINUOUS
 10
174.2924057466
 20
240.883903751
 11
135.9494110343
 21
233.9153167679
  0
LINE
  5
362
100
AcDbEntity
  8
0
100
AcDbLine
 62
7
  6
CONTINUOUS
 10
173.0661181336
 20
241.5937625825
 11
134.7231234213
 21
234.6251755994
  0
LINE
  5
363
100
AcDbEntity
  8
RUNDUNGEN
100
AcDbLine
 62
9
  6
CONTINUOUS
 10
173.6190464912
 20
229.6389900938
 11
174.834727083
 21
229.0977854272
  0
LINE
  5
364
100
AcDbEntity
  8
RUNDUNGEN
100
AcDbLine
 62
7
  6
CONTINUOUS
 10
173.4963434517
 20
229.5907266408
 11
174.79006128
 21
229.0147935145
  0
LINE
  5
365
100
AcDbEntity
  8
BEZUGSACHSEN
100
AcDbLine
 62
7
  6
CONTINUOUS
 10
170.7898311119
 20
232.3182924628
 11
170.4262455743
 21
232.5287605472
  0
LINE
  5
366
100
AcDbEntity
  8
0
100
AcDbLine
 62
7
  6
CONTINUOUS
 10
174.2924057466
 20
240.883903751
 11
173.0661181336
 21
241.5937625825
  0
LINE
  5
367
100
AcDbEntity
  8
0
100
AcDbLine
 62
3
  6
CONTINUOUS
 10
90.0480363748
 20
105.0193310727
 11
46.0480363748
 21
105.0193310727
  0
LINE
  5
368
100
AcDbEntity
  8
0
100
AcDbLine
 62
9
  6
CONTINUOUS
 10
90.0480363748
 20
117.0193310727
 11
46.0480363748
 21
117.0193310727
  0
LINE
  5
369
100
AcDbEntity
  8
0
100
AcDbLine
 62
9
  6
CONTINUOUS
 10
90.0480363748
 20
120.6445622209
 11
46.0480363748
 21
120.6445622209
  0
LINE
  5
36A
100
AcDbEntity
  8
0
100
AcDbLine
 62
9
  6
CONTINUOUS
 10
90.0480363748
 20
125.4122784459
 11
46.0480363748
 21
125.4122784459
  0
LINE
  5
36B
100
AcDbEntity
  8
0
100
AcDbLine
 62
9
  6
CONTINUOUS
 10
90.0480363748
 20
127.735921541
 11
46.0480363748
 21
127.735921541
  0
LINE
  5
36C
100
AcDbEntity
  8
0
100
AcDbLine
 62
3
  6
CONTINUOUS
 10
46.0480363748
 20
105.0193310727
 11
46.0480363748
 21
238.0193310727
  0
LINE
  5
36D
100
AcDbEntity
  8
0
100
AcDbLine
 62
9
  6
CONTINUOUS
 10
90.0480363748
 20
155.3135214933
 11
46.0480363748
 21
155.3135214933
  0
LINE
  5
36E
100
AcDbEntity
  8
0
100
AcDbLine
 62
9
  6
CONTINUOUS
 10
90.0480363748
 20
161.7483752372
 11
46.0480363748
 21
161.7483752372
  0
LINE
  5
36F
100
AcDbEntity
  8
0
100
AcDbLine
 62
9
  6
CONTINUOUS
 10
90.0480363748
 20
163.610786715
 11
46.0480363748
 21
163.610786715
  0
LINE
  5
370
100
AcDbEntity
  8
0
100
AcDbLine
 62
9
  6
CONTINUOUS
 10
90.0480363748
 20
165.0596754544
 11
46.0480363748
 21
165.0596754544
  0
LINE
  5
371
100
AcDbEntity
  8
0
100
AcDbLine
 62
3
  6
CONTINUOUS
 10
90.0480363748
 20
105.0193310727
 11
90.0480363748
 21
238.0193310727
  0
LINE
  5
372
100
AcDbEntity
  8
0
100
AcDbLine
 62
3
  6
CONTINUOUS
 10
90.0480363748
 20
238.0193310727
 11
46.0480363748
 21
238.0193310727
  0
ARC
  5
373
100
AcDbEntity
  8
RUNDUNGEN
100
AcDbCircle
 62
9
  6
CONTINUOUS
 10
159.1106755906
 20
129.7677120014
 40
17.3701027297
100
AcDbArc
 50
249.019233529
 51
249.345421786
  0
ARC
  5
374
100
AcDbEntity
  8
RUNDUNGEN
100
AcDbCircle
 62
9
  6
CONTINUOUS
 10
145.2643559366
 20
113.4223329602
 40
7.5792199195
100
AcDbArc
 50
359.9149081994
 51
0.2346617577
  0
ARC
  5
375
100
AcDbEntity
  8
RUNDUNGEN
100
AcDbCircle
 62
9
  6
CONTINUOUS
 10
145.4536314946
 20
111.8960074335
 40
7.3877875043
100
AcDbArc
 50
359.4871658032
 51
359.9254558739
  0
ARC
  5
376
100
AcDbEntity
  8
RUNDUNGEN
100
AcDbCircle
 62
9
  6
CONTINUOUS
 10
146.9885573313
 20
116.4919503696
 40
7.3042987441
100
AcDbArc
 50
308.4722204436
 51
308.929003011
  0
ARC
  5
377
100
AcDbEntity
  8
RUNDUNGEN
100
AcDbCircle
 62
9
  6
CONTINUOUS
 10
148.2485215161
 20
117.4257827155
 40
7.2392046736
100
AcDbArc
 50
308.9164957347
 51
309.3760108199
  0
ARC
  5
378
100
AcDbEntity
  8
RUNDUNGEN
100
AcDbCircle
 62
9
  6
CONTINUOUS
 10
145.7748605101
 20
113.6996506547
 40
7.2111918502
100
AcDbArc
 50
357.6067156074
 51
358.5254900705
  0
ARC
  5
379
100
AcDbEntity
  8
RUNDUNGEN
100
AcDbCircle
 62
9
  6
CONTINUOUS
 10
145.8184662852
 20
111.5901452189
 40
7.1647598922
100
AcDbArc
 50
1.3669926942
 51
2.2692478053
  0
ARC
  5
37A
100
AcDbEntity
  8
RUNDUNGEN
100
AcDbCircle
 62
9
  6
CONTINUOUS
 10
145.7572678597
 20
113.4241410415
 40
7.0863047284
100
AcDbArc
 50
0.2363654233
 51
0.3532646295
  0
ARC
  5
37B
100
AcDbEntity
  8
RUNDUNGEN
100
AcDbCircle
 62
9
  6
CONTINUOUS
 10
147.0665761841
 20
115.9809530062
 40
7.0006564655
100
AcDbArc
 50
310.1546398569
 51
311.1231993627
  0
ARC
  5
37C
100
AcDbEntity
  8
RUNDUNGEN
100
AcDbCircle
 62
9
  6
CONTINUOUS
 10
148.7491172103
 20
117.2454116733
 40
6.9273677125
100
AcDbArc
 50
306.6950361769
 51
307.6560796468
  0
ARC
  5
37D
100
AcDbEntity
  8
RUNDUNGEN
100
AcDbCircle
 62
9
  6
CONTINUOUS
 10
165.7932348501
 20
116.6108906108
 40
6.1884035451
100
AcDbArc
 50
2.2249237234
 51
3.2803818328
  0
ARC
  5
37E
100
AcDbEntity
  8
RUNDUNGEN
100
AcDbCircle
 62
9
  6
CONTINUOUS
 10
144.0074423999
 20
112.6514661885
 40
6.1884035451
100
AcDbArc
 50
2.2249237234
 51
3.2803818328
  0
ARC
  5
37F
100
AcDbEntity
  8
RUNDUNGEN
100
AcDbCircle
 62
9
  6
CONTINUOUS
 10
146.6643662807
 20
117.9182652734
 40
6.0443617102
100
AcDbArc
 50
305.6323924854
 51
306.7420316221
  0
ARC
  5
380
100
AcDbEntity
  8
RUNDUNGEN
100
AcDbCircle
 62
9
  6
CONTINUOUS
 10
144.2479485422
 20
111.6105270523
 40
5.9460651199
100
AcDbArc
 50
356.5485636644
 51
357.6530368656
  0
ARC
  5
381
100
AcDbEntity
  8
RUNDUNGEN
100
AcDbCircle
 62
9
  6
CONTINUOUS
 10
147.6167658551
 20
118.5112533972
 40
5.9071169753
100
AcDbArc
 50
311.0750303592
 51
312.2160550652
  0
ARC
  5
382
100
AcDbEntity
  8
BEZUGSACHSEN
100
AcDbCircle
 62
7
  6
CONTINUOUS
 10
149.2838242747
 20
113.7145848714
 40
5.1219043714
100
AcDbArc
 50
294.8983718742
 51
359.9029065516
  0
ARC
  5
383
100
AcDbEntity
  8
BEZUGSACHSEN
100
AcDbCircle
 62
7
  6
CONTINUOUS
 10
149.3011382538
 20
113.7131468761
 40
5.1045742898
100
AcDbArc
 50
359.9187178349
 51
5.0028800942
  0
ARC
  5
384
100
AcDbEntity
  8
RUNDUNGEN
100
AcDbCircle
 62
9
  6
CONTINUOUS
 10
150.0574253254
 20
113.7801298912
 40
4.3453271042
100
AcDbArc
 50
4.9926585863
 51
8.7532421447
  0
ARC
  5
385
100
AcDbEntity
  8
RUNDUNGEN
100
AcDbCircle
 62
9
  6
CONTINUOUS
 10
150.1491012792
 20
113.7932749108
 40
4.2527186174
100
AcDbArc
 50
8.7661660798
 51
9.1168418
  0
ARC
  5
386
100
AcDbEntity
  8
RUNDUNGEN
100
AcDbCircle
 62
9
  6
CONTINUOUS
 10
150.2265874751
 20
113.8063235749
 40
4.1741437887
100
AcDbArc
 50
9.1085199585
 51
12.6574776396
  0
ARC
  5
387
100
AcDbEntity
  8
RUNDUNGEN
100
AcDbCircle
 62
9
  6
CONTINUOUS
 10
150.3174296835
 20
113.8258051463
 40
4.0812405339
100
AcDbArc
 50
12.6700763576
 51
13.2945361519
  0
ARC
  5
388
100
AcDbEntity
  8
RUNDUNGEN
100
AcDbCircle
 62
9
  6
CONTINUOUS
 10
150.3895745673
 20
113.8433374684
 40
4.0069974236
100
AcDbArc
 50
13.2877834261
 51
16.4591110721
  0
ARC
  5
389
100
AcDbEntity
  8
RUNDUNGEN
100
AcDbCircle
 62
9
  6
CONTINUOUS
 10
150.4763918084
 20
113.8683993997
 40
3.9166369821
100
AcDbArc
 50
16.4673481085
 51
17.7456114038
  0
ARC
  5
38A
100
AcDbEntity
  8
RUNDUNGEN
100
AcDbCircle
 62
9
  6
CONTINUOUS
 10
150.5445028644
 20
113.8904586126
 40
3.845043259
100
AcDbArc
 50
17.7418867559
 51
20.0509958957
  0
ARC
  5
38B
100
AcDbEntity
  8
RUNDUNGEN
100
AcDbCircle
 62
9
  6
CONTINUOUS
 10
150.6290517266
 20
113.9215284772
 40
3.7549665905
100
AcDbArc
 50
20.0479664984
 51
22.9509933489
  0
ARC
  5
38C
100
AcDbEntity
  8
RUNDUNGEN
100
AcDbCircle
 62
9
  6
CONTINUOUS
 10
150.6973625594
 20
113.9500883431
 40
3.6809266077
100
AcDbArc
 50
22.9562598916
 51
24.0238351104
  0
ARC
  5
38D
100
AcDbEntity
  8
BEZUGSACHSEN
100
AcDbCircle
 62
3
  6
CONTINUOUS
 10
165.1892008655
 20
120.9733483848
 40
2.8758948265
100
AcDbArc
 50
304.6441717955
 51
307.9743580566
  0
ARC
  5
38E
100
AcDbEntity
  8
BEZUGSACHSEN
100
AcDbCircle
 62
3
  6
CONTINUOUS
 10
143.4034084153
 20
117.0139239626
 40
2.8758948265
100
AcDbArc
 50
304.6441717955
 51
307.9743580566
  0
ARC
  5
38F
100
AcDbEntity
  8
RUNDUNGEN
100
AcDbCircle
 62
9
  6
CONTINUOUS
 10
159.2683786102
 20
241.3568377882
 40
17.3701027204
100
AcDbArc
 50
249.0192335289
 51
249.3454217861
  0
ARC
  5
390
100
AcDbEntity
  8
RUNDUNGEN
100
AcDbCircle
 62
9
  6
CONTINUOUS
 10
145.4220589596
 20
225.0114587557
 40
7.5792199195
100
AcDbArc
 50
359.9149081994
 51
0.2346617577
  0
ARC
  5
391
100
AcDbEntity
  8
RUNDUNGEN
100
AcDbCircle
 62
9
  6
CONTINUOUS
 10
145.6113345176
 20
223.485133229
 40
7.3877875043
100
AcDbArc
 50
359.4871658032
 51
359.9254558739
  0
ARC
  5
392
100
AcDbEntity
  8
RUNDUNGEN
100
AcDbCircle
 62
9
  6
CONTINUOUS
 10
147.1462603536
 20
228.0810761658
 40
7.3042987451
100
AcDbArc
 50
308.4722204436
 51
308.929003011
  0
ARC
  5
393
100
AcDbEntity
  8
RUNDUNGEN
100
AcDbCircle
 62
9
  6
CONTINUOUS
 10
148.4062245403
 20
229.0149085095
 40
7.2392046716
100
AcDbArc
 50
308.9164957346
 51
309.37601082
  0
ARC
  5
394
100
AcDbEntity
  8
RUNDUNGEN
100
AcDbCircle
 62
9
  6
CONTINUOUS
 10
145.9325635331
 20
225.2887764502
 40
7.2111918502
100
AcDbArc
 50
357.6067156074
 51
358.5254900705
  0
ARC
  5
395
100
AcDbEntity
  8
RUNDUNGEN
100
AcDbCircle
 62
9
  6
CONTINUOUS
 10
145.9761693081
 20
223.1792710144
 40
7.1647598922
100
AcDbArc
 50
1.3669926942
 51
2.2692478053
  0
ARC
  5
396
100
AcDbEntity
  8
RUNDUNGEN
100
AcDbCircle
 62
9
  6
CONTINUOUS
 10
145.9149708822
 20
225.013266837
 40
7.0863047289
100
AcDbArc
 50
0.2363654233
 51
0.3532646295
  0
ARC
  5
397
100
AcDbEntity
  8
RUNDUNGEN
100
AcDbCircle
 62
9
  6
CONTINUOUS
 10
147.2242792073
 20
227.5700788014
 40
7.0006564651
100
AcDbArc
 50
310.1546398569
 51
311.1231993628
  0
ARC
  5
398
100
AcDbEntity
  8
RUNDUNGEN
100
AcDbCircle
 62
9
  6
CONTINUOUS
 10
148.9068202334
 20
228.8345374686
 40
6.9273677122
100
AcDbArc
 50
306.6950361769
 51
307.6560796468
  0
ARC
  5
399
100
AcDbEntity
  8
RUNDUNGEN
100
AcDbCircle
 62
9
  6
CONTINUOUS
 10
144.1651454228
 20
224.240591984
 40
6.1884035451
100
AcDbArc
 50
2.2249237234
 51
3.2803818328
  0
ARC
  5
39A
100
AcDbEntity
  8
RUNDUNGEN
100
AcDbCircle
 62
9
  6
CONTINUOUS
 10
146.8220693039
 20
229.5073910686
 40
6.0443617098
100
AcDbArc
 50
305.6323924854
 51
306.7420316221
  0
ARC
  5
39B
100
AcDbEntity
  8
RUNDUNGEN
100
AcDbCircle
 62
9
  6
CONTINUOUS
 10
144.4056515652
 20
223.1996528478
 40
5.9460651198
100
AcDbArc
 50
356.5485636644
 51
357.6530368656
  0
ARC
  5
39C
100
AcDbEntity
  8
RUNDUNGEN
100
AcDbCircle
 62
9
  6
CONTINUOUS
 10
147.7744688781
 20
230.1003791927
 40
5.9071169753
100
AcDbArc
 50
311.0750303592
 51
312.2160550653
  0
ARC
  5
39D
100
AcDbEntity
  8
BEZUGSACHSEN
100
AcDbCircle
 62
7
  6
CONTINUOUS
 10
149.4415272979
 20
225.3037106669
 40
5.1219043712
100
AcDbArc
 50
294.8983718719
 51
359.9029065513
  0
ARC
  5
39E
100
AcDbEntity
  8
BEZUGSACHSEN
100
AcDbCircle
 62
7
  6
CONTINUOUS
 10
149.4588412768
 20
225.3022726716
 40
5.1045742898
100
AcDbArc
 50
359.9187178349
 51
5.0028800942
  0
ARC
  5
39F
100
AcDbEntity
  8
RUNDUNGEN
100
AcDbCircle
 62
9
  6
CONTINUOUS
 10
150.2151283483
 20
225.3692556867
 40
4.3453271042
100
AcDbArc
 50
4.9926585863
 51
8.7532421447
  0
ARC
  5
3A0
100
AcDbEntity
  8
RUNDUNGEN
100
AcDbCircle
 62
9
  6
CONTINUOUS
 10
150.306804306
 20
225.3824007069
 40
4.2527186135
100
AcDbArc
 50
8.7661660796
 51
9.1168418002
  0
ARC
  5
3A1
100
AcDbEntity
  8
RUNDUNGEN
100
AcDbCircle
 62
9
  6
CONTINUOUS
 10
150.3842904981
 20
225.3954493704
 40
4.1741437887
100
AcDbArc
 50
9.1085199585
 51
12.6574776396
  0
ARC
  5
3A2
100
AcDbEntity
  8
RUNDUNGEN
100
AcDbCircle
 62
9
  6
CONTINUOUS
 10
150.4751327048
 20
225.4149309414
 40
4.0812405356
100
AcDbArc
 50
12.6700763576
 51
13.2945361517
  0
ARC
  5
3A3
100
AcDbEntity
  8
RUNDUNGEN
100
AcDbCircle
 62
9
  6
CONTINUOUS
 10
150.5472775902
 20
225.4324632639
 40
4.0069974237
100
AcDbArc
 50
13.2877834261
 51
16.459111072
  0
ARC
  5
3A4
100
AcDbEntity
  8
RUNDUNGEN
100
AcDbCircle
 62
9
  6
CONTINUOUS
 10
150.6340948318
 20
225.4575251953
 40
3.9166369817
100
AcDbArc
 50
16.4673481084
 51
17.7456114039
  0
ARC
  5
3A5
100
AcDbEntity
  8
RUNDUNGEN
100
AcDbCircle
 62
9
  6
CONTINUOUS
 10
150.7022058871
 20
225.479584408
 40
3.8450432593
100
AcDbArc
 50
17.741886756
 51
20.0509958957
  0
ARC
  5
3A6
100
AcDbEntity
  8
RUNDUNGEN
100
AcDbCircle
 62
9
  6
CONTINUOUS
 10
150.7867547496
 20
225.5106542727
 40
3.7549665904
100
AcDbArc
 50
20.0479664984
 51
22.9509933489
  0
ARC
  5
3A7
100
AcDbEntity
  8
RUNDUNGEN
100
AcDbCircle
 62
9
  6
CONTINUOUS
 10
150.8550655834
 20
225.5392141391
 40
3.6809266066
100
AcDbArc
 50
22.9562598915
 51
24.0238351106
  0
ARC
  5
3A8
100
AcDbEntity
  8
BEZUGSACHSEN
100
AcDbCircle
 62
3
  6
CONTINUOUS
 10
143.5611114383
 20
228.6030497581
 40
2.8758948265
100
AcDbArc
 50
304.6441717955
 51
307.9743580566
  0
ARC
  5
3A9
100
AcDbEntity
  8
BEZUGSACHSEN
100
AcDbCircle
 62
3
  6
CONTINUOUS
 10
165.3469038884
 20
232.5624741803
 40
2.8758948265
100
AcDbArc
 50
304.6441717955
 51
307.9743580566
  0
ARC
  5
3AA
100
AcDbEntity
  8
RUNDUNGEN
100
AcDbCircle
 62
9
  6
CONTINUOUS
 10
188.1816338286
 20
146.9002300202
 40
32.3887409939
100
AcDbArc
 50
242.7898738172
 51
242.9680117776
  0
ARC
  5
3AB
100
AcDbEntity
  8
RUNDUNGEN
100
AcDbCircle
 62
9
  6
CONTINUOUS
 10
166.3958413784
 20
142.940805598
 40
32.3887409939
100
AcDbArc
 50
242.7898738172
 51
242.9680117776
  0
ARC
  5
3AC
100
AcDbEntity
  8
RUNDUNGEN
100
AcDbCircle
 62
9
  6
CONTINUOUS
 10
180.8964680407
 20
133.7271364236
 40
17.3701027297
100
AcDbArc
 50
249.019233529
 51
249.345421786
  0
ARC
  5
3AD
100
AcDbEntity
  8
RUNDUNGEN
100
AcDbCircle
 62
9
  6
CONTINUOUS
 10
167.0501483868
 20
117.3817573824
 40
7.5792199195
100
AcDbArc
 50
359.9149081994
 51
0.2346617577
  0
ARC
  5
3AE
100
AcDbEntity
  8
RUNDUNGEN
100
AcDbCircle
 62
9
  6
CONTINUOUS
 10
167.2394239448
 20
115.8554318557
 40
7.3877875043
100
AcDbArc
 50
359.4871658032
 51
359.9254558739
  0
ARC
  5
3AF
100
AcDbEntity
  8
RUNDUNGEN
100
AcDbCircle
 62
9
  6
CONTINUOUS
 10
168.7743497815
 20
120.4513747918
 40
7.3042987441
100
AcDbArc
 50
308.4722204436
 51
308.929003011
  0
ARC
  5
3B0
100
AcDbEntity
  8
RUNDUNGEN
100
AcDbCircle
 62
9
  6
CONTINUOUS
 10
170.0343139663
 20
121.3852071378
 40
7.2392046736
100
AcDbArc
 50
308.9164957347
 51
309.3760108199
  0
ARC
  5
3B1
100
AcDbEntity
  8
RUNDUNGEN
100
AcDbCircle
 62
9
  6
CONTINUOUS
 10
167.5606529603
 20
117.659075077
 40
7.2111918502
100
AcDbArc
 50
357.6067156074
 51
358.5254900705
  0
ARC
  5
3B2
100
AcDbEntity
  8
RUNDUNGEN
100
AcDbCircle
 62
9
  6
CONTINUOUS
 10
167.6042587353
 20
115.5495696412
 40
7.1647598922
100
AcDbArc
 50
1.3669926942
 51
2.2692478053
  0
ARC
  5
3B3
100
AcDbEntity
  8
RUNDUNGEN
100
AcDbCircle
 62
9
  6
CONTINUOUS
 10
167.5430603098
 20
117.3835654638
 40
7.0863047284
100
AcDbArc
 50
0.2363654233
 51
0.3532646295
  0
ARC
  5
3B4
100
AcDbEntity
  8
RUNDUNGEN
100
AcDbCircle
 62
9
  6
CONTINUOUS
 10
168.8523686343
 20
119.9403774285
 40
7.0006564655
100
AcDbArc
 50
310.1546398569
 51
311.1231993627
  0
ARC
  5
3B5
100
AcDbEntity
  8
RUNDUNGEN
100
AcDbCircle
 62
9
  6
CONTINUOUS
 10
170.5349096605
 20
121.2048360955
 40
6.9273677125
100
AcDbArc
 50
306.6950361769
 51
307.6560796468
  0
ARC
  5
3B6
100
AcDbEntity
  8
RUNDUNGEN
100
AcDbCircle
 62
9
  6
CONTINUOUS
 10
168.4501587309
 20
121.8776896956
 40
6.0443617102
100
AcDbArc
 50
305.6323924854
 51
306.7420316221
  0
ARC
  5
3B7
100
AcDbEntity
  8
RUNDUNGEN
100
AcDbCircle
 62
9
  6
CONTINUOUS
 10
166.0337409923
 20
115.5699514745
 40
5.9460651199
100
AcDbArc
 50
356.5485636644
 51
357.6530368656
  0
ARC
  5
3B8
100
AcDbEntity
  8
RUNDUNGEN
100
AcDbCircle
 62
9
  6
CONTINUOUS
 10
169.4025583053
 20
122.4706778195
 40
5.9071169753
100
AcDbArc
 50
311.0750303592
 51
312.2160550652
  0
ARC
  5
3B9
100
AcDbEntity
  8
BEZUGSACHSEN
100
AcDbCircle
 62
7
  6
CONTINUOUS
 10
171.0696167254
 20
117.6740092933
 40
5.1219043709
100
AcDbArc
 50
294.8983718704
 51
359.9029065544
  0
ARC
  5
3BA
100
AcDbEntity
  8
BEZUGSACHSEN
100
AcDbCircle
 62
7
  6
CONTINUOUS
 10
171.086930704
 20
117.6725712983
 40
5.1045742898
100
AcDbArc
 50
359.9187178349
 51
5.0028800942
  0
ARC
  5
3BB
100
AcDbEntity
  8
RUNDUNGEN
100
AcDbCircle
 62
9
  6
CONTINUOUS
 10
171.8432177755
 20
117.7395543134
 40
4.3453271042
100
AcDbArc
 50
4.9926585863
 51
8.7532421447
  0
ARC
  5
3BC
100
AcDbEntity
  8
RUNDUNGEN
100
AcDbCircle
 62
9
  6
CONTINUOUS
 10
171.934893729
 20
117.752699333
 40
4.2527186178
100
AcDbArc
 50
8.7661660798
 51
9.1168418
  0
ARC
  5
3BD
100
AcDbEntity
  8
RUNDUNGEN
100
AcDbCircle
 62
9
  6
CONTINUOUS
 10
172.0123799254
 20
117.7657479971
 40
4.1741437886
100
AcDbArc
 50
9.1085199585
 51
12.6574776396
  0
ARC
  5
3BE
100
AcDbEntity
  8
RUNDUNGEN
100
AcDbCircle
 62
9
  6
CONTINUOUS
 10
172.1032221313
 20
117.785229568
 40
4.0812405363
100
AcDbArc
 50
12.6700763576
 51
13.2945361515
  0
ARC
  5
3BF
100
AcDbEntity
  8
RUNDUNGEN
100
AcDbCircle
 62
9
  6
CONTINUOUS
 10
172.1753670174
 20
117.8027618906
 40
4.0069974237
100
AcDbArc
 50
13.2877834261
 51
16.459111072
  0
ARC
  5
3C0
100
AcDbEntity
  8
RUNDUNGEN
100
AcDbCircle
 62
9
  6
CONTINUOUS
 10
172.2621842583
 20
117.8278238219
 40
3.9166369824
100
AcDbArc
 50
16.4673481085
 51
17.7456114038
  0
ARC
  5
3C1
100
AcDbEntity
  8
RUNDUNGEN
100
AcDbCircle
 62
9
  6
CONTINUOUS
 10
172.3302953146
 20
117.8498830349
 40
3.845043259
100
AcDbArc
 50
17.7418867559
 51
20.0509958958
  0
ARC
  5
3C2
100
AcDbEntity
  8
RUNDUNGEN
100
AcDbCircle
 62
9
  6
CONTINUOUS
 10
172.4148441768
 20
117.8809528995
 40
3.7549665904
100
AcDbArc
 50
20.0479664984
 51
22.9509933489
  0
ARC
  5
3C3
100
AcDbEntity
  8
RUNDUNGEN
100
AcDbCircle
 62
9
  6
CONTINUOUS
 10
172.483155011
 20
117.909512766
 40
3.6809266062
100
AcDbArc
 50
22.9562598914
 51
24.0238351106
  0
ARC
  5
3C4
100
AcDbEntity
  8
RUNDUNGEN
100
AcDbCircle
 62
9
  6
CONTINUOUS
 10
172.8993418166
 20
116.5650234172
 40
1.9894776655
100
AcDbArc
 50
305.0284030376
 51
312.8198173283
  0
ARC
  5
3C5
100
AcDbEntity
  8
RUNDUNGEN
100
AcDbCircle
 62
9
  6
CONTINUOUS
 10
188.3393368585
 20
258.4893558292
 40
32.388741009
100
AcDbArc
 50
242.7898738172
 51
242.9680117775
  0
ARC
  5
3C6
100
AcDbEntity
  8
RUNDUNGEN
100
AcDbCircle
 62
9
  6
CONTINUOUS
 10
166.5535444083
 20
254.529931407
 40
32.388741009
100
AcDbArc
 50
242.7898738172
 51
242.9680117775
  0
ARC
  5
3C7
100
AcDbEntity
  8
RUNDUNGEN
100
AcDbCircle
 62
9
  6
CONTINUOUS
 10
181.0541710604
 20
245.3162622104
 40
17.3701027204
100
AcDbArc
 50
249.0192335289
 51
249.3454217861
  0
ARC
  5
3C8
100
AcDbEntity
  8
RUNDUNGEN
100
AcDbCircle
 62
9
  6
CONTINUOUS
 10
167.2078514098
 20
228.9708831779
 40
7.5792199195
100
AcDbArc
 50
359.9149081994
 51
0.2346617577
  0
ARC
  5
3C9
100
AcDbEntity
  8
RUNDUNGEN
100
AcDbCircle
 62
9
  6
CONTINUOUS
 10
167.3971269678
 20
227.4445576512
 40
7.3877875043
100
AcDbArc
 50
359.4871658032
 51
359.9254558739
  0
ARC
  5
3CA
100
AcDbEntity
  8
RUNDUNGEN
100
AcDbCircle
 62
9
  6
CONTINUOUS
 10
168.9320528038
 20
232.0405005881
 40
7.3042987451
100
AcDbArc
 50
308.4722204436
 51
308.929003011
  0
ARC
  5
3CB
100
AcDbEntity
  8
RUNDUNGEN
100
AcDbCircle
 62
9
  6
CONTINUOUS
 10
170.1920169905
 20
232.9743329318
 40
7.2392046716
100
AcDbArc
 50
308.9164957346
 51
309.37601082
  0
ARC
  5
3CC
100
AcDbEntity
  8
RUNDUNGEN
100
AcDbCircle
 62
9
  6
CONTINUOUS
 10
167.7183559832
 20
229.2482008724
 40
7.2111918502
100
AcDbArc
 50
357.6067156074
 51
358.5254900705
  0
ARC
  5
3CD
100
AcDbEntity
  8
RUNDUNGEN
100
AcDbCircle
 62
9
  6
CONTINUOUS
 10
167.7619617583
 20
227.1386954367
 40
7.1647598922
100
AcDbArc
 50
1.3669926942
 51
2.2692478053
  0
ARC
  5
3CE
100
AcDbEntity
  8
RUNDUNGEN
100
AcDbCircle
 62
9
  6
CONTINUOUS
 10
167.7007633324
 20
228.9726912593
 40
7.0863047289
100
AcDbArc
 50
0.2363654233
 51
0.3532646295
  0
ARC
  5
3CF
100
AcDbEntity
  8
RUNDUNGEN
100
AcDbCircle
 62
9
  6
CONTINUOUS
 10
169.0100716575
 20
231.5295032236
 40
7.0006564651
100
AcDbArc
 50
310.1546398569
 51
311.1231993628
  0
ARC
  5
3D0
100
AcDbEntity
  8
RUNDUNGEN
100
AcDbCircle
 62
9
  6
CONTINUOUS
 10
170.6926126836
 20
232.7939618908
 40
6.9273677122
100
AcDbArc
 50
306.6950361769
 51
307.6560796468
  0
ARC
  5
3D1
100
AcDbEntity
  8
RUNDUNGEN
100
AcDbCircle
 62
9
  6
CONTINUOUS
 10
165.950937873
 20
228.2000164063
 40
6.1884035451
100
AcDbArc
 50
2.2249237234
 51
3.2803818328
  0
ARC
  5
3D2
100
AcDbEntity
  8
RUNDUNGEN
100
AcDbCircle
 62
9
  6
CONTINUOUS
 10
168.607861754
 20
233.4668154908
 40
6.0443617098
100
AcDbArc
 50
305.6323924854
 51
306.7420316221
  0
ARC
  5
3D3
100
AcDbEntity
  8
RUNDUNGEN
100
AcDbCircle
 62
9
  6
CONTINUOUS
 10
166.1914440153
 20
227.15907727
 40
5.9460651198
100
AcDbArc
 50
356.5485636644
 51
357.6530368656
  0
ARC
  5
3D4
100
AcDbEntity
  8
RUNDUNGEN
100
AcDbCircle
 62
9
  6
CONTINUOUS
 10
169.5602613283
 20
234.0598036149
 40
5.9071169753
100
AcDbArc
 50
311.0750303592
 51
312.2160550653
  0
ARC
  5
3D5
100
AcDbEntity
  8
BEZUGSACHSEN
100
AcDbCircle
 62
7
  6
CONTINUOUS
 10
171.2273197482
 20
229.2631350889
 40
5.121904371
100
AcDbArc
 50
294.8983718718
 51
359.9029065541
  0
ARC
  5
3D6
100
AcDbEntity
  8
BEZUGSACHSEN
100
AcDbCircle
 62
7
  6
CONTINUOUS
 10
171.244633727
 20
229.2616970938
 40
5.1045742898
100
AcDbArc
 50
359.9187178349
 51
5.0028800942
  0
ARC
  5
3D7
100
AcDbEntity
  8
RUNDUNGEN
100
AcDbCircle
 62
9
  6
CONTINUOUS
 10
172.0009207984
 20
229.3286801089
 40
4.3453271043
100
AcDbArc
 50
4.9926585864
 51
8.7532421447
  0
ARC
  5
3D8
100
AcDbEntity
  8
RUNDUNGEN
100
AcDbCircle
 62
9
  6
CONTINUOUS
 10
172.0925967556
 20
229.3418251291
 40
4.2527186142
100
AcDbArc
 50
8.7661660796
 51
9.1168418001
  0
ARC
  5
3D9
100
AcDbEntity
  8
RUNDUNGEN
100
AcDbCircle
 62
9
  6
CONTINUOUS
 10
172.1700829483
 20
229.3548737926
 40
4.1741437886
100
AcDbArc
 50
9.1085199585
 51
12.6574776396
  0
ARC
  5
3DA
100
AcDbEntity
  8
RUNDUNGEN
100
AcDbCircle
 62
9
  6
CONTINUOUS
 10
172.2609251562
 20
229.374355364
 40
4.0812405343
100
AcDbArc
 50
12.6700763575
 51
13.2945361517
  0
ARC
  5
3DB
100
AcDbEntity
  8
RUNDUNGEN
100
AcDbCircle
 62
9
  6
CONTINUOUS
 10
172.3330700403
 20
229.3918876861
 40
4.0069974237
100
AcDbArc
 50
13.2877834261
 51
16.459111072
  0
ARC
  5
3DC
100
AcDbEntity
  8
RUNDUNGEN
100
AcDbCircle
 62
9
  6
CONTINUOUS
 10
172.4198872815
 20
229.4169496174
 40
3.9166369821
100
AcDbArc
 50
16.4673481085
 51
17.7456114038
  0
ARC
  5
3DD
100
AcDbEntity
  8
RUNDUNGEN
100
AcDbCircle
 62
9
  6
CONTINUOUS
 10
172.4879983373
 20
229.4390088303
 40
3.8450432592
100
AcDbArc
 50
17.741886756
 51
20.0509958957
  0
ARC
  5
3DE
100
AcDbEntity
  8
RUNDUNGEN
100
AcDbCircle
 62
9
  6
CONTINUOUS
 10
172.5725471997
 20
229.4700786949
 40
3.7549665905
100
AcDbArc
 50
20.0479664984
 51
22.9509933489
  0
ARC
  5
3DF
100
AcDbEntity
  8
RUNDUNGEN
100
AcDbCircle
 62
9
  6
CONTINUOUS
 10
172.6408580344
 20
229.4986385616
 40
3.6809266058
100
AcDbArc
 50
22.9562598914
 51
24.0238351108
  0
CIRCLE
  5
3E0
100
AcDbEntity
  8
BEZUGSACHSEN
100
AcDbCircle
 62
3
  6
CONTINUOUS
 10
55.5480363748
 20
230.5193310727
 40
2.65
  0
CIRCLE
  5
3E1
100
AcDbEntity
  8
BEZUGSACHSEN
100
AcDbCircle
 62
3
  6
CONTINUOUS
 10
80.5480363748
 20
230.5193310727
 40
2.65
  0
CIRCLE
  5
3E2
100
AcDbEntity
  8
BEZUGSACHSEN
100
AcDbCircle
 62
3
  6
CONTINUOUS
 10
55.5480363748
 20
112.5193310727
 40
2.65
  0
CIRCLE
  5
3E3
100
AcDbEntity
  8
BEZUGSACHSEN
100
AcDbCircle
 62
3
  6
CONTINUOUS
 10
80.5480363748
 20
112.5193310727
 40
2.65
  0
SPLINE
  5
3E4
100
AcDbEntity
  8
RUNDUNGEN
100
AcDbSpline
 62
7
  6
CONTINUOUS
 70
0
 71
3
 72
20
 73
16
 74
14
 42
0.0000001
 43
0.0000001
 44
0.0000000001
 12
-6.6179733526
 22
-3.0672106897
 32
0.0
 13
0.0103084974
 23
7.2941925482
 33
0.0
 40
0.0
 40
0.0
 40
0.0
 40
0.0
 40
0.0813755303
 40
0.1605516933
 40
0.2376242073
 40
0.3128652843
 40
0.3867650611
 40
0.4598648243
 40
0.5328835373
 40
0.6064813664
 40
0.6813286174
 40
0.7578584528
 40
0.8364405544
 40
0.9171785857
 40
1.0
 40
1.0
 40
1.0
 40
1.0
 10
173.2259370723
 20
113.0282690975
 30
0.0
 10
173.0464233754
 20
112.9450704655
 30
0.0
 10
172.6807418474
 20
112.8043224138
 30
0.0
 10
172.1156737164
 20
112.6747968581
 30
0.0
 10
171.5522287995
 20
112.6319735673
 30
0.0
 10
171.0016756127
 20
112.6766257605
 30
0.0
 10
170.4749185589
 20
112.8077322661
 30
0.0
 10
169.982263619
 20
113.0226468829
 30
0.0
 10
169.533467055
 20
113.3171051841
 30
0.0
 10
169.1373086803
 20
113.6854916915
 30
0.0
 10
168.8018571516
 20
114.1206073541
 30
0.0
 10
168.533947513
 20
114.6139395627
 30
0.0
 10
168.339166285
 20
115.1555562629
 30
0.0
 10
168.22151095
 20
115.7343330816
 30
0.0
 10
168.1963205917
 20
116.1326153708
 30
0.0
 10
168.1966051798
 20
116.3339871517
 30
0.0
 11
173.2259370723
 21
113.0282690975
 31
0.0
 11
172.671594131
 21
112.8160698541
 31
0.0
 11
172.1084243
 21
112.688097615
 31
0.0
 11
171.5477795441
 21
112.6465474343
 31
0.0
 11
171.0008241461
 21
112.6917909253
 31
0.0
 11
170.4778912058
 21
112.8225769346
 31
0.0
 11
169.9892695044
 21
113.0360146027
 31
0.0
 11
169.5438794642
 21
113.3280837891
 31
0.0
 11
169.1504085389
 21
113.6932890573
 31
0.0
 11
168.8164316198
 21
114.1251706382
 31
0.0
 11
168.549144764
 21
114.6152437687
 31
0.0
 11
168.3541239897
 21
115.1542407502
 31
0.0
 11
168.2357503231
 21
115.7311407915
 31
0.0
 11
168.1966051798
 21
116.3339871517
 31
0.0
  0
SPLINE
  5
3E5
100
AcDbEntity
  8
RUNDUNGEN
100
AcDbSpline
 62
7
  6
CONTINUOUS
 70
0
 71
3
 72
29
 73
25
 74
23
 42
0.0000001
 43
0.0000001
 44
0.0000000001
 12
0.0179811423
 22
12.7232814893
 32
0.0
 13
1.1096777757
 23
-12.6748110411
 33
0.0
 40
0.0
 40
0.0
 40
0.0
 40
0.0
 40
0.0476261077
 40
0.0961193942
 40
0.1452752745
 40
0.1948560753
 40
0.2445387273
 40
0.2940116889
 40
0.3430020839
 40
0.3912823239
 40
0.4385694785
 40
0.4847812932
 40
0.5298415683
 40
0.5736517175
 40
0.6164396411
 40
0.6583665017
 40
0.6996708654
 40
0.7407452019
 40
0.781963819
 40
0.8236538059
 40
0.8660770925
 40
0.9095456947
 40
0.9541678898
 40
1.0
 40
1.0
 40
1.0
 40
1.0
 10
168.1966051798
 20
116.3339871517
 30
0.0
 10
168.1968906371
 20
116.5359739433
 30
0.0
 10
168.223938005
 20
116.9440054129
 30
0.0
 10
168.3400561667
 20
117.5505328546
 30
0.0
 10
168.5298053482
 20
118.1469515895
 30
0.0
 10
168.7895463687
 20
118.721857596
 30
0.0
 10
169.1142826459
 20
119.2642810325
 30
0.0
 10
169.4977226834
 20
119.7637875317
 30
0.0
 10
169.9326353558
 20
120.2109789871
 30
0.0
 10
170.4107023586
 20
120.5972259057
 30
0.0
 10
170.9229381117
 20
120.9152046156
 30
0.0
 10
171.4596142092
 20
121.1587901908
 30
0.0
 10
172.0103718646
 20
121.3231572136
 30
0.0
 10
172.5647140351
 20
121.4051834722
 30
0.0
 10
173.1119499624
 20
121.4033298206
 30
0.0
 10
173.6417982311
 20
121.3175884223
 30
0.0
 10
174.1440217946
 20
121.1496402299
 30
0.0
 10
174.6091119272
 20
120.9026535042
 30
0.0
 10
175.0282224258
 20
120.5811375363
 30
0.0
 10
175.3929874968
 20
120.1912945313
 30
0.0
 10
175.6963506298
 20
119.7405757988
 30
0.0
 10
175.932392744
 20
119.237578297
 30
0.0
 10
176.0965260168
 20
118.6918908637
 30
0.0
 10
176.1551050164
 20
118.3113576357
 30
0.0
 10
176.1720579744
 20
118.1177198568
 30
0.0
 11
168.1966051798
 21
116.3339871517
 31
0.0
 11
168.2359155974
 21
116.9386716979
 31
0.0
 11
168.3513146838
 21
117.5447781892
 31
0.0
 11
168.5405455946
 21
118.1408887079
 31
0.0
 11
168.8000975943
 21
118.7158501464
 31
0.0
 11
169.1248214111
 21
119.2581959631
 31
0.0
 11
169.5083057981
 21
119.7573536666
 31
0.0
 11
169.9432116775
 21
120.2038777
 31
0.0
 11
170.4214456442
 21
120.589412049
 31
0.0
 11
170.9330496029
 21
120.9060224756
 31
0.0
 11
171.4688461341
 21
121.1481519834
 31
0.0
 11
172.0185134149
 21
121.3111124858
 31
0.0
 11
172.5700677337
 21
121.3916922119
 31
0.0
 11
173.1144640403
 21
121.3889250337
 31
0.0
 11
173.6409460633
 21
121.3029993933
 31
0.0
 11
174.1392085812
 21
121.1359254828
 31
0.0
 11
174.6007261157
 21
120.8907454845
 31
0.0
 11
175.0169978048
 21
120.5717601872
 31
0.0
 11
175.3798480224
 21
120.1848494563
 31
0.0
 11
175.6819376221
 21
119.7375385993
 31
0.0
 11
175.9178017494
 21
119.2372909648
 31
0.0
 11
176.0823204754
 21
118.6939091562
 31
0.0
 11
176.1720579744
 21
118.1177198568
 31
0.0
  0
SPLINE
  5
3E6
100
AcDbEntity
  8
BEZUGSACHSEN
100
AcDbSpline
 62
7
  6
CONTINUOUS
 70
0
 71
3
 72
21
 73
17
 74
15
 42
0.0000001
 43
0.0000001
 44
0.0000000001
 12
-4.2738780867
 22
2.4738301212
 32
0.0
 13
-0.006968531
 23
-4.9308647507
 33
0.0
 40
0.0
 40
0.0
 40
0.0
 40
0.0
 40
0.0566277593
 40
0.1209095775
 40
0.1864804893
 40
0.2538259117
 40
0.3232279918
 40
0.3947524133
 40
0.4682603106
 40
0.5434367301
 40
0.6198285358
 40
0.6968870893
 40
0.7740130706
 40
0.8506020994
 40
0.926090423
 40
1.0
 40
1.0
 40
1.0
 40
1.0
 10
170.2686272081
 20
120.9395836068
 30
0.0
 10
170.1879538282
 20
120.9862794257
 30
0.0
 10
170.0072042429
 20
121.0713182109
 30
0.0
 10
169.7092929361
 20
121.1506693374
 30
0.0
 10
169.3843791707
 20
121.1755667365
 30
0.0
 10
169.0518605249
 20
121.1426904145
 30
0.0
 10
168.7199456574
 20
121.0531488599
 30
0.0
 10
168.3966959993
 20
120.9093802938
 30
0.0
 10
168.0898945368
 20
120.7150606668
 30
0.0
 10
167.8069068947
 20
120.4750190852
 30
0.0
 10
167.5545304124
 20
120.1951401128
 30
0.0
 10
167.3388408442
 20
119.8822357445
 30
0.0
 10
167.1650485827
 20
119.5439049757
 30
0.0
 10
167.0373748481
 20
119.1883110015
 30
0.0
 10
166.9589525548
 20
118.8241579181
 30
0.0
 10
166.9406039446
 20
118.5783191212
 30
0.0
 10
166.9404322642
 20
118.4568397453
 30
0.0
 11
170.2686272081
 21
120.9395836068
 31
0.0
 11
170.0159244741
 21
121.0585670918
 31
0.0
 11
169.7097579102
 21
121.1405976736
 31
0.0
 11
169.3874358938
 21
121.1660021627
 31
0.0
 11
169.0568950626
 21
121.1341550164
 31
0.0
 11
168.726274429
 21
121.0458404171
 31
0.0
 11
168.4037149702
 21
120.9032329633
 31
0.0
 11
168.0971591706
 21
120.7098441239
 31
0.0
 11
167.8141554513
 21
120.4704357738
 31
0.0
 11
167.5616723032
 21
120.1909029412
 31
0.0
 11
167.3459266994
 21
119.8781286523
 31
0.0
 11
167.1722310125
 21
119.5398144479
 31
0.0
 11
167.0448622069
 21
119.1842907466
 31
0.0
 11
166.9669565254
 21
118.8203117219
 31
0.0
 11
166.9404322642
 21
118.4568397453
 31
0.0
  0
SPLINE
  5
3E7
100
AcDbEntity
  8
BEZUGSACHSEN
100
AcDbSpline
 62
7
  6
CONTINUOUS
 70
0
 71
3
 72
14
 73
10
 74
8
 42
0.0000001
 43
0.0000001
 44
0.0000000001
 12
-1.7557527583
 22
1.0162746739
 32
0.0
 13
0.0028627437
 23
2.0256495883
 33
0.0
 40
0.0
 40
0.0
 40
0.0
 40
0.0
 40
0.0170609732
 40
0.1721647474
 40
0.3292106774
 40
0.4896942127
 40
0.6546940797
 40
0.8247808342
 40
1.0
 40
1.0
 40
1.0
 40
1.0
 10
167.8386810557
 20
116.7422242216
 30
0.0
 10
167.8286961054
 20
116.7480037666
 30
0.0
 10
167.7285518339
 20
116.8073877027
 30
0.0
 10
167.5493951571
 20
116.9412431349
 30
0.0
 10
167.332888798
 20
117.1781975801
 30
0.0
 10
167.1593936344
 20
117.4559968188
 30
0.0
 10
167.0330085667
 20
117.7675409952
 30
0.0
 10
166.9565878902
 20
118.1049337458
 30
0.0
 10
166.9402650617
 20
118.3385288683
 30
0.0
 10
166.9404322642
 20
118.4568397453
 30
0.0
 11
167.8386810557
 21
116.7422242216
 31
0.0
 11
167.8089115152
 21
116.7598775458
 31
0.0
 11
167.557088935
 21
116.9477561307
 31
0.0
 11
167.3421167567
 21
117.182250297
 31
0.0
 11
167.1692883089
 21
117.4575860201
 31
0.0
 11
167.0428592016
 21
117.7669836207
 31
0.0
 11
166.9659425388
 21
118.1028247031
 31
0.0
 11
166.9404322642
 21
118.4568397453
 31
0.0
  0
SPLINE
  5
3E8
100
AcDbEntity
  8
RUNDUNGEN
100
AcDbSpline
 62
9
  6
CONTINUOUS
 70
0
 71
3
 72
26
 73
22
 74
20
 42
0.0000001
 43
0.0000001
 44
0.0000000001
 12
0.0089727256
 22
6.3490134029
 32
0.0
 13
-0.0089727256
 23
-6.3490134029
 33
0.0
 40
0.0
 40
0.0
 40
0.0
 40
0.0
 40
0.0536701703
 40
0.1056744715
 40
0.1560547901
 40
0.2050194548
 40
0.2529709755
 40
0.3004384473
 40
0.348023822
 40
0.3963137375
 40
0.4457931972
 40
0.4967924684
 40
0.5494535123
 40
0.6037365797
 40
0.6594341682
 40
0.7162091202
 40
0.7736270003
 40
0.8311942729
 40
0.8884180054
 40
0.9448160843
 40
1.0
 40
1.0
 40
1.0
 40
1.0
 10
175.2532927355
 20
116.7192682044
 30
0.0
 10
175.253453258
 20
116.8328524147
 30
0.0
 10
175.2369669139
 20
117.0569644691
 30
0.0
 10
175.1597332182
 20
117.3795854282
 30
0.0
 10
175.0321798992
 20
117.6752618662
 30
0.0
 10
174.8574741883
 20
117.9356682223
 30
0.0
 10
174.6402184423
 20
118.1533565654
 30
0.0
 10
174.3864131879
 20
118.3219517111
 30
0.0
 10
174.1033303966
 20
118.4365480423
 30
0.0
 10
173.7991453859
 20
118.4939916501
 30
0.0
 10
173.4825071702
 20
118.4929515927
 30
0.0
 10
173.1621949204
 20
118.4338097095
 30
0.0
 10
172.8468808345
 20
118.3185011546
 30
0.0
 10
172.5449862794
 20
118.1503852754
 30
0.0
 10
172.264520237
 20
117.9341383699
 30
0.0
 10
172.0129219398
 20
117.6756532898
 30
0.0
 10
171.7968846566
 20
117.3819071861
 30
0.0
 10
171.6221653803
 20
117.0607922724
 30
0.0
 10
171.4934594582
 20
116.7208889004
 30
0.0
 10
171.4142425193
 20
116.3713765898
 30
0.0
 10
171.3956737565
 20
116.134929149
 30
0.0
 10
171.3955087065
 20
116.0181413423
 30
0.0
 11
175.2532927355
 21
116.7192682044
 31
0.0
 11
175.2274691542
 21
117.0590412608
 31
0.0
 11
175.1497408944
 21
117.3799380195
 31
0.0
 11
175.0222156229
 21
117.6732830913
 31
0.0
 11
174.8483901723
 21
117.9310225121
 31
0.0
 11
174.6329814749
 21
118.1461641945
 31
0.0
 11
174.3818801947
 21
118.3128170632
 31
0.0
 11
174.1019386096
 21
118.4264370241
 31
0.0
 11
173.8007836072
 21
118.4839289073
 31
0.0
 11
173.4866376084
 21
118.4837227055
 31
0.0
 11
173.1680608723
 21
118.4258235587
 31
0.0
 11
172.8537540337
 21
118.3118127526
 31
0.0
 11
172.5522817046
 21
118.1447974686
 31
0.0
 11
172.2718749768
 21
117.9293380269
 31
0.0
 11
172.0201733508
 21
117.6713040804
 31
0.0
 11
171.8040457155
 21
117.3777337383
 31
0.0
 11
171.6294021566
 21
117.0566624524
 31
0.0
 11
171.5009819083
 21
116.7168010925
 31
0.0
 11
171.4223061762
 21
116.367478811
 31
0.0
 11
171.3955087065
 21
116.0181413423
 31
0.0
  0
SPLINE
  5
3E9
100
AcDbEntity
  8
RUNDUNGEN
100
AcDbSpline
 62
7
  6
CONTINUOUS
 70
0
 71
3
 72
11
 73
7
 74
5
 42
0.0000001
 43
0.0000001
 44
0.0000000001
 12
-0.0014952064
 22
-0.1007342197
 32
0.0
 13
-0.0794412718
 23
-0.059874925
 33
0.0
 40
0.0
 40
0.0
 40
0.0
 40
0.0
 40
0.1096815418
 40
0.3649135551
 40
0.6686076839
 40
1.0
 40
1.0
 40
1.0
 40
1.0
 10
172.0254741759
 20
115.2910256983
 30
0.0
 10
172.0254195104
 20
115.2873428034
 30
0.0
 10
172.0232182103
 20
115.2749471831
 30
0.0
 10
172.0129095372
 20
115.2551765918
 30
0.0
 10
171.9938020827
 20
115.2323975924
 30
0.0
 10
171.9777965025
 20
115.2185974682
 30
0.0
 10
171.9690210935
 20
115.2119834382
 30
0.0
 11
172.0254741759
 21
115.2910256983
 31
0.0
 11
172.0237868095
 21
115.2800363522
 31
0.0
 11
172.0129523851
 21
115.2570740117
 31
0.0
 11
171.9938532626
 21
115.2336661998
 31
0.0
 11
171.9690210935
 21
115.2119834382
 31
0.0
  0
LINE
  5
3EA
100
AcDbEntity
  8
RUNDUNGEN
100
AcDbLine
 62
9
  6
CONTINUOUS
 10
172.0633491131
 20
115.175741855
 11
171.9690210463
 21
115.2119834725
  0
LINE
  5
3EB
100
AcDbEntity
  8
RUNDUNGEN
100
AcDbLine
 62
9
  6
CONTINUOUS
 10
173.3667615616
 20
114.5897281739
 11
173.2790293872
 21
114.634537332
  0
SPLINE
  5
3EC
100
AcDbEntity
  8
RUNDUNGEN
100
AcDbSpline
 62
7
  6
CONTINUOUS
 70
0
 71
3
 72
11
 73
7
 74
5
 42
0.0000001
 43
0.0000001
 44
0.0000000001
 12
0.0715371433
 22
0.0593714979
 32
0.0
 13
-0.0027377294
 23
0.0903350589
 33
0.0
 40
0.0
 40
0.0
 40
0.0
 40
0.0
 40
0.0794568969
 40
0.3328994615
 40
0.6469959131
 40
1.0
 40
1.0
 40
1.0
 40
1.0
 10
173.3492383786
 20
118.0103235634
 30
0.0
 10
173.3511330851
 20
118.011896055
 30
0.0
 10
173.3583737253
 20
118.019540427
 30
0.0
 10
173.3661189542
 20
118.0375813911
 30
0.0
 10
173.3714442381
 20
118.0649813874
 30
0.0
 10
173.3720386619
 20
118.0851408818
 30
0.0
 10
173.3717165187
 20
118.0957704302
 30
0.0
 11
173.3492383786
 21
118.0103235634
 31
0.0
 11
173.3544040361
 21
118.0156385232
 31
0.0
 11
173.3646927271
 21
118.0361029754
 31
0.0
 11
173.3704954105
 21
118.0638905218
 31
0.0
 11
173.3717165187
 21
118.0957704302
 31
0.0
  0
SPLINE
  5
3ED
100
AcDbEntity
  8
RUNDUNGEN
100
AcDbSpline
 62
9
  6
CONTINUOUS
 70
0
 71
3
 72
26
 73
22
 74
20
 42
0.0000001
 43
0.0000001
 44
0.0000000001
 12
-0.0089727256
 22
-6.3490134005
 32
0.0
 13
0.0089727256
 23
6.3490134005
 33
0.0
 40
0.0
 40
0.0
 40
0.0
 40
0.0
 40
0.0536701353
 40
0.1056745152
 40
0.1560547922
 40
0.2050194689
 40
0.2529709826
 40
0.3004384536
 40
0.3480238262
 40
0.3963137405
 40
0.4457931993
 40
0.49679247
 40
0.5494535137
 40
0.6037365812
 40
0.65943417
 40
0.7162091221
 40
0.7736270026
 40
0.8311942754
 40
0.8884180026
 40
0.9448161045
 40
1.0
 40
1.0
 40
1.0
 40
1.0
 10
171.3955087065
 20
116.0181413423
 30
0.0
 10
171.395348184
 20
115.9045572062
 30
0.0
 10
171.4118338514
 20
115.6804449667
 30
0.0
 10
171.4890687178
 20
115.3578242726
 30
0.0
 10
171.6166214664
 20
115.0621475325
 30
0.0
 10
171.7913273496
 20
114.8017413334
 30
0.0
 10
172.0085830305
 20
114.5840529455
 30
0.0
 10
172.2623882859
 20
114.4154578214
 30
0.0
 10
172.5454710647
 20
114.3008614927
 30
0.0
 10
172.8496560683
 20
114.2434178904
 30
0.0
 10
173.1662942778
 20
114.2444579514
 30
0.0
 10
173.4866065237
 20
114.303599837
 30
0.0
 10
173.8019206082
 20
114.4189083924
 30
0.0
 10
174.1038151618
 20
114.5870242724
 30
0.0
 10
174.3842812148
 20
114.8032711708
 30
0.0
 10
174.6358794889
 20
115.0617562638
 30
0.0
 10
174.8519168706
 20
115.3555023197
 30
0.0
 10
175.0266358945
 20
115.6766173215
 30
0.0
 10
175.1553424515
 20
116.0165205361
 30
0.0
 10
175.2345583308
 20
116.366033072
 30
0.0
 10
175.2531276855
 20
116.6024804405
 30
0.0
 10
175.2532927355
 20
116.7192682044
 30
0.0
 11
171.3955087065
 21
116.0181413423
 31
0.0
 11
171.4213319473
 21
115.678368483
 31
0.0
 11
171.499060833
 21
115.3574713621
 31
0.0
 11
171.6265858206
 21
115.0641264545
 31
0.0
 11
171.8004113447
 21
114.8063869912
 31
0.0
 11
172.015820002
 21
114.591245332
 31
0.0
 11
172.2669212776
 21
114.4245924661
 31
0.0
 11
172.546862851
 21
114.3109725119
 31
0.0
 11
172.8480178458
 21
114.253480633
 31
0.0
 11
173.1621638388
 21
114.2536868383
 31
0.0
 11
173.4807405712
 21
114.3115859871
 31
0.0
 11
173.7950474083
 21
114.4255967942
 31
0.0
 11
174.0965197381
 21
114.5926120777
 31
0.0
 11
174.3769264696
 21
114.8080715173
 31
0.0
 11
174.6286280975
 21
115.0661054627
 31
0.0
 11
174.8447557542
 21
115.3596757923
 31
0.0
 11
175.0193992694
 21
115.6807471036
 31
0.0
 11
175.1478197005
 21
116.0206083577
 31
0.0
 11
175.2264950095
 21
116.3699308841
 31
0.0
 11
175.2532927355
 21
116.7192682044
 31
0.0
  0
SPLINE
  5
3EE
100
AcDbEntity
  8
RUNDUNGEN
100
AcDbSpline
 62
7
  6
CONTINUOUS
 70
0
 71
3
 72
11
 73
7
 74
5
 42
0.0000001
 43
0.0000001
 44
0.0000000001
 12
-0.0171266114
 22
-0.0568867629
 32
0.0
 13
-0.0542211904
 23
0.0244206319
 33
0.0
 40
0.0
 40
0.0
 40
0.0
 40
0.0
 40
0.008595282
 40
0.1991342933
 40
0.5448237878
 40
1.0
 40
1.0
 40
1.0
 40
1.0
 10
172.0263081854
 20
116.9434353809
 30
0.0
 10
172.0262591161
 20
116.943272395
 30
0.0
 10
172.0249293849
 20
116.9396933145
 30
0.0
 10
172.0104704947
 20
116.9507748123
 30
0.0
 10
171.9951695263
 20
116.9532922856
 30
0.0
 10
171.9797252783
 20
116.9612993541
 30
0.0
 10
171.9714985463
 20
116.9650045844
 30
0.0
 11
172.0263081854
 21
116.9434353809
 31
0.0
 11
172.0261369566
 21
116.9429776396
 31
0.0
 11
172.0153398409
 21
116.9464139521
 31
0.0
 11
171.9962847033
 21
116.954127219
 31
0.0
 11
171.9714985463
 21
116.9650045844
 31
0.0
  0
SPLINE
  5
3EF
100
AcDbEntity
  8
RUNDUNGEN
100
AcDbSpline
 62
9
  6
CONTINUOUS
 70
0
 71
3
 72
10
 73
6
 74
4
 42
0.0000001
 43
0.0000001
 44
0.0000000001
 12
0.6284135715
 22
0.1530321083
 32
0.0
 13
0.5303217327
 23
0.3711613215
 33
0.0
 40
0.0
 40
0.0
 40
0.0
 40
0.0
 40
0.3914492734
 40
0.7944590102
 40
1.0
 40
1.0
 40
1.0
 40
1.0
 10
173.4565623714
 20
114.6668027745
 30
0.0
 10
173.5385597167
 20
114.6867708771
 30
0.0
 10
173.7019275213
 20
114.7408873715
 30
0.0
 10
173.8947623025
 20
114.8389034734
 30
0.0
 10
174.0049327793
 20
114.910474981
 30
0.0
 10
174.0412670639
 20
114.9359046028
 30
0.0
 11
173.4565623714
 21
114.6668027745
 31
0.0
 11
173.6970816222
 21
114.7458666589
 31
0.0
 11
173.9296925431
 21
114.8634879668
 31
0.0
 11
174.0412670639
 21
114.9359046028
 31
0.0
  0
SPLINE
  5
3F0
100
AcDbEntity
  8
RUNDUNGEN
100
AcDbSpline
 62
9
  6
CONTINUOUS
 70
0
 71
3
 72
10
 73
6
 74
4
 42
0.0000001
 43
0.0000001
 44
0.0000000001
 12
0.5082231173
 22
0.4703311305
 32
0.0
 13
0.3315168538
 23
0.6073599685
 33
0.0
 40
0.0
 40
0.0
 40
0.0
 40
0.0
 40
0.1980185952
 40
0.5977759302
 40
1.0
 40
1.0
 40
1.0
 40
1.0
 10
174.2515799268
 20
115.1057518608
 30
0.0
 10
174.2851258027
 20
115.1367966308
 30
0.0
 10
174.3832535174
 20
115.233906357
 30
0.0
 10
174.5308176663
 20
115.4119736007
 30
0.0
 10
174.6299496997
 20
115.5688513502
 30
0.0
 10
174.6743977191
 20
115.6502829496
 30
0.0
 11
174.2515799268
 21
115.1057518608
 31
0.0
 11
174.349048897
 21
115.2021578594
 31
0.0
 11
174.5256802474
 21
115.4150305321
 31
0.0
 11
174.6743977191
 21
115.6502829496
 31
0.0
  0
SPLINE
  5
3F1
100
AcDbEntity
  8
RUNDUNGEN
100
AcDbSpline
 62
7
  6
CONTINUOUS
 70
0
 71
3
 72
12
 73
8
 74
6
 42
0.0000001
 43
0.0000001
 44
0.0000000001
 12
0.1374101969
 22
-0.0610078618
 32
0.0
 13
0.1137503624
 23
0.0985039156
 33
0.0
 40
0.0
 40
0.0
 40
0.0
 40
0.0
 40
0.1290632211
 40
0.3216280635
 40
0.5425510045
 40
0.7744493516
 40
1.0
 40
1.0
 40
1.0
 40
1.0
 10
174.6324092917
 20
117.4256405231
 30
0.0
 10
174.6383208259
 20
117.4230158994
 30
0.0
 10
174.6549485321
 20
117.4204836442
 30
0.0
 10
174.6819417804
 20
117.4247324416
 30
0.0
 10
174.7125405664
 20
117.4358875127
 30
0.0
 10
174.7424246057
 20
117.4523598337
 30
0.0
 10
174.7609048827
 20
117.4661092555
 30
0.0
 10
174.7694570387
 20
117.4735151295
 30
0.0
 11
174.6324092917
 21
117.4256405231
 31
0.0
 11
174.6515648007
 21
117.4217969477
 31
0.0
 11
174.6803209683
 21
117.4253581187
 31
0.0
 11
174.7116581572
 21
117.436452062
 31
0.0
 11
174.7422746767
 21
117.4531928198
 31
0.0
 11
174.7694570387
 21
117.4735151295
 31
0.0
  0
SPLINE
  5
3F2
100
AcDbEntity
  8
RUNDUNGEN
100
AcDbSpline
 62
9
  6
CONTINUOUS
 70
0
 71
3
 72
13
 73
9
 74
7
 42
0.0000001
 43
0.0000001
 44
0.0000000001
 12
0.7852714027
 22
-1.1593063534
 32
0.0
 13
1.3902627937
 23
0.1667685865
 33
0.0
 40
0.0
 40
0.0
 40
0.0
 40
0.0
 40
0.1672021044
 40
0.3318463978
 40
0.495675569
 40
0.6605493996
 40
0.8281965513
 40
1.0
 40
1.0
 40
1.0
 40
1.0
 10
172.0633489992
 20
115.1757420231
 30
0.0
 10
172.1071153429
 20
115.1111292025
 30
0.0
 10
172.2055153033
 20
114.9902211411
 30
0.0
 10
172.3831135343
 20
114.8399243197
 30
0.0
 10
172.5849405279
 20
114.7262010628
 30
0.0
 10
172.8058473306
 20
114.6520069622
 30
0.0
 10
173.0401689407
 20
114.6190730199
 30
0.0
 10
173.1994122769
 20
114.6249868837
 30
0.0
 10
173.279029591
 20
114.6345373565
 30
0.0
 11
172.0633489992
 21
115.1757420231
 31
0.0
 11
172.2114778198
 21
114.9944394104
 31
0.0
 11
172.387598087
 21
114.8456770416
 31
0.0
 11
172.5874498747
 21
114.7330586609
 31
0.0
 11
172.8062122369
 21
114.6593028731
 31
0.0
 11
173.0386100829
 21
114.6261938357
 31
0.0
 11
173.279029591
 21
114.6345373565
 31
0.0
  0
SPLINE
  5
3F3
100
AcDbEntity
  8
RUNDUNGEN
100
AcDbSpline
 62
9
  6
CONTINUOUS
 70
0
 71
3
 72
10
 73
6
 74
4
 42
0.0000001
 43
0.0000001
 44
0.0000000001
 12
-0.0010694126
 22
-0.7567059624
 32
0.0
 13
0.3413923579
 23
-0.6753194171
 33
0.0
 40
0.0
 40
0.0
 40
0.0
 40
0.0
 40
0.3431620754
 40
0.6765068396
 40
1.0
 40
1.0
 40
1.0
 40
1.0
 10
171.8089228657
 20
116.05845143
 30
0.0
 10
171.8088005384
 20
115.9718938338
 30
0.0
 10
171.8206340497
 20
115.8009276838
 30
0.0
 10
171.8759844192
 20
115.5538938572
 30
0.0
 10
171.938005737
 20
115.3992756963
 30
0.0
 10
171.9748184346
 20
115.3264552921
 30
0.0
 11
171.8089228657
 21
116.05845143
 31
0.0
 11
171.8273958046
 21
115.7994362908
 31
0.0
 11
171.8831398958
 21
115.553428681
 31
0.0
 11
171.9748184346
 21
115.3264552921
 31
0.0
  0
SPLINE
  5
3F4
100
AcDbEntity
  8
RUNDUNGEN
100
AcDbSpline
 62
9
  6
CONTINUOUS
 70
0
 71
3
 72
10
 73
6
 74
4
 42
0.0000001
 43
0.0000001
 44
0.0000000001
 12
-0.321683233
 22
-0.7490427943
 32
0.0
 13
-0.0011520729
 23
-0.8151956102
 33
0.0
 40
0.0
 40
0.0
 40
0.0
 40
0.0
 40
0.3389345824
 40
0.6729691725
 40
1.0
 40
1.0
 40
1.0
 40
1.0
 10
171.9769731911
 20
116.8511400299
 30
0.0
 10
171.9406300003
 20
116.7665145276
 30
0.0
 10
171.8791689416
 20
116.5936283299
 30
0.0
 10
171.8223441542
 20
116.3271612454
 30
0.0
 10
171.8090484535
 20
116.1473161283
 30
0.0
 10
171.8089228657
 20
116.05845143
 30
0.0
 11
171.9769731911
 21
116.8511400299
 31
0.0
 11
171.8846112073
 21
116.5907365118
 31
0.0
 11
171.8281427102
 21
116.3243520712
 31
0.0
 11
171.8089228657
 21
116.05845143
 31
0.0
  0
LINE
  5
3F5
100
AcDbEntity
  8
RUNDUNGEN
100
AcDbLine
 62
9
  6
CONTINUOUS
 10
173.3186105575
 20
114.7327670817
 11
173.2736639731
 21
114.7527486722
  0
LINE
  5
3F6
100
AcDbEntity
  8
RUNDUNGEN
100
AcDbLine
 62
9
  6
CONTINUOUS
 10
172.0579862888
 20
115.2939520444
 11
172.0241957398
 21
115.3090105051
  0
SPLINE
  5
3F7
100
AcDbEntity
  8
RUNDUNGEN
100
AcDbSpline
 62
9
  6
CONTINUOUS
 70
0
 71
3
 72
11
 73
7
 74
5
 42
0.0000001
 43
0.0000001
 44
0.0000000001
 12
-0.1364288045
 22
-0.0247950375
 32
0.0
 13
-0.1200073049
 23
0.0694684055
 33
0.0
 40
0.0
 40
0.0
 40
0.0
 40
0.0
 40
0.2688990842
 40
0.5495609181
 40
0.8039907988
 40
1.0
 40
1.0
 40
1.0
 40
1.0
 10
174.7655546222
 20
117.3579445883
 30
0.0
 10
174.7533260953
 20
117.355722134
 30
0.0
 10
174.7279522839
 20
117.3532533063
 30
0.0
 10
174.690691661
 20
117.3541573051
 30
0.0
 10
174.6572674402
 20
117.3593266983
 30
0.0
 10
174.6372007932
 20
117.3659624283
 30
0.0
 10
174.6293599479
 20
117.3705012439
 30
0.0
 11
174.7655546222
 21
117.3579445883
 31
0.0
 11
174.7284725514
 21
117.3540451552
 31
0.0
 11
174.6895682428
 21
117.3550621584
 31
0.0
 11
174.6547645248
 21
117.3608407683
 31
0.0
 11
174.6293599479
 21
117.3705012439
 31
0.0
  0
SPLINE
  5
3F8
100
AcDbEntity
  8
RUNDUNGEN
100
AcDbSpline
 62
9
  6
CONTINUOUS
 70
0
 71
3
 72
11
 73
7
 74
5
 42
0.0000001
 43
0.0000001
 44
0.0000000001
 12
-0.1364288045
 22
-0.0247950375
 32
0.0
 13
-0.1200073048
 23
0.0694684056
 33
0.0
 40
0.0
 40
0.0
 40
0.0
 40
0.0
 40
0.268899084
 40
0.5495609178
 40
0.8039907986
 40
1.0
 40
1.0
 40
1.0
 40
1.0
 10
174.7633998707
 20
115.8332633926
 30
0.0
 10
174.7511713438
 20
115.8310409383
 30
0.0
 10
174.7257975325
 20
115.8285721106
 30
0.0
 10
174.6885369096
 20
115.8294761094
 30
0.0
 10
174.6551126887
 20
115.8346455025
 30
0.0
 10
174.6350460417
 20
115.8412812326
 30
0.0
 10
174.6272051964
 20
115.8458200481
 30
0.0
 11
174.7633998707
 21
115.8332633926
 31
0.0
 11
174.7263177999
 21
115.8293639595
 31
0.0
 11
174.6874134914
 21
115.8303809626
 31
0.0
 11
174.6526097733
 21
115.8361595725
 31
0.0
 11
174.6272051964
 21
115.8458200481
 31
0.0
  0
SPLINE
  5
3F9
100
AcDbEntity
  8
RUNDUNGEN
100
AcDbSpline
 62
7
  6
CONTINUOUS
 70
0
 71
3
 72
12
 73
8
 74
6
 42
0.0000001
 43
0.0000001
 44
0.0000000001
 12
0.1351016446
 22
-0.0782060372
 32
0.0
 13
0.1429088206
 23
-0.0628148679
 33
0.0
 40
0.0
 40
0.0
 40
0.0
 40
0.0
 40
0.1629869986
 40
0.3696840366
 40
0.5928761263
 40
0.8093060381
 40
1.0
 40
1.0
 40
1.0
 40
1.0
 10
174.6269155182
 20
115.7893072735
 30
0.0
 10
174.6342554554
 20
115.7850584178
 30
0.0
 10
174.6512087335
 20
115.7759545159
 30
0.0
 10
174.6786960101
 20
115.7619487033
 30
0.0
 10
174.70891834
 20
115.7471906124
 30
0.0
 10
174.7385934847
 20
115.7332202359
 30
0.0
 10
174.7578956373
 20
115.7244867881
 30
0.0
 10
174.766979587
 20
115.7204939827
 30
0.0
 11
174.6269155182
 21
115.7893072735
 31
0.0
 11
174.6492404417
 21
115.7771029762
 31
0.0
 11
174.6779708213
 21
115.7624168313
 31
0.0
 11
174.7092707015
 21
115.7471121216
 31
0.0
 11
174.7398432359
 21
115.7327318005
 31
0.0
 11
174.766979587
 21
115.7204939827
 31
0.0
  0
SPLINE
  5
3FA
100
AcDbEntity
  8
RUNDUNGEN
100
AcDbSpline
 62
9
  6
CONTINUOUS
 70
0
 71
3
 72
11
 73
7
 74
5
 42
0.0000001
 43
0.0000001
 44
0.0000000001
 12
-0.0518021099
 22
-0.1064994211
 32
0.0
 13
-0.1092413011
 23
0.0471606649
 33
0.0
 40
0.0
 40
0.0
 40
0.0
 40
0.0
 40
0.3221702575
 40
0.6077146695
 40
0.838890078
 40
1.0
 40
1.0
 40
1.0
 40
1.0
 10
173.4613449079
 20
118.0498636574
 30
0.0
 10
173.4557818749
 20
118.0384266755
 30
0.0
 10
173.4429509613
 20
118.0178466499
 30
0.0
 10
173.4189276015
 20
117.9945829926
 30
0.0
 10
173.3940001487
 20
117.9826381069
 30
0.0
 10
173.377498463
 20
117.9843899518
 30
0.0
 10
173.3716318439
 20
117.9869226355
 30
0.0
 11
173.4613449079
 21
118.0498636574
 31
0.0
 11
173.4408926685
 21
118.0176538307
 31
0.0
 11
173.4160864502
 21
117.994670441
 31
0.0
 11
173.3907027749
 21
117.984412501
 31
0.0
 11
173.3716318439
 21
117.9869226355
 31
0.0
  0
SPLINE
  5
3FB
100
AcDbEntity
  8
RUNDUNGEN
100
AcDbSpline
 62
9
  6
CONTINUOUS
 70
0
 71
3
 72
11
 73
7
 74
5
 42
0.0000001
 43
0.0000001
 44
0.0000000001
 12
-0.0518020699
 22
-0.106499339
 32
0.0
 13
-0.1092413791
 23
0.0471603056
 33
0.0
 40
0.0
 40
0.0
 40
0.0
 40
0.0
 40
0.3221705054
 40
0.6077151375
 40
0.8388907242
 40
1.0
 40
1.0
 40
1.0
 40
1.0
 10
174.6770225922
 20
117.5086602852
 30
0.0
 10
174.6714595592
 20
117.4972233032
 30
0.0
 10
174.6586286456
 20
117.4766432777
 30
0.0
 10
174.6346052859
 20
117.4533796204
 30
0.0
 10
174.6096778614
 20
117.4414347482
 30
0.0
 10
174.5931762122
 20
117.4431865727
 30
0.0
 10
174.5873096123
 20
117.4457192269
 30
0.0
 11
174.6770225922
 21
117.5086602852
 31
0.0
 11
174.6565703528
 21
117.4764504585
 31
0.0
 11
174.6317641345
 21
117.4534670687
 31
0.0
 11
174.6063804592
 21
117.4432091288
 31
0.0
 11
174.5873096123
 21
117.4457192269
 31
0.0
  0
SPLINE
  5
3FC
100
AcDbEntity
  8
RUNDUNGEN
100
AcDbSpline
 62
9
  6
CONTINUOUS
 70
0
 71
3
 72
13
 73
9
 74
7
 42
0.0000001
 43
0.0000001
 44
0.0000000001
 12
-1.5633616611
 22
-0.3807119098
 32
0.0
 13
-0.7709083725
 23
-1.4123531863
 33
0.0
 40
0.0
 40
0.0
 40
0.0
 40
0.0
 40
0.1573481313
 40
0.3193431414
 40
0.4855343147
 40
0.6551206841
 40
0.8270299521
 40
1.0
 40
1.0
 40
1.0
 40
1.0
 10
173.2838106879
 20
118.0175988803
 30
0.0
 10
173.2018133426
 20
117.9976307778
 30
0.0
 10
173.0384455379
 20
117.9435142833
 30
0.0
 10
172.8055188777
 20
117.8251198572
 30
0.0
 10
172.5863215706
 20
117.6711877006
 30
0.0
 10
172.3860918557
 20
117.4854565002
 30
0.0
 10
172.2095553929
 20
117.2724280541
 30
0.0
 10
172.1104233595
 20
117.1155503046
 30
0.0
 10
172.0659753401
 20
117.0341187052
 30
0.0
 11
173.2838106879
 21
118.0175988803
 31
0.0
 11
173.0432914371
 21
117.9385349959
 31
0.0
 11
172.8106805161
 21
117.820913688
 31
0.0
 11
172.5915971419
 21
117.6675822971
 31
0.0
 11
172.3913241622
 21
117.4822437955
 31
0.0
 11
172.2146928118
 21
117.2693711227
 31
0.0
 11
172.0659753401
 21
117.0341187052
 31
0.0
  0
SPLINE
  5
3FD
100
AcDbEntity
  8
RUNDUNGEN
100
AcDbSpline
 62
9
  6
CONTINUOUS
 70
0
 71
3
 72
10
 73
6
 74
4
 42
0.0000001
 43
0.0000001
 44
0.0000000001
 12
0.0267579626
 22
-0.0455523834
 32
0.0
 13
-0.0401743463
 23
-0.0377321093
 33
0.0
 40
0.0
 40
0.0
 40
0.0
 40
0.0
 40
0.5518850928
 40
0.8959806884
 40
1.0
 40
1.0
 40
1.0
 40
1.0
 10
172.0659768154
 20
117.0341198965
 30
0.0
 10
172.0708992556
 20
117.0257400027
 30
0.0
 10
172.0768194248
 20
117.012104819
 30
0.0
 10
172.0854285473
 20
116.9940280374
 30
0.0
 10
172.0805393939
 20
116.986669371
 30
0.0
 10
172.0791464247
 20
116.9853610817
 30
0.0
 11
172.0659768154
 21
117.0341198965
 31
0.0
 11
172.0788728233
 21
117.0079708943
 31
0.0
 11
172.0823378839
 21
116.9901256235
 31
0.0
 11
172.0791464247
 21
116.9853610817
 31
0.0
  0
SPLINE
  5
3FE
100
AcDbEntity
  8
RUNDUNGEN
100
AcDbSpline
 62
9
  6
CONTINUOUS
 70
0
 71
3
 72
10
 73
6
 74
4
 42
0.0000001
 43
0.0000001
 44
0.0000000001
 12
0.0267579138
 22
-0.0455523003
 32
0.0
 13
-0.0401740118
 23
-0.037732445
 33
0.0
 40
0.0
 40
0.0
 40
0.0
 40
0.0
 40
0.5518860994
 40
0.8959823229
 40
1.0
 40
1.0
 40
1.0
 40
1.0
 10
173.2838092511
 20
118.01759772
 30
0.0
 10
173.2887316913
 20
118.0092178263
 30
0.0
 10
173.2946518606
 20
117.9955826425
 30
0.0
 10
173.3032609674
 20
117.9775058939
 30
0.0
 10
173.2983718695
 20
117.9701472544
 30
0.0
 10
173.2969789337
 20
117.968838974
 30
0.0
 11
173.2838092511
 21
118.01759772
 31
0.0
 11
173.296705259
 21
117.9914487178
 31
0.0
 11
173.3001703197
 21
117.973603447
 31
0.0
 11
173.2969789337
 21
117.968838974
 31
0.0
  0
SPLINE
  5
3FF
100
AcDbEntity
  8
RUNDUNGEN
100
AcDbSpline
 62
9
  6
CONTINUOUS
 70
0
 71
3
 72
10
 73
6
 74
4
 42
0.0000001
 43
0.0000001
 44
0.0000000001
 12
0.0597391327
 22
0.0108571943
 32
0.0
 13
0.0049898604
 23
0.061351166
 33
0.0
 40
0.0
 40
0.0
 40
0.0
 40
0.0
 40
0.5061891161
 40
0.8511271923
 40
1.0
 40
1.0
 40
1.0
 40
1.0
 10
171.9748184371
 20
115.3264570665
 30
0.0
 10
171.9848982033
 20
115.3282889977
 30
0.0
 10
172.0011511066
 20
115.3329471247
 30
0.0
 10
172.020919658
 20
115.3412423481
 30
0.0
 10
172.0250978885
 20
115.3516996666
 30
0.0
 10
172.0253455067
 20
115.3547441733
 30
0.0
 11
171.9748184371
 21
115.3264570665
 31
0.0
 11
172.0044328609
 21
115.3346792825
 31
0.0
 11
172.0220711103
 21
115.3459725235
 31
0.0
 11
172.0253455067
 21
115.3547441733
 31
0.0
  0
SPLINE
  5
400
100
AcDbEntity
  8
RUNDUNGEN
100
AcDbSpline
 62
9
  6
CONTINUOUS
 70
0
 71
3
 72
10
 73
6
 74
4
 42
0.0000001
 43
0.0000001
 44
0.0000000001
 12
0.0597393106
 22
0.0108572266
 32
0.0
 13
0.0049890594
 23
0.0613512615
 33
0.0
 40
0.0
 40
0.0
 40
0.0
 40
0.0
 40
0.5061876083
 40
0.8511246573
 40
1.0
 40
1.0
 40
1.0
 40
1.0
 10
171.9769731886
 20
116.8511382623
 30
0.0
 10
171.9870529548
 20
116.8529701935
 30
0.0
 10
172.003305858
 20
116.8576283204
 30
0.0
 10
172.0230744684
 20
116.8659235686
 30
0.0
 10
172.0272526904
 20
116.8763809884
 30
0.0
 10
172.027500273
 20
116.8794255518
 30
0.0
 11
171.9769731886
 21
116.8511382623
 31
0.0
 11
172.0065876124
 21
116.8593604782
 31
0.0
 11
172.0242258618
 21
116.8706537192
 31
0.0
 11
172.027500273
 21
116.8794255518
 31
0.0
  0
SPLINE
  5
401
100
AcDbEntity
  8
RUNDUNGEN
100
AcDbSpline
 62
9
  6
CONTINUOUS
 70
0
 71
3
 72
11
 73
7
 74
5
 42
0.0000001
 43
0.0000001
 44
0.0000000001
 12
0.0556087982
 22
0.1143255521
 32
0.0
 13
-0.1100275792
 23
0.0636914603
 33
0.0
 40
0.0
 40
0.0
 40
0.0
 40
0.0
 40
0.3049694488
 40
0.583975536
 40
0.8152015762
 40
1.0
 40
1.0
 40
1.0
 40
1.0
 10
173.2790281513
 20
114.6345379974
 30
0.0
 10
173.2846811462
 20
114.646159931
 30
0.0
 10
173.2931649093
 20
114.6696691425
 30
0.0
 10
173.2971797727
 20
114.704310361
 30
0.0
 10
173.2921194434
 20
114.733952137
 30
0.0
 10
173.2804416142
 20
114.7488253117
 30
0.0
 10
173.2736639731
 20
114.7527486722
 30
0.0
 11
173.2790281513
 21
114.6345379974
 31
0.0
 11
173.2920127439
 21
114.671070607
 31
0.0
 11
173.295552903
 21
114.7063642409
 31
0.0
 11
173.2891096715
 21
114.7350457632
 31
0.0
 11
173.2736639731
 21
114.7527486722
 31
0.0
  0
SPLINE
  5
402
100
AcDbEntity
  8
RUNDUNGEN
100
AcDbSpline
 62
9
  6
CONTINUOUS
 70
0
 71
3
 72
11
 73
7
 74
5
 42
0.0000001
 43
0.0000001
 44
0.0000000001
 12
0.0556087982
 22
0.1143255521
 32
0.0
 13
-0.1100275792
 23
0.0636914603
 33
0.0
 40
0.0
 40
0.0
 40
0.0
 40
0.0
 40
0.3049694486
 40
0.5839755358
 40
0.815201576
 40
1.0
 40
1.0
 40
1.0
 40
1.0
 10
172.063350467
 20
115.1757413697
 30
0.0
 10
172.0690034619
 20
115.1873633032
 30
0.0
 10
172.077487225
 20
115.2108725147
 30
0.0
 10
172.0815020884
 20
115.2455137333
 30
0.0
 10
172.0764417591
 20
115.2751555092
 30
0.0
 10
172.0647639299
 20
115.2900286839
 30
0.0
 10
172.0579862888
 20
115.2939520444
 30
0.0
 11
172.063350467
 21
115.1757413697
 31
0.0
 11
172.0763350595
 21
115.2122739793
 31
0.0
 11
172.0798752187
 21
115.2475676131
 31
0.0
 11
172.0734319872
 21
115.2762491354
 31
0.0
 11
172.0579862888
 21
115.2939520444
 31
0.0
  0
SPLINE
  5
403
100
AcDbEntity
  8
RUNDUNGEN
100
AcDbSpline
 62
9
  6
CONTINUOUS
 70
0
 71
3
 72
11
 73
7
 74
5
 42
0.0000001
 43
0.0000001
 44
0.0000000001
 12
-0.0703912837
 22
0.1198331426
 32
0.0
 13
-0.1202794408
 23
0.0696259364
 33
0.0
 40
0.0
 40
0.0
 40
0.0
 40
0.0
 40
0.2637091845
 40
0.544327384
 40
0.8016830989
 40
1.0
 40
1.0
 40
1.0
 40
1.0
 10
174.6743962439
 20
115.6502817583
 30
0.0
 10
174.6682086346
 20
115.6608154584
 30
0.0
 10
174.6540148788
 20
115.681722875
 30
0.0
 10
174.6304547694
 20
115.7105080999
 30
0.0
 10
174.6064540035
 20
115.7347607456
 30
0.0
 10
174.5898400445
 20
115.7480520687
 30
0.0
 10
174.5818888959
 20
115.7526547354
 30
0.0
 11
174.6743962439
 21
115.6502817583
 31
0.0
 11
174.6540325891
 21
115.6807535434
 31
0.0
 11
174.6293014692
 21
115.7109090584
 31
0.0
 11
174.6039679731
 21
115.7361573994
 31
0.0
 11
174.5818888959
 21
115.7526547354
 31
0.0
  0
SPLINE
  5
404
100
AcDbEntity
  8
RUNDUNGEN
100
AcDbSpline
 62
9
  6
CONTINUOUS
 70
0
 71
3
 72
11
 73
7
 74
5
 42
0.0000001
 43
0.0000001
 44
0.0000000001
 12
-0.0703912837
 22
0.1198331426
 32
0.0
 13
-0.1202794408
 23
0.0696259364
 33
0.0
 40
0.0
 40
0.0
 40
0.0
 40
0.0
 40
0.2637091843
 40
0.5443273836
 40
0.8016830987
 40
1.0
 40
1.0
 40
1.0
 40
1.0
 10
173.4565638081
 20
114.6668039348
 30
0.0
 10
173.4503761988
 20
114.6773376349
 30
0.0
 10
173.436182443
 20
114.6982450515
 30
0.0
 10
173.4126223337
 20
114.7270302764
 30
0.0
 10
173.3886215678
 20
114.7512829221
 30
0.0
 10
173.3720076087
 20
114.7645742452
 30
0.0
 10
173.3640564601
 20
114.7691769119
 30
0.0
 11
173.4565638081
 21
114.6668039348
 31
0.0
 11
173.4362001533
 21
114.6972757199
 31
0.0
 11
173.4114690335
 21
114.7274312348
 31
0.0
 11
173.3861355373
 21
114.7526795758
 31
0.0
 11
173.3640564601
 21
114.7691769119
 31
0.0
  0
SPLINE
  5
405
100
AcDbEntity
  8
RUNDUNGEN
100
AcDbSpline
 62
7
  6
CONTINUOUS
 70
0
 71
3
 72
12
 73
8
 74
6
 42
0.0000001
 43
0.0000001
 44
0.0000000001
 12
0.1348227098
 22
-0.0780445452
 32
0.0
 13
-0.0053465876
 23
-0.1556904882
 33
0.0
 40
0.0
 40
0.0
 40
0.0
 40
0.0
 40
0.1520349583
 40
0.3446451288
 40
0.5623067662
 40
0.7864998881
 40
1.0
 40
1.0
 40
1.0
 40
1.0
 10
173.3186105575
 20
114.7327670817
 30
0.0
 10
173.3254431458
 20
114.7288119153
 30
0.0
 10
173.337854734
 20
114.7150194798
 30
0.0
 10
173.3510187332
 20
114.688903178
 30
0.0
 10
173.3607603499
 20
114.657255157
 30
0.0
 10
173.3662859888
 20
114.6236002637
 30
0.0
 10
173.3671421132
 20
114.6008081161
 30
0.0
 10
173.3667616142
 20
114.5897281372
 30
0.0
 11
173.3186105575
 21
114.7327670817
 31
0.0
 11
173.335548326
 21
114.7162123107
 31
0.0
 11
173.3497037418
 21
114.6897559477
 31
0.0
 11
173.3599178154
 21
114.6574230982
 31
0.0
 11
173.3656325288
 21
114.6229684977
 31
0.0
 11
173.3667616142
 21
114.5897281372
 31
0.0
  0
SPLINE
  5
406
100
AcDbEntity
  8
RUNDUNGEN
100
AcDbSpline
 62
9
  6
CONTINUOUS
 70
0
 71
3
 72
13
 73
9
 74
7
 42
0.0000001
 43
0.0000001
 44
0.0000000001
 12
-0.7852714027
 22
1.1593063534
 32
0.0
 13
-1.3902627937
 23
-0.1667685865
 33
0.0
 40
0.0
 40
0.0
 40
0.0
 40
0.0
 40
0.1672021044
 40
0.3318463978
 40
0.495675569
 40
0.6605493996
 40
0.8281965513
 40
1.0
 40
1.0
 40
1.0
 40
1.0
 10
174.6770240601
 20
117.5086596317
 30
0.0
 10
174.6332577164
 20
117.5732724524
 30
0.0
 10
174.5348577559
 20
117.6941805138
 30
0.0
 10
174.357259525
 20
117.8444773351
 30
0.0
 10
174.1554325314
 20
117.9582005921
 30
0.0
 10
173.9345257286
 20
118.0323946926
 30
0.0
 10
173.7002041185
 20
118.0653286349
 30
0.0
 10
173.5409607824
 20
118.0594147711
 30
0.0
 10
173.4613434682
 20
118.0498642984
 30
0.0
 11
174.6770240601
 21
117.5086596317
 31
0.0
 11
174.5288952395
 21
117.6899622445
 31
0.0
 11
174.3527749722
 21
117.8387246132
 31
0.0
 11
174.1529231846
 21
117.9513429939
 31
0.0
 11
173.9341608223
 21
118.0250987817
 31
0.0
 11
173.7017629763
 21
118.0582078192
 31
0.0
 11
173.4613434682
 21
118.0498642984
 31
0.0
  0
SPLINE
  5
407
100
AcDbEntity
  8
RUNDUNGEN
100
AcDbSpline
 62
9
  6
CONTINUOUS
 70
0
 71
3
 72
43
 73
39
 74
37
 42
0.0000001
 43
0.0000001
 44
0.0000000001
 12
-4.5920718706
 22
10.3022500962
 32
0.0
 13
-0.0159358032
 23
-11.2760193761
 33
0.0
 40
0.0
 40
0.0
 40
0.0
 40
0.0
 40
0.0255768275
 40
0.0519157743
 40
0.0779912194
 40
0.1038306185
 40
0.1294448878
 40
0.1549087963
 40
0.1803004514
 40
0.2056851996
 40
0.2311307847
 40
0.2567068
 40
0.2824788136
 40
0.3085059808
 40
0.3348393073
 40
0.3615204003
 40
0.388580806
 40
0.4160419428
 40
0.4439161214
 40
0.472205746
 40
0.5009027435
 40
0.5299897675
 40
0.5594406401
 40
0.5892242339
 40
0.6193060978
 40
0.6496409535
 40
0.6801735401
 40
0.7108591361
 40
0.7416551685
 40
0.7724649376
 40
0.8031985076
 40
0.8339688717
 40
0.8647646438
 40
0.8948669694
 40
0.9235959405
 40
0.9507543159
 40
0.9762491418
 40
1.0
 40
1.0
 40
1.0
 40
1.0
 10
175.8452256775
 20
119.4080792521
 30
0.0
 10
175.8060754675
 20
119.4959122099
 30
0.0
 10
175.7195926885
 20
119.6710746437
 30
0.0
 10
175.5682727747
 20
119.9225644419
 30
0.0
 10
175.3950607807
 20
120.1607555106
 30
0.0
 10
175.2031081376
 20
120.3805331022
 30
0.0
 10
174.9936661998
 20
120.5804109127
 30
0.0
 10
174.7680525759
 20
120.7591501048
 30
0.0
 10
174.5275610328
 20
120.9157364578
 30
0.0
 10
174.2736111994
 20
121.0492485719
 30
0.0
 10
174.0077352147
 20
121.1588937614
 30
0.0
 10
173.7315143913
 20
121.2440388128
 30
0.0
 10
173.4465738343
 20
121.3042008978
 30
0.0
 10
173.1545878404
 20
121.3390423803
 30
0.0
 10
172.8572732227
 20
121.348372802
 30
0.0
 10
172.5563799625
 20
121.3321512459
 30
0.0
 10
172.2536793817
 20
121.29048765
 30
0.0
 10
171.9509477396
 20
121.223641333
 30
0.0
 10
171.6499545001
 20
121.1320169358
 30
0.0
 10
171.3524560333
 20
121.0161610413
 30
0.0
 10
171.0601906229
 20
120.8767610734
 30
0.0
 10
170.7748702518
 20
120.7146438952
 30
0.0
 10
170.4981592563
 20
120.5307656539
 30
0.0
 10
170.2316556946
 20
120.3261958947
 30
0.0
 10
169.9769001444
 20
120.1021173291
 30
0.0
 10
169.735388282
 20
119.8598411001
 30
0.0
 10
169.5085276727
 20
119.6007764657
 30
0.0
 10
169.2976114076
 20
119.3263877768
 30
0.0
 10
169.1039259504
 20
119.0383221354
 30
0.0
 10
168.9287175377
 20
118.738451622
 30
0.0
 10
168.772801273
 20
118.4282206781
 30
0.0
 10
168.6368608069
 20
118.1087840799
 30
0.0
 10
168.5224537601
 20
117.7835258126
 30
0.0
 10
168.4313186783
 20
117.4589654861
 30
0.0
 10
168.3638643625
 20
117.1426578418
 30
0.0
 10
168.3186961721
 20
116.8399270365
 30
0.0
 10
168.2934283992
 20
116.5537023877
 30
0.0
 10
168.2878395057
 20
116.3685718423
 30
0.0
 10
168.2877133427
 20
116.27930013
 30
0.0
 11
175.8452256775
 21
119.4080792521
 31
0.0
 11
175.7174047635
 21
119.6666209576
 31
0.0
 11
175.5641449106
 21
119.921021602
 31
0.0
 11
175.3911014693
 21
120.1587360279
 31
0.0
 11
175.1993448151
 21
120.3781065994
 31
0.0
 11
174.9903355873
 21
120.577446369
 31
0.0
 11
174.7652380483
 21
120.7557039777
 31
0.0
 11
174.5252876476
 21
120.9119130561
 31
0.0
 11
174.2719370409
 21
121.0451284781
 31
0.0
 11
174.0067022715
 21
121.1545660668
 31
0.0
 11
173.7311281648
 21
121.2396020915
 31
0.0
 11
173.4468149
 21
121.2997504397
 31
0.0
 11
173.1554158564
 21
121.3346638632
 31
0.0
 11
172.8586316375
 21
121.3441378888
 31
0.0
 11
172.5582017849
 21
121.3281150593
 31
0.0
 11
172.2558930852
 21
121.2866881791
 31
0.0
 11
171.9534846117
 21
121.2201009435
 31
0.0
 11
171.6527446971
 21
121.1287426496
 31
0.0
 11
171.3554317266
 21
121.0131459403
 31
0.0
 11
171.0632937664
 21
120.8739886555
 31
0.0
 11
170.7780507282
 21
120.7120894918
 31
0.0
 11
170.5013860812
 21
120.5284056913
 31
0.0
 11
170.2349088728
 21
120.3240068561
 31
0.0
 11
169.9801440824
 21
120.1000553688
 31
0.0
 11
169.7385974432
 21
119.8578611292
 31
0.0
 11
169.5117346921
 21
119.5988893071
 31
0.0
 11
169.3008293417
 21
119.3245846513
 31
0.0
 11
169.1070520091
 21
119.0364218975
 31
0.0
 11
168.9317881874
 21
118.7364591976
 31
0.0
 11
168.7761832235
 21
118.4268047892
 31
0.0
 11
168.6403548265
 21
118.107528827
 31
0.0
 11
168.5251892521
 21
117.7799280344
 31
0.0
 11
168.4335014332
 21
117.4531111271
 31
0.0
 11
168.3660206249
 21
117.136268677
 31
0.0
 11
168.320914935
 21
116.8333700113
 31
0.0
 11
168.2957187325
 21
116.5469958611
 31
0.0
 11
168.2877133427
 21
116.27930013
 31
0.0
  0
SPLINE
  5
408
100
AcDbEntity
  8
RUNDUNGEN
100
AcDbSpline
 62
7
  6
CONTINUOUS
 70
0
 71
3
 72
12
 73
8
 74
6
 42
0.0000001
 43
0.0000001
 44
0.0000000001
 12
-0.1302332516
 22
0.0753878803
 32
0.0
 13
0.0002126643
 23
0.1504791915
 33
0.0
 40
0.0
 40
0.0
 40
0.0
 40
0.0
 40
0.1515267524
 40
0.3426514366
 40
0.559056231
 40
0.7835085633
 40
1.0
 40
1.0
 40
1.0
 40
1.0
 10
172.5339961253
 20
115.1869553799
 30
0.0
 10
172.5274181847
 20
115.1907631401
 30
0.0
 10
172.5153882187
 20
115.2038648515
 30
0.0
 10
172.5024029425
 20
115.2287771942
 30
0.0
 10
172.4925349261
 20
115.2590618649
 30
0.0
 10
172.48651217
 20
115.2915477027
 30
0.0
 10
172.4850835959
 20
115.3136872112
 30
0.0
 10
172.4850989426
 20
115.3245463633
 30
0.0
 11
172.5339961253
 21
115.1869553799
 31
0.0
 11
172.5175745842
 21
115.2027746102
 31
0.0
 11
172.5036724901
 21
115.2279517346
 31
0.0
 11
172.4933459834
 21
115.2588354962
 31
0.0
 11
172.487115877
 21
115.2920313705
 31
0.0
 11
172.4850989426
 21
115.3245463633
 31
0.0
  0
SPLINE
  5
409
100
AcDbEntity
  8
RUNDUNGEN
100
AcDbSpline
 62
7
  6
CONTINUOUS
 70
0
 71
3
 72
12
 73
8
 74
6
 42
0.0000001
 43
0.0000001
 44
0.0000000001
 12
-0.1313992458
 22
0.0760628372
 32
0.0
 13
-0.1387026731
 23
0.0617485666
 33
0.0
 40
0.0
 40
0.0
 40
0.0
 40
0.0
 40
0.1611471826
 40
0.3652349608
 40
0.5868620266
 40
0.8043407455
 40
1.0
 40
1.0
 40
1.0
 40
1.0
 10
173.842301086
 20
116.2434955717
 30
0.0
 10
173.8352428799
 20
116.2475813423
 30
0.0
 10
173.8189613112
 20
116.2563446563
 30
0.0
 10
173.7925143536
 20
116.2698597154
 30
0.0
 10
173.7632857497
 20
116.2841913467
 30
0.0
 10
173.734251126
 20
116.297940297
 30
0.0
 10
173.7152297265
 20
116.3066233162
 30
0.0
 10
173.7061835726
 20
116.3106505423
 30
0.0
 11
173.842301086
 21
116.2434955717
 31
0.0
 11
173.8208409276
 21
116.2552457952
 31
0.0
 11
173.7932677884
 21
116.2693826737
 31
0.0
 11
173.763063924
 21
116.2842141936
 31
0.0
 11
173.7332186816
 21
116.2983393306
 31
0.0
 11
173.7061835726
 21
116.3106505423
 31
0.0
  0
SPLINE
  5
40A
100
AcDbEntity
  8
RUNDUNGEN
100
AcDbSpline
 62
9
  6
CONTINUOUS
 70
0
 71
3
 72
10
 73
6
 74
4
 42
0.0000001
 43
0.0000001
 44
0.0000000001
 12
0.0010694126
 22
0.7567059624
 32
0.0
 13
-0.3413923579
 23
0.6753194171
 33
0.0
 40
0.0
 40
0.0
 40
0.0
 40
0.0
 40
0.3431620754
 40
0.6765068396
 40
1.0
 40
1.0
 40
1.0
 40
1.0
 10
174.9314501936
 20
116.6259502249
 30
0.0
 10
174.9315725209
 20
116.712507821
 30
0.0
 10
174.9197390096
 20
116.883473971
 30
0.0
 10
174.86438864
 20
117.1305077976
 30
0.0
 10
174.8023673223
 20
117.2851259585
 30
0.0
 10
174.7655546247
 20
117.3579463627
 30
0.0
 11
174.9314501936
 21
116.6259502249
 31
0.0
 11
174.9129772546
 21
116.884965364
 31
0.0
 11
174.8572331634
 21
117.1309729738
 31
0.0
 11
174.7655546247
 21
117.3579463627
 31
0.0
  0
SPLINE
  5
40B
100
AcDbEntity
  8
RUNDUNGEN
100
AcDbSpline
 62
9
  6
CONTINUOUS
 70
0
 71
3
 72
10
 73
6
 74
4
 42
0.0000001
 43
0.0000001
 44
0.0000000001
 12
0.321683233
 22
0.7490427943
 32
0.0
 13
0.0011520729
 23
0.8151956102
 33
0.0
 40
0.0
 40
0.0
 40
0.0
 40
0.0
 40
0.3389345824
 40
0.6729691725
 40
1.0
 40
1.0
 40
1.0
 40
1.0
 10
174.7633998682
 20
115.833261625
 30
0.0
 10
174.7997430589
 20
115.9178871272
 30
0.0
 10
174.8612041176
 20
116.090773325
 30
0.0
 10
174.918028905
 20
116.3572404094
 30
0.0
 10
174.9313246058
 20
116.5370855265
 30
0.0
 10
174.9314501936
 20
116.6259502249
 30
0.0
 11
174.7633998682
 21
115.833261625
 31
0.0
 11
174.855761852
 21
116.093665143
 31
0.0
 11
174.9122303491
 21
116.3600495836
 31
0.0
 11
174.9314501936
 21
116.6259502249
 31
0.0
  0
SPLINE
  5
40C
100
AcDbEntity
  8
RUNDUNGEN
100
AcDbSpline
 62
7
  6
CONTINUOUS
 70
0
 71
3
 72
20
 73
16
 74
14
 42
0.0000001
 43
0.0000001
 44
0.0000000001
 12
-6.6179733526
 22
-3.0672106897
 32
0.0
 13
0.0103084974
 23
7.2941925482
 33
0.0
 40
0.0
 40
0.0
 40
0.0
 40
0.0
 40
0.0813755303
 40
0.1605516933
 40
0.2376242073
 40
0.3128652843
 40
0.3867650611
 40
0.4598648243
 40
0.5328835373
 40
0.6064813664
 40
0.6813286174
 40
0.7578584528
 40
0.8364405544
 40
0.9171785857
 40
1.0
 40
1.0
 40
1.0
 40
1.0
 10
151.4401446222
 20
109.0688446753
 30
0.0
 10
151.2606309252
 20
108.9856460432
 30
0.0
 10
150.8949493972
 20
108.8448979915
 30
0.0
 10
150.3298812662
 20
108.7153724359
 30
0.0
 10
149.7664363493
 20
108.6725491451
 30
0.0
 10
149.2158831625
 20
108.7172013383
 30
0.0
 10
148.6891261087
 20
108.8483078438
 30
0.0
 10
148.1964711688
 20
109.0632224607
 30
0.0
 10
147.7476746049
 20
109.3576807619
 30
0.0
 10
147.3515162301
 20
109.7260672693
 30
0.0
 10
147.0160647014
 20
110.1611829319
 30
0.0
 10
146.7481550628
 20
110.6545151405
 30
0.0
 10
146.5533738348
 20
111.1961318406
 30
0.0
 10
146.4357184999
 20
111.7749086593
 30
0.0
 10
146.4105281415
 20
112.1731909486
 30
0.0
 10
146.4108127296
 20
112.3745627295
 30
0.0
 11
151.4401446222
 21
109.0688446753
 31
0.0
 11
150.8858016808
 21
108.8566454319
 31
0.0
 11
150.3226318498
 21
108.7286731928
 31
0.0
 11
149.7619870939
 21
108.6871230121
 31
0.0
 11
149.2150316959
 21
108.7323665031
 31
0.0
 11
148.6920987556
 21
108.8631525123
 31
0.0
 11
148.2034770542
 21
109.0765901805
 31
0.0
 11
147.758087014
 21
109.3686593669
 31
0.0
 11
147.3646160888
 21
109.733864635
 31
0.0
 11
147.0306391696
 21
110.165746216
 31
0.0
 11
146.7633523138
 21
110.6558193465
 31
0.0
 11
146.5683315395
 21
111.194816328
 31
0.0
 11
146.449957873
 21
111.7717163693
 31
0.0
 11
146.4108127296
 21
112.3745627295
 31
0.0
  0
SPLINE
  5
40D
100
AcDbEntity
  8
RUNDUNGEN
100
AcDbSpline
 62
7
  6
CONTINUOUS
 70
0
 71
3
 72
29
 73
25
 74
23
 42
0.0000001
 43
0.0000001
 44
0.0000000001
 12
0.0179811423
 22
12.7232814893
 32
0.0
 13
1.1096777757
 23
-12.6748110411
 33
0.0
 40
0.0
 40
0.0
 40
0.0
 40
0.0
 40
0.0476261077
 40
0.0961193942
 40
0.1452752745
 40
0.1948560753
 40
0.2445387273
 40
0.2940116889
 40
0.3430020839
 40
0.3912823239
 40
0.4385694785
 40
0.4847812932
 40
0.5298415683
 40
0.5736517175
 40
0.6164396411
 40
0.6583665017
 40
0.6996708654
 40
0.7407452019
 40
0.781963819
 40
0.8236538059
 40
0.8660770925
 40
0.9095456947
 40
0.9541678898
 40
1.0
 40
1.0
 40
1.0
 40
1.0
 10
146.4108127296
 20
112.3745627295
 30
0.0
 10
146.4110981869
 20
112.5765495211
 30
0.0
 10
146.4381455548
 20
112.9845809906
 30
0.0
 10
146.5542637165
 20
113.5911084324
 30
0.0
 10
146.744012898
 20
114.1875271673
 30
0.0
 10
147.0037539186
 20
114.7624331738
 30
0.0
 10
147.3284901957
 20
115.3048566102
 30
0.0
 10
147.7119302333
 20
115.8043631095
 30
0.0
 10
148.1468429057
 20
116.2515545648
 30
0.0
 10
148.6249099085
 20
116.6378014835
 30
0.0
 10
149.1371456615
 20
116.9557801933
 30
0.0
 10
149.673821759
 20
117.1993657686
 30
0.0
 10
150.2245794144
 20
117.3637327914
 30
0.0
 10
150.7789215849
 20
117.44575905
 30
0.0
 10
151.3261575123
 20
117.4439053983
 30
0.0
 10
151.856005781
 20
117.358164
 30
0.0
 10
152.3582293444
 20
117.1902158076
 30
0.0
 10
152.823319477
 20
116.9432290819
 30
0.0
 10
153.2424299757
 20
116.6217131141
 30
0.0
 10
153.6071950466
 20
116.231870109
 30
0.0
 10
153.9105581796
 20
115.7811513765
 30
0.0
 10
154.1466002938
 20
115.2781538748
 30
0.0
 10
154.3107335666
 20
114.7324664414
 30
0.0
 10
154.3693125662
 20
114.3519332135
 30
0.0
 10
154.3862655243
 20
114.1582954346
 30
0.0
 11
146.4108127296
 21
112.3745627295
 31
0.0
 11
146.4501231473
 21
112.9792472756
 31
0.0
 11
146.5655222337
 21
113.585353767
 31
0.0
 11
146.7547531444
 21
114.1814642856
 31
0.0
 11
147.0143051441
 21
114.7564257242
 31
0.0
 11
147.3390289609
 21
115.2987715409
 31
0.0
 11
147.722513348
 21
115.7979292444
 31
0.0
 11
148.1574192273
 21
116.2444532777
 31
0.0
 11
148.635653194
 21
116.6299876268
 31
0.0
 11
149.1472571527
 21
116.9465980533
 31
0.0
 11
149.683053684
 21
117.1887275612
 31
0.0
 11
150.2327209648
 21
117.3516880636
 31
0.0
 11
150.7842752836
 21
117.4322677897
 31
0.0
 11
151.3286715901
 21
117.4295006114
 31
0.0
 11
151.8551536131
 21
117.343574971
 31
0.0
 11
152.353416131
 21
117.1765010605
 31
0.0
 11
152.8149336655
 21
116.9313210623
 31
0.0
 11
153.2312053546
 21
116.612335765
 31
0.0
 11
153.5940555722
 21
116.2254250341
 31
0.0
 11
153.8961451719
 21
115.778114177
 31
0.0
 11
154.1320092992
 21
115.2778665425
 31
0.0
 11
154.2965280253
 21
114.7344847339
 31
0.0
 11
154.3862655243
 21
114.1582954346
 31
0.0
  0
SPLINE
  5
40E
100
AcDbEntity
  8
BEZUGSACHSEN
100
AcDbSpline
 62
7
  6
CONTINUOUS
 70
0
 71
3
 72
21
 73
17
 74
15
 42
0.0000001
 43
0.0000001
 44
0.0000000001
 12
-4.2738780867
 22
2.4738301212
 32
0.0
 13
-0.006968531
 23
-4.9308647507
 33
0.0
 40
0.0
 40
0.0
 40
0.0
 40
0.0
 40
0.0566277593
 40
0.1209095775
 40
0.1864804893
 40
0.2538259117
 40
0.3232279918
 40
0.3947524133
 40
0.4682603106
 40
0.5434367301
 40
0.6198285358
 40
0.6968870893
 40
0.7740130706
 40
0.8506020994
 40
0.926090423
 40
1.0
 40
1.0
 40
1.0
 40
1.0
 10
148.4828347579
 20
116.9801591846
 30
0.0
 10
148.402161378
 20
117.0268550035
 30
0.0
 10
148.2214117927
 20
117.1118937886
 30
0.0
 10
147.9235004859
 20
117.1912449152
 30
0.0
 10
147.5985867205
 20
117.2161423142
 30
0.0
 10
147.2660680748
 20
117.1832659922
 30
0.0
 10
146.9341532072
 20
117.0937244377
 30
0.0
 10
146.6109035491
 20
116.9499558716
 30
0.0
 10
146.3041020866
 20
116.7556362446
 30
0.0
 10
146.0211144446
 20
116.515594663
 30
0.0
 10
145.7687379622
 20
116.2357156906
 30
0.0
 10
145.553048394
 20
115.9228113223
 30
0.0
 10
145.3792561325
 20
115.5844805535
 30
0.0
 10
145.251582398
 20
115.2288865793
 30
0.0
 10
145.1731601046
 20
114.8647334959
 30
0.0
 10
145.1548114944
 20
114.6188946989
 30
0.0
 10
145.154639814
 20
114.497415323
 30
0.0
 11
148.4828347579
 21
116.9801591846
 31
0.0
 11
148.2301320239
 21
117.0991426696
 31
0.0
 11
147.92396546
 21
117.1811732513
 31
0.0
 11
147.6016434436
 21
117.2065777405
 31
0.0
 11
147.2711026125
 21
117.1747305941
 31
0.0
 11
146.9404819789
 21
117.0864159948
 31
0.0
 11
146.61792252
 21
116.9438085411
 31
0.0
 11
146.3113667204
 21
116.7504197016
 31
0.0
 11
146.0283630011
 21
116.5110113516
 31
0.0
 11
145.775879853
 21
116.231478519
 31
0.0
 11
145.5601342492
 21
115.91870423
 31
0.0
 11
145.3864385623
 21
115.5803900256
 31
0.0
 11
145.2590697568
 21
115.2248663244
 31
0.0
 11
145.1811640752
 21
114.8608872996
 31
0.0
 11
145.154639814
 21
114.497415323
 31
0.0
  0
SPLINE
  5
40F
100
AcDbEntity
  8
BEZUGSACHSEN
100
AcDbSpline
 62
7
  6
CONTINUOUS
 70
0
 71
3
 72
14
 73
10
 74
8
 42
0.0000001
 43
0.0000001
 44
0.0000000001
 12
-1.7557527583
 22
1.0162746739
 32
0.0
 13
0.0028627437
 23
2.0256495883
 33
0.0
 40
0.0
 40
0.0
 40
0.0
 40
0.0
 40
0.0170609732
 40
0.1721647474
 40
0.3292106774
 40
0.4896942127
 40
0.6546940797
 40
0.8247808342
 40
1.0
 40
1.0
 40
1.0
 40
1.0
 10
146.0528886055
 20
112.7827997994
 30
0.0
 10
146.0429036553
 20
112.7885793444
 30
0.0
 10
145.9427593837
 20
112.8479632804
 30
0.0
 10
145.7636027069
 20
112.9818187127
 30
0.0
 10
145.5470963478
 20
113.2187731579
 30
0.0
 10
145.3736011842
 20
113.4965723966
 30
0.0
 10
145.2472161165
 20
113.808116573
 30
0.0
 10
145.17079544
 20
114.1455093236
 30
0.0
 10
145.1544726115
 20
114.379104446
 30
0.0
 10
145.154639814
 20
114.497415323
 30
0.0
 11
146.0528886055
 21
112.7827997994
 31
0.0
 11
146.023119065
 21
112.8004531235
 31
0.0
 11
145.7712964848
 21
112.9883317084
 31
0.0
 11
145.5563243066
 21
113.2228258747
 31
0.0
 11
145.3834958588
 21
113.4981615978
 31
0.0
 11
145.2570667514
 21
113.8075591985
 31
0.0
 11
145.1801500886
 21
114.1434002809
 31
0.0
 11
145.154639814
 21
114.497415323
 31
0.0
  0
SPLINE
  5
410
100
AcDbEntity
  8
RUNDUNGEN
100
AcDbSpline
 62
9
  6
CONTINUOUS
 70
0
 71
3
 72
26
 73
22
 74
20
 42
0.0000001
 43
0.0000001
 44
0.0000000001
 12
0.0089727256
 22
6.3490134029
 32
0.0
 13
-0.0089727256
 23
-6.3490134029
 33
0.0
 40
0.0
 40
0.0
 40
0.0
 40
0.0
 40
0.0536701703
 40
0.1056744715
 40
0.1560547901
 40
0.2050194548
 40
0.2529709755
 40
0.3004384473
 40
0.348023822
 40
0.3963137375
 40
0.4457931972
 40
0.4967924684
 40
0.5494535123
 40
0.6037365797
 40
0.6594341682
 40
0.7162091202
 40
0.7736270003
 40
0.8311942729
 40
0.8884180054
 40
0.9448160843
 40
1.0
 40
1.0
 40
1.0
 40
1.0
 10
153.4675002853
 20
112.7598437822
 30
0.0
 10
153.4676608079
 20
112.8734279924
 30
0.0
 10
153.4511744637
 20
113.0975400468
 30
0.0
 10
153.373940768
 20
113.4201610059
 30
0.0
 10
153.2463874491
 20
113.715837444
 30
0.0
 10
153.0716817381
 20
113.9762438001
 30
0.0
 10
152.8544259921
 20
114.1939321432
 30
0.0
 10
152.6006207378
 20
114.3625272889
 30
0.0
 10
152.3175379465
 20
114.4771236201
 30
0.0
 10
152.0133529358
 20
114.5345672279
 30
0.0
 10
151.6967147201
 20
114.5335271704
 30
0.0
 10
151.3764024702
 20
114.4743852873
 30
0.0
 10
151.0610883843
 20
114.3590767324
 30
0.0
 10
150.7591938292
 20
114.1909608532
 30
0.0
 10
150.4787277868
 20
113.9747139477
 30
0.0
 10
150.2271294896
 20
113.7162288676
 30
0.0
 10
150.0110922064
 20
113.4224827639
 30
0.0
 10
149.8363729301
 20
113.1013678502
 30
0.0
 10
149.707667008
 20
112.7614644781
 30
0.0
 10
149.6284500691
 20
112.4119521676
 30
0.0
 10
149.6098813064
 20
112.1755047268
 30
0.0
 10
149.6097162563
 20
112.0587169201
 30
0.0
 11
153.4675002853
 21
112.7598437822
 31
0.0
 11
153.4416767041
 21
113.0996168386
 31
0.0
 11
153.3639484442
 21
113.4205135972
 31
0.0
 11
153.2364231728
 21
113.7138586691
 31
0.0
 11
153.0625977221
 21
113.9715980898
 31
0.0
 11
152.8471890247
 21
114.1867397722
 31
0.0
 11
152.5960877445
 21
114.3533926409
 31
0.0
 11
152.3161461594
 21
114.4670126018
 31
0.0
 11
152.0149911571
 21
114.5245044851
 31
0.0
 11
151.7008451582
 21
114.5242982832
 31
0.0
 11
151.3822684222
 21
114.4663991365
 31
0.0
 11
151.0679615836
 21
114.3523883303
 31
0.0
 11
150.7664892544
 21
114.1853730464
 31
0.0
 11
150.4860825266
 21
113.9699136047
 31
0.0
 11
150.2343809006
 21
113.7118796582
 31
0.0
 11
150.0182532654
 21
113.4183093161
 31
0.0
 11
149.8436097064
 21
113.0972380302
 31
0.0
 11
149.7151894581
 21
112.7573766703
 31
0.0
 11
149.6365137261
 21
112.4080543887
 31
0.0
 11
149.6097162563
 21
112.0587169201
 31
0.0
  0
SPLINE
  5
411
100
AcDbEntity
  8
RUNDUNGEN
100
AcDbSpline
 62
7
  6
CONTINUOUS
 70
0
 71
3
 72
11
 73
7
 74
5
 42
0.0000001
 43
0.0000001
 44
0.0000000001
 12
-0.0014952064
 22
-0.1007342197
 32
0.0
 13
-0.0794412718
 23
-0.059874925
 33
0.0
 40
0.0
 40
0.0
 40
0.0
 40
0.0
 40
0.1096815418
 40
0.3649135551
 40
0.6686076839
 40
1.0
 40
1.0
 40
1.0
 40
1.0
 10
150.2396817258
 20
111.3316012761
 30
0.0
 10
150.2396270603
 20
111.3279183812
 30
0.0
 10
150.2374257601
 20
111.3155227609
 30
0.0
 10
150.227117087
 20
111.2957521695
 30
0.0
 10
150.2080096325
 20
111.2729731702
 30
0.0
 10
150.1920040524
 20
111.259173046
 30
0.0
 10
150.1832286434
 20
111.252559016
 30
0.0
 11
150.2396817258
 21
111.3316012761
 31
0.0
 11
150.2379943593
 21
111.32061193
 31
0.0
 11
150.2271599349
 21
111.2976495895
 31
0.0
 11
150.2080608124
 21
111.2742417775
 31
0.0
 11
150.1832286434
 21
111.252559016
 31
0.0
  0
LINE
  5
412
100
AcDbEntity
  8
RUNDUNGEN
100
AcDbLine
 62
9
  6
CONTINUOUS
 10
150.2775566629
 20
111.2163174327
 11
150.1832285961
 21
111.2525590502
  0
LINE
  5
413
100
AcDbEntity
  8
RUNDUNGEN
100
AcDbLine
 62
9
  6
CONTINUOUS
 10
151.5809691114
 20
110.6303037517
 11
151.4932369371
 21
110.6751129098
  0
SPLINE
  5
414
100
AcDbEntity
  8
RUNDUNGEN
100
AcDbSpline
 62
7
  6
CONTINUOUS
 70
0
 71
3
 72
11
 73
7
 74
5
 42
0.0000001
 43
0.0000001
 44
0.0000000001
 12
0.0715371433
 22
0.0593714979
 32
0.0
 13
-0.0027377294
 23
0.0903350589
 33
0.0
 40
0.0
 40
0.0
 40
0.0
 40
0.0
 40
0.0794568969
 40
0.3328994615
 40
0.6469959131
 40
1.0
 40
1.0
 40
1.0
 40
1.0
 10
151.5634459285
 20
114.0508991411
 30
0.0
 10
151.5653406349
 20
114.0524716328
 30
0.0
 10
151.5725812751
 20
114.0601160048
 30
0.0
 10
151.580326504
 20
114.0781569688
 30
0.0
 10
151.5856517879
 20
114.1055569651
 30
0.0
 10
151.5862462118
 20
114.1257164596
 30
0.0
 10
151.5859240686
 20
114.1363460079
 30
0.0
 11
151.5634459285
 21
114.0508991411
 31
0.0
 11
151.5686115859
 21
114.0562141009
 31
0.0
 11
151.5789002769
 21
114.0766785532
 31
0.0
 11
151.5847029604
 21
114.1044660995
 31
0.0
 11
151.5859240686
 21
114.1363460079
 31
0.0
  0
SPLINE
  5
415
100
AcDbEntity
  8
RUNDUNGEN
100
AcDbSpline
 62
9
  6
CONTINUOUS
 70
0
 71
3
 72
26
 73
22
 74
20
 42
0.0000001
 43
0.0000001
 44
0.0000000001
 12
-0.0089727256
 22
-6.3490134005
 32
0.0
 13
0.0089727256
 23
6.3490134005
 33
0.0
 40
0.0
 40
0.0
 40
0.0
 40
0.0
 40
0.0536701353
 40
0.1056745152
 40
0.1560547922
 40
0.2050194689
 40
0.2529709826
 40
0.3004384536
 40
0.3480238262
 40
0.3963137405
 40
0.4457931993
 40
0.49679247
 40
0.5494535137
 40
0.6037365812
 40
0.65943417
 40
0.7162091221
 40
0.7736270026
 40
0.8311942754
 40
0.8884180026
 40
0.9448161045
 40
1.0
 40
1.0
 40
1.0
 40
1.0
 10
149.6097162563
 20
112.0587169201
 30
0.0
 10
149.6095557339
 20
111.9451327839
 30
0.0
 10
149.6260414013
 20
111.7210205445
 30
0.0
 10
149.7032762676
 20
111.3983998504
 30
0.0
 10
149.8308290162
 20
111.1027231103
 30
0.0
 10
150.0055348994
 20
110.8423169111
 30
0.0
 10
150.2227905803
 20
110.6246285232
 30
0.0
 10
150.4765958358
 20
110.4560333992
 30
0.0
 10
150.7596786145
 20
110.3414370705
 30
0.0
 10
151.0638636181
 20
110.2839934682
 30
0.0
 10
151.3805018277
 20
110.2850335292
 30
0.0
 10
151.7008140735
 20
110.3441754147
 30
0.0
 10
152.0161281581
 20
110.4594839701
 30
0.0
 10
152.3180227116
 20
110.6275998502
 30
0.0
 10
152.5984887646
 20
110.8438467485
 30
0.0
 10
152.8500870387
 20
111.1023318416
 30
0.0
 10
153.0661244204
 20
111.3960778975
 30
0.0
 10
153.2408434444
 20
111.7171928992
 30
0.0
 10
153.3695500013
 20
112.0570961139
 30
0.0
 10
153.4487658806
 20
112.4066086498
 30
0.0
 10
153.4673352353
 20
112.6430560182
 30
0.0
 10
153.4675002853
 20
112.7598437822
 30
0.0
 11
149.6097162563
 21
112.0587169201
 31
0.0
 11
149.6355394971
 21
111.7189440607
 31
0.0
 11
149.7132683828
 21
111.3980469398
 31
0.0
 11
149.8407933705
 21
111.1047020323
 31
0.0
 11
150.0146188946
 21
110.846962569
 31
0.0
 11
150.2300275518
 21
110.6318209098
 31
0.0
 11
150.4811288274
 21
110.4651680438
 31
0.0
 11
150.7610704008
 21
110.3515480897
 31
0.0
 11
151.0622253956
 21
110.2940562108
 31
0.0
 11
151.3763713886
 21
110.294262416
 31
0.0
 11
151.694948121
 21
110.3521615649
 31
0.0
 11
152.0092549581
 21
110.4661723719
 31
0.0
 11
152.310727288
 21
110.6331876555
 31
0.0
 11
152.5911340194
 21
110.8486470951
 31
0.0
 11
152.8428356473
 21
111.1066810404
 31
0.0
 11
153.0589633041
 21
111.4002513701
 31
0.0
 11
153.2336068192
 21
111.7213226813
 31
0.0
 11
153.3620272503
 21
112.0611839354
 31
0.0
 11
153.4407025593
 21
112.4105064618
 31
0.0
 11
153.4675002853
 21
112.7598437822
 31
0.0
  0
SPLINE
  5
416
100
AcDbEntity
  8
RUNDUNGEN
100
AcDbSpline
 62
7
  6
CONTINUOUS
 70
0
 71
3
 72
11
 73
7
 74
5
 42
0.0000001
 43
0.0000001
 44
0.0000000001
 12
-0.0171266114
 22
-0.0568867629
 32
0.0
 13
-0.0542211904
 23
0.0244206319
 33
0.0
 40
0.0
 40
0.0
 40
0.0
 40
0.0
 40
0.008595282
 40
0.1991342933
 40
0.5448237878
 40
1.0
 40
1.0
 40
1.0
 40
1.0
 10
150.2405157353
 20
112.9840109587
 30
0.0
 10
150.2404666659
 20
112.9838479728
 30
0.0
 10
150.2391369348
 20
112.9802688923
 30
0.0
 10
150.2246780446
 20
112.9913503901
 30
0.0
 10
150.2093770761
 20
112.9938678633
 30
0.0
 10
150.1939328281
 20
113.0018749319
 30
0.0
 10
150.1857060961
 20
113.0055801621
 30
0.0
 11
150.2405157353
 21
112.9840109587
 31
0.0
 11
150.2403445064
 21
112.9835532174
 31
0.0
 11
150.2295473908
 21
112.9869895298
 31
0.0
 11
150.2104922532
 21
112.9947027968
 31
0.0
 11
150.1857060961
 21
113.0055801621
 31
0.0
  0
SPLINE
  5
417
100
AcDbEntity
  8
RUNDUNGEN
100
AcDbSpline
 62
9
  6
CONTINUOUS
 70
0
 71
3
 72
13
 73
9
 74
7
 42
0.0000001
 43
0.0000001
 44
0.0000000001
 12
1.5633616611
 22
0.3807119098
 32
0.0
 13
0.7709083725
 23
1.4123531863
 33
0.0
 40
0.0
 40
0.0
 40
0.0
 40
0.0
 40
0.1573481313
 40
0.3193431414
 40
0.4855343147
 40
0.6551206841
 40
0.8270299521
 40
1.0
 40
1.0
 40
1.0
 40
1.0
 10
151.6707699212
 20
110.7073783523
 30
0.0
 10
151.7527672665
 20
110.7273464548
 30
0.0
 10
151.9161350711
 20
110.7814629493
 30
0.0
 10
152.1490617313
 20
110.8998573754
 30
0.0
 10
152.3682590384
 20
111.053789532
 30
0.0
 10
152.5684887534
 20
111.2395207324
 30
0.0
 10
152.7450252162
 20
111.4525491785
 30
0.0
 10
152.8441572496
 20
111.609426928
 30
0.0
 10
152.888605269
 20
111.6908585274
 30
0.0
 11
151.6707699212
 21
110.7073783523
 31
0.0
 11
151.911289172
 21
110.7864422366
 31
0.0
 11
152.143900093
 21
110.9040635445
 31
0.0
 11
152.3629834672
 21
111.0573949355
 31
0.0
 11
152.5632564469
 21
111.2427334371
 31
0.0
 11
152.7398877972
 21
111.4556061099
 31
0.0
 11
152.888605269
 21
111.6908585274
 31
0.0
  0
SPLINE
  5
418
100
AcDbEntity
  8
RUNDUNGEN
100
AcDbSpline
 62
7
  6
CONTINUOUS
 70
0
 71
3
 72
12
 73
8
 74
6
 42
0.0000001
 43
0.0000001
 44
0.0000000001
 12
0.1374101969
 22
-0.0610078618
 32
0.0
 13
0.1137503624
 23
0.0985039156
 33
0.0
 40
0.0
 40
0.0
 40
0.0
 40
0.0
 40
0.1290632211
 40
0.3216280635
 40
0.5425510045
 40
0.7744493516
 40
1.0
 40
1.0
 40
1.0
 40
1.0
 10
152.8466168415
 20
113.4662161009
 30
0.0
 10
152.8525283757
 20
113.4635914772
 30
0.0
 10
152.869156082
 20
113.4610592219
 30
0.0
 10
152.8961493303
 20
113.4653080194
 30
0.0
 10
152.9267481163
 20
113.4764630905
 30
0.0
 10
152.9566321555
 20
113.4929354115
 30
0.0
 10
152.9751124326
 20
113.5066848333
 30
0.0
 10
152.9836645886
 20
113.5140907073
 30
0.0
 11
152.8466168415
 21
113.4662161009
 31
0.0
 11
152.8657723505
 21
113.4623725255
 31
0.0
 11
152.8945285182
 21
113.4659336964
 31
0.0
 11
152.9258657071
 21
113.4770276398
 31
0.0
 11
152.9564822265
 21
113.4937683976
 31
0.0
 11
152.9836645886
 21
113.5140907073
 31
0.0
  0
SPLINE
  5
419
100
AcDbEntity
  8
RUNDUNGEN
100
AcDbSpline
 62
9
  6
CONTINUOUS
 70
0
 71
3
 72
13
 73
9
 74
7
 42
0.0000001
 43
0.0000001
 44
0.0000000001
 12
0.7852714027
 22
-1.1593063534
 32
0.0
 13
1.3902627937
 23
0.1667685865
 33
0.0
 40
0.0
 40
0.0
 40
0.0
 40
0.0
 40
0.1672021044
 40
0.3318463978
 40
0.495675569
 40
0.6605493996
 40
0.8281965513
 40
1.0
 40
1.0
 40
1.0
 40
1.0
 10
150.277556549
 20
111.2163176009
 30
0.0
 10
150.3213228927
 20
111.1517047802
 30
0.0
 10
150.4197228531
 20
111.0307967188
 30
0.0
 10
150.5973210841
 20
110.8804998975
 30
0.0
 10
150.7991480777
 20
110.7667766405
 30
0.0
 10
151.0200548804
 20
110.69258254
 30
0.0
 10
151.2543764906
 20
110.6596485977
 30
0.0
 10
151.4136198267
 20
110.6655624615
 30
0.0
 10
151.4932371409
 20
110.6751129342
 30
0.0
 11
150.277556549
 21
111.2163176009
 31
0.0
 11
150.4256853696
 21
111.0350149881
 31
0.0
 11
150.6018056369
 21
110.8862526194
 31
0.0
 11
150.8016574245
 21
110.7736342387
 31
0.0
 11
151.0204197868
 21
110.6998784508
 31
0.0
 11
151.2528176328
 21
110.6667694134
 31
0.0
 11
151.4932371409
 21
110.6751129342
 31
0.0
  0
SPLINE
  5
41A
100
AcDbEntity
  8
RUNDUNGEN
100
AcDbSpline
 62
9
  6
CONTINUOUS
 70
0
 71
3
 72
10
 73
6
 74
4
 42
0.0000001
 43
0.0000001
 44
0.0000000001
 12
-0.0010694126
 22
-0.7567059624
 32
0.0
 13
0.3413923579
 23
-0.6753194171
 33
0.0
 40
0.0
 40
0.0
 40
0.0
 40
0.0
 40
0.3431620754
 40
0.6765068396
 40
1.0
 40
1.0
 40
1.0
 40
1.0
 10
150.0231304155
 20
112.0990270077
 30
0.0
 10
150.0230080882
 20
112.0124694115
 30
0.0
 10
150.0348415995
 20
111.8415032616
 30
0.0
 10
150.0901919691
 20
111.594469435
 30
0.0
 10
150.1522132868
 20
111.4398512741
 30
0.0
 10
150.1890259844
 20
111.3670308699
 30
0.0
 11
150.0231304155
 21
112.0990270077
 31
0.0
 11
150.0416033545
 21
111.8400118686
 31
0.0
 11
150.0973474457
 21
111.5940042588
 31
0.0
 11
150.1890259844
 21
111.3670308699
 31
0.0
  0
SPLINE
  5
41B
100
AcDbEntity
  8
RUNDUNGEN
100
AcDbSpline
 62
9
  6
CONTINUOUS
 70
0
 71
3
 72
10
 73
6
 74
4
 42
0.0000001
 43
0.0000001
 44
0.0000000001
 12
-0.321683233
 22
-0.7490427943
 32
0.0
 13
-0.0011520729
 23
-0.8151956102
 33
0.0
 40
0.0
 40
0.0
 40
0.0
 40
0.0
 40
0.3389345824
 40
0.6729691725
 40
1.0
 40
1.0
 40
1.0
 40
1.0
 10
150.1911807409
 20
112.8917156076
 30
0.0
 10
150.1548375501
 20
112.8070901054
 30
0.0
 10
150.0933764915
 20
112.6342039076
 30
0.0
 10
150.0365517041
 20
112.3677368232
 30
0.0
 10
150.0232560033
 20
112.1878917061
 30
0.0
 10
150.0231304155
 20
112.0990270077
 30
0.0
 11
150.1911807409
 21
112.8917156076
 31
0.0
 11
150.0988187571
 21
112.6313120896
 31
0.0
 11
150.04235026
 21
112.364927649
 31
0.0
 11
150.0231304155
 21
112.0990270077
 31
0.0
  0
LINE
  5
41C
100
AcDbEntity
  8
RUNDUNGEN
100
AcDbLine
 62
9
  6
CONTINUOUS
 10
151.5328181073
 20
110.7733426595
 11
151.4878715229
 21
110.7933242499
  0
LINE
  5
41D
100
AcDbEntity
  8
RUNDUNGEN
100
AcDbLine
 62
9
  6
CONTINUOUS
 10
150.2721938386
 20
111.3345276222
 11
150.2384032896
 21
111.3495860828
  0
SPLINE
  5
41E
100
AcDbEntity
  8
RUNDUNGEN
100
AcDbSpline
 62
9
  6
CONTINUOUS
 70
0
 71
3
 72
11
 73
7
 74
5
 42
0.0000001
 43
0.0000001
 44
0.0000000001
 12
-0.1364288045
 22
-0.0247950375
 32
0.0
 13
-0.1200073049
 23
0.0694684055
 33
0.0
 40
0.0
 40
0.0
 40
0.0
 40
0.0
 40
0.2688990842
 40
0.5495609181
 40
0.8039907988
 40
1.0
 40
1.0
 40
1.0
 40
1.0
 10
152.979762172
 20
113.3985201661
 30
0.0
 10
152.9675336451
 20
113.3962977118
 30
0.0
 10
152.9421598338
 20
113.3938288841
 30
0.0
 10
152.9048992109
 20
113.3947328829
 30
0.0
 10
152.87147499
 20
113.3999022761
 30
0.0
 10
152.851408343
 20
113.4065380061
 30
0.0
 10
152.8435674977
 20
113.4110768216
 30
0.0
 11
152.979762172
 21
113.3985201661
 31
0.0
 11
152.9426801012
 21
113.394620733
 31
0.0
 11
152.9037757927
 21
113.3956377362
 31
0.0
 11
152.8689720746
 21
113.401416346
 31
0.0
 11
152.8435674977
 21
113.4110768216
 31
0.0
  0
SPLINE
  5
41F
100
AcDbEntity
  8
RUNDUNGEN
100
AcDbSpline
 62
9
  6
CONTINUOUS
 70
0
 71
3
 72
11
 73
7
 74
5
 42
0.0000001
 43
0.0000001
 44
0.0000000001
 12
-0.1364288045
 22
-0.0247950375
 32
0.0
 13
-0.1200073048
 23
0.0694684056
 33
0.0
 40
0.0
 40
0.0
 40
0.0
 40
0.0
 40
0.268899084
 40
0.5495609178
 40
0.8039907986
 40
1.0
 40
1.0
 40
1.0
 40
1.0
 10
152.9776074205
 20
111.8738389703
 30
0.0
 10
152.9653788937
 20
111.871616516
 30
0.0
 10
152.9400050823
 20
111.8691476884
 30
0.0
 10
152.9027444594
 20
111.8700516871
 30
0.0
 10
152.8693202386
 20
111.8752210803
 30
0.0
 10
152.8492535915
 20
111.8818568103
 30
0.0
 10
152.8414127462
 20
111.8863956259
 30
0.0
 11
152.9776074205
 21
111.8738389703
 31
0.0
 11
152.9405253498
 21
111.8699395373
 31
0.0
 11
152.9016210412
 21
111.8709565404
 31
0.0
 11
152.8668173232
 21
111.8767351503
 31
0.0
 11
152.8414127462
 21
111.8863956259
 31
0.0
  0
SPLINE
  5
420
100
AcDbEntity
  8
RUNDUNGEN
100
AcDbSpline
 62
7
  6
CONTINUOUS
 70
0
 71
3
 72
12
 73
8
 74
6
 42
0.0000001
 43
0.0000001
 44
0.0000000001
 12
0.1351016446
 22
-0.0782060372
 32
0.0
 13
0.1429088206
 23
-0.0628148679
 33
0.0
 40
0.0
 40
0.0
 40
0.0
 40
0.0
 40
0.1629869986
 40
0.3696840366
 40
0.5928761263
 40
0.8093060381
 40
1.0
 40
1.0
 40
1.0
 40
1.0
 10
152.8411230681
 20
111.8298828513
 30
0.0
 10
152.8484630053
 20
111.8256339955
 30
0.0
 10
152.8654162833
 20
111.8165300937
 30
0.0
 10
152.8929035599
 20
111.8025242811
 30
0.0
 10
152.9231258898
 20
111.7877661902
 30
0.0
 10
152.9528010346
 20
111.7737958136
 30
0.0
 10
152.9721031871
 20
111.7650623658
 30
0.0
 10
152.9811871369
 20
111.7610695605
 30
0.0
 11
152.8411230681
 21
111.8298828513
 31
0.0
 11
152.8634479915
 21
111.817678554
 31
0.0
 11
152.8921783711
 21
111.802992409
 31
0.0
 11
152.9234782513
 21
111.7876876994
 31
0.0
 11
152.9540507858
 21
111.7733073783
 31
0.0
 11
152.9811871369
 21
111.7610695605
 31
0.0
  0
SPLINE
  5
421
100
AcDbEntity
  8
RUNDUNGEN
100
AcDbSpline
 62
9
  6
CONTINUOUS
 70
0
 71
3
 72
11
 73
7
 74
5
 42
0.0000001
 43
0.0000001
 44
0.0000000001
 12
-0.0518021099
 22
-0.1064994211
 32
0.0
 13
-0.1092413011
 23
0.0471606649
 33
0.0
 40
0.0
 40
0.0
 40
0.0
 40
0.0
 40
0.3221702575
 40
0.6077146695
 40
0.838890078
 40
1.0
 40
1.0
 40
1.0
 40
1.0
 10
151.6755524577
 20
114.0904392352
 30
0.0
 10
151.6699894247
 20
114.0790022532
 30
0.0
 10
151.6571585111
 20
114.0584222277
 30
0.0
 10
151.6331351514
 20
114.0351585704
 30
0.0
 10
151.6082076985
 20
114.0232136846
 30
0.0
 10
151.5917060129
 20
114.0249655296
 30
0.0
 10
151.5858393937
 20
114.0274982133
 30
0.0
 11
151.6755524577
 21
114.0904392352
 31
0.0
 11
151.6551002183
 21
114.0582294084
 31
0.0
 11
151.630294
 21
114.0352460187
 31
0.0
 11
151.6049103247
 21
114.0249880788
 31
0.0
 11
151.5858393937
 21
114.0274982133
 31
0.0
  0
SPLINE
  5
422
100
AcDbEntity
  8
RUNDUNGEN
100
AcDbSpline
 62
9
  6
CONTINUOUS
 70
0
 71
3
 72
11
 73
7
 74
5
 42
0.0000001
 43
0.0000001
 44
0.0000000001
 12
-0.0518020699
 22
-0.106499339
 32
0.0
 13
-0.1092413791
 23
0.0471603056
 33
0.0
 40
0.0
 40
0.0
 40
0.0
 40
0.0
 40
0.3221705054
 40
0.6077151375
 40
0.8388907242
 40
1.0
 40
1.0
 40
1.0
 40
1.0
 10
152.891230142
 20
113.5492358629
 30
0.0
 10
152.885667109
 20
113.537798881
 30
0.0
 10
152.8728361954
 20
113.5172188554
 30
0.0
 10
152.8488128357
 20
113.4939551981
 30
0.0
 10
152.8238854112
 20
113.482010326
 30
0.0
 10
152.807383762
 20
113.4837621505
 30
0.0
 10
152.8015171622
 20
113.4862948047
 30
0.0
 11
152.891230142
 21
113.5492358629
 31
0.0
 11
152.8707779026
 21
113.5170260362
 31
0.0
 11
152.8459716844
 21
113.4940426465
 31
0.0
 11
152.8205880091
 21
113.4837847065
 31
0.0
 11
152.8015171622
 21
113.4862948047
 31
0.0
  0
SPLINE
  5
423
100
AcDbEntity
  8
RUNDUNGEN
100
AcDbSpline
 62
9
  6
CONTINUOUS
 70
0
 71
3
 72
13
 73
9
 74
7
 42
0.0000001
 43
0.0000001
 44
0.0000000001
 12
-1.5633616611
 22
-0.3807119098
 32
0.0
 13
-0.7709083725
 23
-1.4123531863
 33
0.0
 40
0.0
 40
0.0
 40
0.0
 40
0.0
 40
0.1573481313
 40
0.3193431414
 40
0.4855343147
 40
0.6551206841
 40
0.8270299521
 40
1.0
 40
1.0
 40
1.0
 40
1.0
 10
151.4980182377
 20
114.0581744581
 30
0.0
 10
151.4160208924
 20
114.0382063555
 30
0.0
 10
151.2526530878
 20
113.9840898611
 30
0.0
 10
151.0197264276
 20
113.865695435
 30
0.0
 10
150.8005291205
 20
113.7117632783
 30
0.0
 10
150.6002994055
 20
113.5260320779
 30
0.0
 10
150.4237629428
 20
113.3130036319
 30
0.0
 10
150.3246309093
 20
113.1561258824
 30
0.0
 10
150.28018289
 20
113.074694283
 30
0.0
 11
151.4980182377
 21
114.0581744581
 31
0.0
 11
151.2574989869
 21
113.9791105737
 31
0.0
 11
151.0248880659
 21
113.8614892658
 31
0.0
 11
150.8058046918
 21
113.7081578748
 31
0.0
 11
150.605531712
 21
113.5228193732
 31
0.0
 11
150.4289003617
 21
113.3099467004
 31
0.0
 11
150.28018289
 21
113.074694283
 31
0.0
  0
SPLINE
  5
424
100
AcDbEntity
  8
RUNDUNGEN
100
AcDbSpline
 62
9
  6
CONTINUOUS
 70
0
 71
3
 72
10
 73
6
 74
4
 42
0.0000001
 43
0.0000001
 44
0.0000000001
 12
0.0267579626
 22
-0.0455523834
 32
0.0
 13
-0.0401743463
 23
-0.0377321093
 33
0.0
 40
0.0
 40
0.0
 40
0.0
 40
0.0
 40
0.5518850928
 40
0.8959806884
 40
1.0
 40
1.0
 40
1.0
 40
1.0
 10
150.2801843652
 20
113.0746954743
 30
0.0
 10
150.2851068054
 20
113.0663155805
 30
0.0
 10
150.2910269747
 20
113.0526803967
 30
0.0
 10
150.2996360971
 20
113.0346036151
 30
0.0
 10
150.2947469438
 20
113.0272449488
 30
0.0
 10
150.2933539745
 20
113.0259366594
 30
0.0
 11
150.2801843652
 21
113.0746954743
 31
0.0
 11
150.2930803731
 21
113.0485464721
 31
0.0
 11
150.2965454338
 21
113.0307012013
 31
0.0
 11
150.2933539745
 21
113.0259366594
 31
0.0
  0
SPLINE
  5
425
100
AcDbEntity
  8
RUNDUNGEN
100
AcDbSpline
 62
9
  6
CONTINUOUS
 70
0
 71
3
 72
10
 73
6
 74
4
 42
0.0000001
 43
0.0000001
 44
0.0000000001
 12
0.0267579138
 22
-0.0455523003
 32
0.0
 13
-0.0401740118
 23
-0.037732445
 33
0.0
 40
0.0
 40
0.0
 40
0.0
 40
0.0
 40
0.5518860994
 40
0.8959823229
 40
1.0
 40
1.0
 40
1.0
 40
1.0
 10
151.498016801
 20
114.0581732978
 30
0.0
 10
151.5029392412
 20
114.049793404
 30
0.0
 10
151.5088594104
 20
114.0361582202
 30
0.0
 10
151.5174685172
 20
114.0180814717
 30
0.0
 10
151.5125794194
 20
114.0107228322
 30
0.0
 10
151.5111864836
 20
114.0094145518
 30
0.0
 11
151.498016801
 21
114.0581732978
 31
0.0
 11
151.5109128089
 21
114.0320242956
 31
0.0
 11
151.5143778696
 21
114.0141790248
 31
0.0
 11
151.5111864836
 21
114.0094145518
 31
0.0
  0
SPLINE
  5
426
100
AcDbEntity
  8
RUNDUNGEN
100
AcDbSpline
 62
9
  6
CONTINUOUS
 70
0
 71
3
 72
10
 73
6
 74
4
 42
0.0000001
 43
0.0000001
 44
0.0000000001
 12
0.0597391327
 22
0.0108571943
 32
0.0
 13
0.0049898604
 23
0.061351166
 33
0.0
 40
0.0
 40
0.0
 40
0.0
 40
0.0
 40
0.5061891161
 40
0.8511271923
 40
1.0
 40
1.0
 40
1.0
 40
1.0
 10
150.1890259869
 20
111.3670326443
 30
0.0
 10
150.1991057532
 20
111.3688645755
 30
0.0
 10
150.2153586564
 20
111.3735227025
 30
0.0
 10
150.2351272079
 20
111.3818179259
 30
0.0
 10
150.2393054383
 20
111.3922752443
 30
0.0
 10
150.2395530565
 20
111.3953197511
 30
0.0
 11
150.1890259869
 21
111.3670326443
 31
0.0
 11
150.2186404108
 21
111.3752548602
 31
0.0
 11
150.2362786602
 21
111.3865481012
 31
0.0
 11
150.2395530565
 21
111.3953197511
 31
0.0
  0
SPLINE
  5
427
100
AcDbEntity
  8
RUNDUNGEN
100
AcDbSpline
 62
9
  6
CONTINUOUS
 70
0
 71
3
 72
10
 73
6
 74
4
 42
0.0000001
 43
0.0000001
 44
0.0000000001
 12
0.0597393106
 22
0.0108572266
 32
0.0
 13
0.0049890594
 23
0.0613512615
 33
0.0
 40
0.0
 40
0.0
 40
0.0
 40
0.0
 40
0.5061876083
 40
0.8511246573
 40
1.0
 40
1.0
 40
1.0
 40
1.0
 10
150.1911807384
 20
112.89171384
 30
0.0
 10
150.2012605046
 20
112.8935457712
 30
0.0
 10
150.2175134079
 20
112.8982038982
 30
0.0
 10
150.2372820182
 20
112.9064991463
 30
0.0
 10
150.2414602402
 20
112.9169565662
 30
0.0
 10
150.2417078229
 20
112.9200011296
 30
0.0
 11
150.1911807384
 21
112.89171384
 31
0.0
 11
150.2207951622
 21
112.899936056
 31
0.0
 11
150.2384334116
 21
112.911229297
 31
0.0
 11
150.2417078229
 21
112.9200011296
 31
0.0
  0
SPLINE
  5
428
100
AcDbEntity
  8
RUNDUNGEN
100
AcDbSpline
 62
9
  6
CONTINUOUS
 70
0
 71
3
 72
11
 73
7
 74
5
 42
0.0000001
 43
0.0000001
 44
0.0000000001
 12
0.0556087982
 22
0.1143255521
 32
0.0
 13
-0.1100275792
 23
0.0636914603
 33
0.0
 40
0.0
 40
0.0
 40
0.0
 40
0.0
 40
0.3049694488
 40
0.583975536
 40
0.8152015762
 40
1.0
 40
1.0
 40
1.0
 40
1.0
 10
151.4932357012
 20
110.6751135752
 30
0.0
 10
151.498888696
 20
110.6867355087
 30
0.0
 10
151.5073724591
 20
110.7102447202
 30
0.0
 10
151.5113873225
 20
110.7448859388
 30
0.0
 10
151.5063269932
 20
110.7745277147
 30
0.0
 10
151.494649164
 20
110.7894008894
 30
0.0
 10
151.4878715229
 20
110.7933242499
 30
0.0
 11
151.4932357012
 21
110.6751135752
 31
0.0
 11
151.5062202937
 21
110.7116461848
 31
0.0
 11
151.5097604528
 21
110.7469398187
 31
0.0
 11
151.5033172213
 21
110.775621341
 31
0.0
 11
151.4878715229
 21
110.7933242499
 31
0.0
  0
SPLINE
  5
429
100
AcDbEntity
  8
RUNDUNGEN
100
AcDbSpline
 62
9
  6
CONTINUOUS
 70
0
 71
3
 72
11
 73
7
 74
5
 42
0.0000001
 43
0.0000001
 44
0.0000000001
 12
0.0556087982
 22
0.1143255521
 32
0.0
 13
-0.1100275792
 23
0.0636914603
 33
0.0
 40
0.0
 40
0.0
 40
0.0
 40
0.0
 40
0.3049694486
 40
0.5839755358
 40
0.815201576
 40
1.0
 40
1.0
 40
1.0
 40
1.0
 10
150.2775580169
 20
111.2163169474
 30
0.0
 10
150.2832110117
 20
111.2279388809
 30
0.0
 10
150.2916947748
 20
111.2514480925
 30
0.0
 10
150.2957096382
 20
111.286089311
 30
0.0
 10
150.2906493089
 20
111.3157310869
 30
0.0
 10
150.2789714797
 20
111.3306042617
 30
0.0
 10
150.2721938386
 20
111.3345276222
 30
0.0
 11
150.2775580169
 21
111.2163169474
 31
0.0
 11
150.2905426094
 21
111.252849557
 31
0.0
 11
150.2940827685
 21
111.2881431909
 31
0.0
 11
150.2876395371
 21
111.3168247132
 31
0.0
 11
150.2721938386
 21
111.3345276222
 31
0.0
  0
SPLINE
  5
42A
100
AcDbEntity
  8
RUNDUNGEN
100
AcDbSpline
 62
9
  6
CONTINUOUS
 70
0
 71
3
 72
11
 73
7
 74
5
 42
0.0000001
 43
0.0000001
 44
0.0000000001
 12
-0.0703912837
 22
0.1198331426
 32
0.0
 13
-0.1202794408
 23
0.0696259364
 33
0.0
 40
0.0
 40
0.0
 40
0.0
 40
0.0
 40
0.2637091845
 40
0.544327384
 40
0.8016830989
 40
1.0
 40
1.0
 40
1.0
 40
1.0
 10
152.8886037937
 20
111.6908573361
 30
0.0
 10
152.8824161844
 20
111.7013910362
 30
0.0
 10
152.8682224286
 20
111.7222984528
 30
0.0
 10
152.8446623193
 20
111.7510836777
 30
0.0
 10
152.8206615534
 20
111.7753363234
 30
0.0
 10
152.8040475943
 20
111.7886276465
 30
0.0
 10
152.7960964457
 20
111.7932303131
 30
0.0
 11
152.8886037937
 21
111.6908573361
 31
0.0
 11
152.8682401389
 21
111.7213291212
 31
0.0
 11
152.843509019
 21
111.7514846361
 31
0.0
 11
152.8181755229
 21
111.7767329771
 31
0.0
 11
152.7960964457
 21
111.7932303131
 31
0.0
  0
SPLINE
  5
42B
100
AcDbEntity
  8
RUNDUNGEN
100
AcDbSpline
 62
9
  6
CONTINUOUS
 70
0
 71
3
 72
11
 73
7
 74
5
 42
0.0000001
 43
0.0000001
 44
0.0000000001
 12
-0.0703912837
 22
0.1198331426
 32
0.0
 13
-0.1202794408
 23
0.0696259364
 33
0.0
 40
0.0
 40
0.0
 40
0.0
 40
0.0
 40
0.2637091843
 40
0.5443273836
 40
0.8016830987
 40
1.0
 40
1.0
 40
1.0
 40
1.0
 10
151.670771358
 20
110.7073795126
 30
0.0
 10
151.6645837486
 20
110.7179132127
 30
0.0
 10
151.6503899929
 20
110.7388206293
 30
0.0
 10
151.6268298835
 20
110.7676058542
 30
0.0
 10
151.6028291176
 20
110.7918584999
 30
0.0
 10
151.5862151586
 20
110.805149823
 30
0.0
 10
151.5782640099
 20
110.8097524896
 30
0.0
 11
151.670771358
 21
110.7073795126
 31
0.0
 11
151.6504077032
 21
110.7378512977
 31
0.0
 11
151.6256765833
 21
110.7680068126
 31
0.0
 11
151.6003430872
 21
110.7932551536
 31
0.0
 11
151.5782640099
 21
110.8097524896
 31
0.0
  0
SPLINE
  5
42C
100
AcDbEntity
  8
RUNDUNGEN
100
AcDbSpline
 62
7
  6
CONTINUOUS
 70
0
 71
3
 72
12
 73
8
 74
6
 42
0.0000001
 43
0.0000001
 44
0.0000000001
 12
0.1348227098
 22
-0.0780445452
 32
0.0
 13
-0.0053465876
 23
-0.1556904882
 33
0.0
 40
0.0
 40
0.0
 40
0.0
 40
0.0
 40
0.1520349583
 40
0.3446451288
 40
0.5623067662
 40
0.7864998881
 40
1.0
 40
1.0
 40
1.0
 40
1.0
 10
151.5328181073
 20
110.7733426595
 30
0.0
 10
151.5396506957
 20
110.7693874931
 30
0.0
 10
151.5520622839
 20
110.7555950575
 30
0.0
 10
151.565226283
 20
110.7294787558
 30
0.0
 10
151.5749678997
 20
110.6978307348
 30
0.0
 10
151.5804935386
 20
110.6641758415
 30
0.0
 10
151.581349663
 20
110.6413836938
 30
0.0
 10
151.580969164
 20
110.6303037149
 30
0.0
 11
151.5328181073
 21
110.7733426595
 31
0.0
 11
151.5497558758
 21
110.7567878885
 31
0.0
 11
151.5639112917
 21
110.7303315254
 31
0.0
 11
151.5741253652
 21
110.6979986759
 31
0.0
 11
151.5798400787
 21
110.6635440755
 31
0.0
 11
151.580969164
 21
110.6303037149
 31
0.0
  0
SPLINE
  5
42D
100
AcDbEntity
  8
RUNDUNGEN
100
AcDbSpline
 62
9
  6
CONTINUOUS
 70
0
 71
3
 72
13
 73
9
 74
7
 42
0.0000001
 43
0.0000001
 44
0.0000000001
 12
-0.7852714027
 22
1.1593063534
 32
0.0
 13
-1.3902627937
 23
-0.1667685865
 33
0.0
 40
0.0
 40
0.0
 40
0.0
 40
0.0
 40
0.1672021044
 40
0.3318463978
 40
0.495675569
 40
0.6605493996
 40
0.8281965513
 40
1.0
 40
1.0
 40
1.0
 40
1.0
 10
152.8912316099
 20
113.5492352095
 30
0.0
 10
152.8474652662
 20
113.6138480301
 30
0.0
 10
152.7490653058
 20
113.7347560915
 30
0.0
 10
152.5714670748
 20
113.8850529129
 30
0.0
 10
152.3696400812
 20
113.9987761698
 30
0.0
 10
152.1487332785
 20
114.0729702704
 30
0.0
 10
151.9144116683
 20
114.1059042127
 30
0.0
 10
151.7551683322
 20
114.0999903489
 30
0.0
 10
151.675551018
 20
114.0904398761
 30
0.0
 11
152.8912316099
 21
113.5492352095
 31
0.0
 11
152.7431027893
 21
113.7305378222
 31
0.0
 11
152.5669825221
 21
113.879300191
 31
0.0
 11
152.3671307344
 21
113.9919185717
 31
0.0
 11
152.1483683722
 21
114.0656743595
 31
0.0
 11
151.9159705262
 21
114.0987833969
 31
0.0
 11
151.675551018
 21
114.0904398761
 31
0.0
  0
SPLINE
  5
42E
100
AcDbEntity
  8
RUNDUNGEN
100
AcDbSpline
 62
9
  6
CONTINUOUS
 70
0
 71
3
 72
43
 73
39
 74
37
 42
0.0000001
 43
0.0000001
 44
0.0000000001
 12
-4.5920718706
 22
10.3022500962
 32
0.0
 13
-0.0159358032
 23
-11.2760193761
 33
0.0
 40
0.0
 40
0.0
 40
0.0
 40
0.0
 40
0.0255768275
 40
0.0519157743
 40
0.0779912194
 40
0.1038306185
 40
0.1294448878
 40
0.1549087963
 40
0.1803004514
 40
0.2056851996
 40
0.2311307847
 40
0.2567068
 40
0.2824788136
 40
0.3085059808
 40
0.3348393073
 40
0.3615204003
 40
0.388580806
 40
0.4160419428
 40
0.4439161214
 40
0.472205746
 40
0.5009027435
 40
0.5299897675
 40
0.5594406401
 40
0.5892242339
 40
0.6193060978
 40
0.6496409535
 40
0.6801735401
 40
0.7108591361
 40
0.7416551685
 40
0.7724649376
 40
0.8031985076
 40
0.8339688717
 40
0.8647646438
 40
0.8948669694
 40
0.9235959405
 40
0.9507543159
 40
0.9762491418
 40
1.0
 40
1.0
 40
1.0
 40
1.0
 10
154.0594332274
 20
115.4486548299
 30
0.0
 10
154.0202830174
 20
115.5364877877
 30
0.0
 10
153.9338002383
 20
115.7116502215
 30
0.0
 10
153.7824803245
 20
115.9631400197
 30
0.0
 10
153.6092683305
 20
116.2013310884
 30
0.0
 10
153.4173156875
 20
116.42110868
 30
0.0
 10
153.2078737496
 20
116.6209864905
 30
0.0
 10
152.9822601257
 20
116.7997256825
 30
0.0
 10
152.7417685827
 20
116.9563120356
 30
0.0
 10
152.4878187492
 20
117.0898241496
 30
0.0
 10
152.2219427646
 20
117.1994693392
 30
0.0
 10
151.9457219411
 20
117.2846143905
 30
0.0
 10
151.6607813841
 20
117.3447764756
 30
0.0
 10
151.3687953902
 20
117.3796179581
 30
0.0
 10
151.0714807725
 20
117.3889483797
 30
0.0
 10
150.7705875123
 20
117.3727268236
 30
0.0
 10
150.4678869315
 20
117.3310632278
 30
0.0
 10
150.1651552894
 20
117.2642169107
 30
0.0
 10
149.8641620499
 20
117.1725925136
 30
0.0
 10
149.5666635832
 20
117.056736619
 30
0.0
 10
149.2743981728
 20
116.9173366511
 30
0.0
 10
148.9890778017
 20
116.755219473
 30
0.0
 10
148.7123668062
 20
116.5713412317
 30
0.0
 10
148.4458632444
 20
116.3667714725
 30
0.0
 10
148.1911076943
 20
116.1426929068
 30
0.0
 10
147.9495958319
 20
115.9004166778
 30
0.0
 10
147.7227352225
 20
115.6413520435
 30
0.0
 10
147.5118189574
 20
115.3669633546
 30
0.0
 10
147.3181335002
 20
115.0788977132
 30
0.0
 10
147.1429250876
 20
114.7790271997
 30
0.0
 10
146.9870088228
 20
114.4687962558
 30
0.0
 10
146.8510683568
 20
114.1493596577
 30
0.0
 10
146.7366613099
 20
113.8241013904
 30
0.0
 10
146.6455262281
 20
113.4995410639
 30
0.0
 10
146.5780719123
 20
113.1832334195
 30
0.0
 10
146.532903722
 20
112.8805026142
 30
0.0
 10
146.507635949
 20
112.5942779655
 30
0.0
 10
146.5020470556
 20
112.40914742
 30
0.0
 10
146.5019208926
 20
112.3198757078
 30
0.0
 11
154.0594332274
 21
115.4486548299
 31
0.0
 11
153.9316123133
 21
115.7071965354
 31
0.0
 11
153.7783524604
 21
115.9615971797
 31
0.0
 11
153.6053090192
 21
116.1993116056
 31
0.0
 11
153.4135523649
 21
116.4186821772
 31
0.0
 11
153.2045431371
 21
116.6180219468
 31
0.0
 11
152.9794455981
 21
116.7962795555
 31
0.0
 11
152.7394951974
 21
116.9524886338
 31
0.0
 11
152.4861445908
 21
117.0857040559
 31
0.0
 11
152.2209098214
 21
117.1951416446
 31
0.0
 11
151.9453357147
 21
117.2801776693
 31
0.0
 11
151.6610224498
 21
117.3403260175
 31
0.0
 11
151.3696234062
 21
117.375239441
 31
0.0
 11
151.0728391874
 21
117.3847134666
 31
0.0
 11
150.7724093347
 21
117.368690637
 31
0.0
 11
150.4701006351
 21
117.3272637568
 31
0.0
 11
150.1676921615
 21
117.2606765213
 31
0.0
 11
149.866952247
 21
117.1693182274
 31
0.0
 11
149.5696392764
 21
117.0537215181
 31
0.0
 11
149.2775013162
 21
116.9145642333
 31
0.0
 11
148.992258278
 21
116.7526650696
 31
0.0
 11
148.715593631
 21
116.5689812691
 31
0.0
 11
148.4491164226
 21
116.3645824338
 31
0.0
 11
148.1943516323
 21
116.1406309465
 31
0.0
 11
147.952804993
 21
115.898436707
 31
0.0
 11
147.725942242
 21
115.6394648849
 31
0.0
 11
147.5150368916
 21
115.365160229
 31
0.0
 11
147.3212595589
 21
115.0769974753
 31
0.0
 11
147.1459957373
 21
114.7770347753
 31
0.0
 11
146.9903907733
 21
114.467380367
 31
0.0
 11
146.8545623764
 21
114.1481044048
 31
0.0
 11
146.739396802
 21
113.8205036122
 31
0.0
 11
146.647708983
 21
113.4936867048
 31
0.0
 11
146.5802281747
 21
113.1768442548
 31
0.0
 11
146.5351224849
 21
112.8739455891
 31
0.0
 11
146.5099262823
 21
112.5875714389
 31
0.0
 11
146.5019208926
 21
112.3198757078
 31
0.0
  0
SPLINE
  5
42F
100
AcDbEntity
  8
RUNDUNGEN
100
AcDbSpline
 62
7
  6
CONTINUOUS
 70
0
 71
3
 72
12
 73
8
 74
6
 42
0.0000001
 43
0.0000001
 44
0.0000000001
 12
-0.1302332516
 22
0.0753878803
 32
0.0
 13
0.0002126643
 23
0.1504791915
 33
0.0
 40
0.0
 40
0.0
 40
0.0
 40
0.0
 40
0.1515267524
 40
0.3426514366
 40
0.559056231
 40
0.7835085633
 40
1.0
 40
1.0
 40
1.0
 40
1.0
 10
150.7482036751
 20
111.2275309576
 30
0.0
 10
150.7416257345
 20
111.2313387178
 30
0.0
 10
150.7295957685
 20
111.2444404292
 30
0.0
 10
150.7166104923
 20
111.2693527719
 30
0.0
 10
150.706742476
 20
111.2996374427
 30
0.0
 10
150.7007197198
 20
111.3321232804
 30
0.0
 10
150.6992911457
 20
111.354262789
 30
0.0
 10
150.6993064924
 20
111.3651219411
 30
0.0
 11
150.7482036751
 21
111.2275309576
 31
0.0
 11
150.731782134
 21
111.2433501879
 31
0.0
 11
150.7178800399
 21
111.2685273124
 31
0.0
 11
150.7075535332
 21
111.299411074
 31
0.0
 11
150.7013234268
 21
111.3326069482
 31
0.0
 11
150.6993064924
 21
111.3651219411
 31
0.0
  0
SPLINE
  5
430
100
AcDbEntity
  8
RUNDUNGEN
100
AcDbSpline
 62
7
  6
CONTINUOUS
 70
0
 71
3
 72
12
 73
8
 74
6
 42
0.0000001
 43
0.0000001
 44
0.0000000001
 12
-0.1313992458
 22
0.0760628372
 32
0.0
 13
-0.1387026731
 23
0.0617485666
 33
0.0
 40
0.0
 40
0.0
 40
0.0
 40
0.0
 40
0.1611471826
 40
0.3652349608
 40
0.5868620266
 40
0.8043407455
 40
1.0
 40
1.0
 40
1.0
 40
1.0
 10
152.0565086359
 20
112.2840711494
 30
0.0
 10
152.0494504298
 20
112.2881569201
 30
0.0
 10
152.0331688611
 20
112.296920234
 30
0.0
 10
152.0067219034
 20
112.3104352931
 30
0.0
 10
151.9774932995
 20
112.3247669244
 30
0.0
 10
151.9484586758
 20
112.3385158748
 30
0.0
 10
151.9294372763
 20
112.3471988939
 30
0.0
 10
151.9203911225
 20
112.3512261201
 30
0.0
 11
152.0565086359
 21
112.2840711494
 31
0.0
 11
152.0350484774
 21
112.2958213729
 31
0.0
 11
152.0074753383
 21
112.3099582515
 31
0.0
 11
151.9772714738
 21
112.3247897714
 31
0.0
 11
151.9474262315
 21
112.3389149083
 31
0.0
 11
151.9203911225
 21
112.3512261201
 31
0.0
  0
SPLINE
  5
431
100
AcDbEntity
  8
RUNDUNGEN
100
AcDbSpline
 62
9
  6
CONTINUOUS
 70
0
 71
3
 72
10
 73
6
 74
4
 42
0.0000001
 43
0.0000001
 44
0.0000000001
 12
0.0010694126
 22
0.7567059624
 32
0.0
 13
-0.3413923579
 23
0.6753194171
 33
0.0
 40
0.0
 40
0.0
 40
0.0
 40
0.0
 40
0.3431620754
 40
0.6765068396
 40
1.0
 40
1.0
 40
1.0
 40
1.0
 10
153.1456577434
 20
112.6665258026
 30
0.0
 10
153.1457800707
 20
112.7530833988
 30
0.0
 10
153.1339465594
 20
112.9240495488
 30
0.0
 10
153.0785961899
 20
113.1710833754
 30
0.0
 10
153.0165748721
 20
113.3257015363
 30
0.0
 10
152.9797621745
 20
113.3985219405
 30
0.0
 11
153.1456577434
 21
112.6665258026
 31
0.0
 11
153.1271848044
 21
112.9255409418
 31
0.0
 11
153.0714407132
 21
113.1715485516
 31
0.0
 11
152.9797621745
 21
113.3985219405
 31
0.0
  0
SPLINE
  5
432
100
AcDbEntity
  8
RUNDUNGEN
100
AcDbSpline
 62
9
  6
CONTINUOUS
 70
0
 71
3
 72
10
 73
6
 74
4
 42
0.0000001
 43
0.0000001
 44
0.0000000001
 12
0.321683233
 22
0.7490427943
 32
0.0
 13
0.0011520729
 23
0.8151956102
 33
0.0
 40
0.0
 40
0.0
 40
0.0
 40
0.0
 40
0.3389345824
 40
0.6729691725
 40
1.0
 40
1.0
 40
1.0
 40
1.0
 10
152.977607418
 20
111.8738372027
 30
0.0
 10
153.0139506088
 20
111.958462705
 30
0.0
 10
153.0754116674
 20
112.1313489027
 30
0.0
 10
153.1322364549
 20
112.3978159872
 30
0.0
 10
153.1455321556
 20
112.5776611043
 30
0.0
 10
153.1456577434
 20
112.6665258026
 30
0.0
 11
152.977607418
 21
111.8738372027
 31
0.0
 11
153.0699694018
 21
112.1342407208
 31
0.0
 11
153.1264378989
 21
112.4006251614
 31
0.0
 11
153.1456577434
 21
112.6665258026
 31
0.0
  0
SPLINE
  5
433
100
AcDbEntity
  8
RUNDUNGEN
100
AcDbSpline
 62
7
  6
CONTINUOUS
 70
0
 71
3
 72
20
 73
16
 74
14
 42
0.0000001
 43
0.0000001
 44
0.0000000001
 12
-6.6179733526
 22
-3.0672106897
 32
0.0
 13
0.0103084974
 23
7.2941925482
 33
0.0
 40
0.0
 40
0.0
 40
0.0
 40
0.0
 40
0.0813755303
 40
0.1605516933
 40
0.2376242073
 40
0.3128652843
 40
0.3867650611
 40
0.4598648243
 40
0.5328835373
 40
0.6064813664
 40
0.6813286174
 40
0.7578584528
 40
0.8364405544
 40
0.9171785857
 40
1.0
 40
1.0
 40
1.0
 40
1.0
 10
173.3836400953
 20
224.617394893
 30
0.0
 10
173.2041263984
 20
224.5341962609
 30
0.0
 10
172.8384448704
 20
224.3934482093
 30
0.0
 10
172.2733767393
 20
224.2639226536
 30
0.0
 10
171.7099318225
 20
224.2210993628
 30
0.0
 10
171.1593786357
 20
224.265751556
 30
0.0
 10
170.6326215819
 20
224.3968580616
 30
0.0
 10
170.1399666419
 20
224.6117726784
 30
0.0
 10
169.691170078
 20
224.9062309796
 30
0.0
 10
169.2950117032
 20
225.274617487
 30
0.0
 10
168.9595601746
 20
225.7097331496
 30
0.0
 10
168.691650536
 20
226.2030653582
 30
0.0
 10
168.4968693079
 20
226.7446820583
 30
0.0
 10
168.379213973
 20
227.323458877
 30
0.0
 10
168.3540236147
 20
227.7217411663
 30
0.0
 10
168.3543082028
 20
227.9231129472
 30
0.0
 11
173.3836400953
 21
224.617394893
 31
0.0
 11
172.829297154
 21
224.4051956496
 31
0.0
 11
172.2661273229
 21
224.2772234105
 31
0.0
 11
171.705482567
 21
224.2356732298
 31
0.0
 11
171.158527169
 21
224.2809167208
 31
0.0
 11
170.6355942288
 21
224.4117027301
 31
0.0
 11
170.1469725274
 21
224.6251403982
 31
0.0
 11
169.7015824871
 21
224.9172095846
 31
0.0
 11
169.3081115619
 21
225.2824148527
 31
0.0
 11
168.9741346427
 21
225.7142964337
 31
0.0
 11
168.706847787
 21
226.2043695642
 31
0.0
 11
168.5118270127
 21
226.7433665457
 31
0.0
 11
168.3934533461
 21
227.320266587
 31
0.0
 11
168.3543082028
 21
227.9231129472
 31
0.0
  0
SPLINE
  5
434
100
AcDbEntity
  8
RUNDUNGEN
100
AcDbSpline
 62
7
  6
CONTINUOUS
 70
0
 71
3
 72
29
 73
25
 74
23
 42
0.0000001
 43
0.0000001
 44
0.0000000001
 12
0.0179811423
 22
12.7232814893
 32
0.0
 13
1.1096777757
 23
-12.6748110411
 33
0.0
 40
0.0
 40
0.0
 40
0.0
 40
0.0
 40
0.0476261077
 40
0.0961193942
 40
0.1452752745
 40
0.1948560753
 40
0.2445387273
 40
0.2940116889
 40
0.3430020839
 40
0.3912823239
 40
0.4385694785
 40
0.4847812932
 40
0.5298415683
 40
0.5736517175
 40
0.6164396411
 40
0.6583665017
 40
0.6996708654
 40
0.7407452019
 40
0.781963819
 40
0.8236538059
 40
0.8660770925
 40
0.9095456947
 40
0.9541678898
 40
1.0
 40
1.0
 40
1.0
 40
1.0
 10
168.3543082028
 20
227.9231129472
 30
0.0
 10
168.3545936601
 20
228.1250997388
 30
0.0
 10
168.381641028
 20
228.5331312084
 30
0.0
 10
168.4977591897
 20
229.1396586501
 30
0.0
 10
168.6875083712
 20
229.736077385
 30
0.0
 10
168.9472493917
 20
230.3109833915
 30
0.0
 10
169.2719856688
 20
230.853406828
 30
0.0
 10
169.6554257064
 20
231.3529133272
 30
0.0
 10
170.0903383788
 20
231.8001047825
 30
0.0
 10
170.5684053816
 20
232.1863517012
 30
0.0
 10
171.0806411346
 20
232.504330411
 30
0.0
 10
171.6173172321
 20
232.7479159863
 30
0.0
 10
172.1680748875
 20
232.9122830091
 30
0.0
 10
172.7224170581
 20
232.9943092677
 30
0.0
 10
173.2696529854
 20
232.9924556161
 30
0.0
 10
173.7995012541
 20
232.9067142178
 30
0.0
 10
174.3017248175
 20
232.7387660254
 30
0.0
 10
174.7668149502
 20
232.4917792996
 30
0.0
 10
175.1859254488
 20
232.1702633318
 30
0.0
 10
175.5506905197
 20
231.7804203267
 30
0.0
 10
175.8540536527
 20
231.3297015942
 30
0.0
 10
176.090095767
 20
230.8267040925
 30
0.0
 10
176.2542290397
 20
230.2810166592
 30
0.0
 10
176.3128080394
 20
229.9004834312
 30
0.0
 10
176.3297609974
 20
229.7068456523
 30
0.0
 11
168.3543082028
 21
227.9231129472
 31
0.0
 11
168.3936186204
 21
228.5277974933
 31
0.0
 11
168.5090177068
 21
229.1339039847
 31
0.0
 11
168.6982486175
 21
229.7300145034
 31
0.0
 11
168.9578006173
 21
230.3049759419
 31
0.0
 11
169.2825244341
 21
230.8473217586
 31
0.0
 11
169.6660088211
 21
231.3464794621
 31
0.0
 11
170.1009147005
 21
231.7930034954
 31
0.0
 11
170.5791486671
 21
232.1785378445
 31
0.0
 11
171.0907526259
 21
232.4951482711
 31
0.0
 11
171.6265491571
 21
232.7372777789
 31
0.0
 11
172.1762164379
 21
232.9002382813
 31
0.0
 11
172.7277707567
 21
232.9808180074
 31
0.0
 11
173.2721670632
 21
232.9780508291
 31
0.0
 11
173.7986490862
 21
232.8921251888
 31
0.0
 11
174.2969116042
 21
232.7250512783
 31
0.0
 11
174.7584291387
 21
232.47987128
 31
0.0
 11
175.1747008278
 21
232.1608859827
 31
0.0
 11
175.5375510453
 21
231.7739752518
 31
0.0
 11
175.839640645
 21
231.3266643948
 31
0.0
 11
176.0755047723
 21
230.8264167603
 31
0.0
 11
176.2400234984
 21
230.2830349516
 31
0.0
 11
176.3297609974
 21
229.7068456523
 31
0.0
  0
SPLINE
  5
435
100
AcDbEntity
  8
BEZUGSACHSEN
100
AcDbSpline
 62
7
  6
CONTINUOUS
 70
0
 71
3
 72
21
 73
17
 74
15
 42
0.0000001
 43
0.0000001
 44
0.0000000001
 12
-4.2738780867
 22
2.4738301212
 32
0.0
 13
-0.006968531
 23
-4.9308647507
 33
0.0
 40
0.0
 40
0.0
 40
0.0
 40
0.0
 40
0.0566277593
 40
0.1209095775
 40
0.1864804893
 40
0.2538259117
 40
0.3232279918
 40
0.3947524133
 40
0.4682603106
 40
0.5434367301
 40
0.6198285358
 40
0.6968870893
 40
0.7740130706
 40
0.8506020994
 40
0.926090423
 40
1.0
 40
1.0
 40
1.0
 40
1.0
 10
170.426330231
 20
232.5287094023
 30
0.0
 10
170.3456568512
 20
232.5754052212
 30
0.0
 10
170.1649072659
 20
232.6604440063
 30
0.0
 10
169.866995959
 20
232.7397951329
 30
0.0
 10
169.5420821936
 20
232.7646925319
 30
0.0
 10
169.2095635479
 20
232.73181621
 30
0.0
 10
168.8776486803
 20
232.6422746554
 30
0.0
 10
168.5543990223
 20
232.4985060893
 30
0.0
 10
168.2475975597
 20
232.3041864623
 30
0.0
 10
167.9646099177
 20
232.0641448807
 30
0.0
 10
167.7122334354
 20
231.7842659083
 30
0.0
 10
167.4965438672
 20
231.47136154
 30
0.0
 10
167.3227516056
 20
231.1330307712
 30
0.0
 10
167.1950778711
 20
230.777436797
 30
0.0
 10
167.1166555777
 20
230.4132837136
 30
0.0
 10
167.0983069676
 20
230.1674449167
 30
0.0
 10
167.0981352872
 20
230.0459655408
 30
0.0
 11
170.426330231
 21
232.5287094023
 31
0.0
 11
170.1736274971
 21
232.6476928873
 31
0.0
 11
169.8674609332
 21
232.729723469
 31
0.0
 11
169.5451389167
 21
232.7551279582
 31
0.0
 11
169.2145980856
 21
232.7232808119
 31
0.0
 11
168.883977452
 21
232.6349662125
 31
0.0
 11
168.5614179932
 21
232.4923587588
 31
0.0
 11
168.2548621935
 21
232.2989699193
 31
0.0
 11
167.9718584743
 21
232.0595615693
 31
0.0
 11
167.7193753262
 21
231.7800287367
 31
0.0
 11
167.5036297223
 21
231.4672544477
 31
0.0
 11
167.3299340355
 21
231.1289402434
 31
0.0
 11
167.2025652299
 21
230.7734165421
 31
0.0
 11
167.1246595483
 21
230.4094375174
 31
0.0
 11
167.0981352872
 21
230.0459655408
 31
0.0
  0
SPLINE
  5
436
100
AcDbEntity
  8
BEZUGSACHSEN
100
AcDbSpline
 62
7
  6
CONTINUOUS
 70
0
 71
3
 72
14
 73
10
 74
8
 42
0.0000001
 43
0.0000001
 44
0.0000000001
 12
-1.7557527582
 22
1.0162746739
 32
0.0
 13
0.0028627437
 23
2.0256495883
 33
0.0
 40
0.0
 40
0.0
 40
0.0
 40
0.0
 40
0.0170609732
 40
0.1721647474
 40
0.3292106774
 40
0.4896942127
 40
0.6546940797
 40
0.8247808342
 40
1.0
 40
1.0
 40
1.0
 40
1.0
 10
167.9963840787
 20
228.3313500171
 30
0.0
 10
167.9863991284
 20
228.3371295621
 30
0.0
 10
167.8862548569
 20
228.3965134981
 30
0.0
 10
167.7070981801
 20
228.5303689304
 30
0.0
 10
167.490591821
 20
228.7673233756
 30
0.0
 10
167.3170966573
 20
229.0451226143
 30
0.0
 10
167.1907115897
 20
229.3566667907
 30
0.0
 10
167.1142909131
 20
229.6940595413
 30
0.0
 10
167.0979680847
 20
229.9276546637
 30
0.0
 10
167.0981352872
 20
230.0459655408
 30
0.0
 11
167.9963840787
 21
228.3313500171
 31
0.0
 11
167.9666145381
 21
228.3490033413
 31
0.0
 11
167.7147919579
 21
228.5368819261
 31
0.0
 11
167.4998197797
 21
228.7713760924
 31
0.0
 11
167.3269913319
 21
229.0467118156
 31
0.0
 11
167.2005622245
 21
229.3561094162
 31
0.0
 11
167.1236455618
 21
229.6919504986
 31
0.0
 11
167.0981352872
 21
230.0459655408
 31
0.0
  0
SPLINE
  5
437
100
AcDbEntity
  8
RUNDUNGEN
100
AcDbSpline
 62
9
  6
CONTINUOUS
 70
0
 71
3
 72
26
 73
22
 74
20
 42
0.0000001
 43
0.0000001
 44
0.0000000001
 12
0.0089727256
 22
6.3490134029
 32
0.0
 13
-0.0089727256
 23
-6.3490134029
 33
0.0
 40
0.0
 40
0.0
 40
0.0
 40
0.0
 40
0.0536701703
 40
0.1056744715
 40
0.1560547901
 40
0.2050194548
 40
0.2529709755
 40
0.3004384473
 40
0.348023822
 40
0.3963137375
 40
0.4457931972
 40
0.4967924684
 40
0.5494535123
 40
0.6037365797
 40
0.6594341682
 40
0.7162091202
 40
0.7736270003
 40
0.8311942729
 40
0.8884180054
 40
0.9448160843
 40
1.0
 40
1.0
 40
1.0
 40
1.0
 10
175.4109957584
 20
228.3083939999
 30
0.0
 10
175.411156281
 20
228.4219782101
 30
0.0
 10
175.3946699368
 20
228.6460902646
 30
0.0
 10
175.3174362411
 20
228.9687112237
 30
0.0
 10
175.1898829222
 20
229.2643876617
 30
0.0
 10
175.0151772112
 20
229.5247940178
 30
0.0
 10
174.7979214653
 20
229.7424823609
 30
0.0
 10
174.5441162109
 20
229.9110775066
 30
0.0
 10
174.2610334196
 20
230.0256738378
 30
0.0
 10
173.9568484089
 20
230.0831174456
 30
0.0
 10
173.6402101932
 20
230.0820773881
 30
0.0
 10
173.3198979434
 20
230.022935505
 30
0.0
 10
173.0045838575
 20
229.9076269501
 30
0.0
 10
172.7026893023
 20
229.7395110709
 30
0.0
 10
172.42222326
 20
229.5232641654
 30
0.0
 10
172.1706249627
 20
229.2647790853
 30
0.0
 10
171.9545876795
 20
228.9710329816
 30
0.0
 10
171.7798684033
 20
228.6499180679
 30
0.0
 10
171.6511624811
 20
228.3100146959
 30
0.0
 10
171.5719455423
 20
227.9605023853
 30
0.0
 10
171.5533767795
 20
227.7240549445
 30
0.0
 10
171.5532117295
 20
227.6072671378
 30
0.0
 11
175.4109957584
 21
228.3083939999
 31
0.0
 11
175.3851721772
 21
228.6481670563
 31
0.0
 11
175.3074439174
 21
228.969063815
 31
0.0
 11
175.1799186459
 21
229.2624088868
 31
0.0
 11
175.0060931952
 21
229.5201483076
 31
0.0
 11
174.7906844979
 21
229.73528999
 31
0.0
 11
174.5395832176
 21
229.9019428586
 31
0.0
 11
174.2596416325
 21
230.0155628196
 31
0.0
 11
173.9584866302
 21
230.0730547028
 31
0.0
 11
173.6443406313
 21
230.0728485009
 31
0.0
 11
173.3257638953
 21
230.0149493542
 31
0.0
 11
173.0114570567
 21
229.900938548
 31
0.0
 11
172.7099847276
 21
229.7339232641
 31
0.0
 11
172.4295779997
 21
229.5184638224
 31
0.0
 11
172.1778763738
 21
229.2604298759
 31
0.0
 11
171.9617487385
 21
228.9668595338
 31
0.0
 11
171.7871051795
 21
228.6457882479
 31
0.0
 11
171.6586849313
 21
228.305926888
 31
0.0
 11
171.5800091992
 21
227.9566046065
 31
0.0
 11
171.5532117295
 21
227.6072671378
 31
0.0
  0
SPLINE
  5
438
100
AcDbEntity
  8
RUNDUNGEN
100
AcDbSpline
 62
7
  6
CONTINUOUS
 70
0
 71
3
 72
11
 73
7
 74
5
 42
0.0000001
 43
0.0000001
 44
0.0000000001
 12
-0.0014952064
 22
-0.1007342197
 32
0.0
 13
-0.0794412718
 23
-0.059874925
 33
0.0
 40
0.0
 40
0.0
 40
0.0
 40
0.0
 40
0.1096815418
 40
0.3649135551
 40
0.6686076839
 40
1.0
 40
1.0
 40
1.0
 40
1.0
 10
172.1831771989
 20
226.8801514938
 30
0.0
 10
172.1831225334
 20
226.8764685989
 30
0.0
 10
172.1809212333
 20
226.8640729786
 30
0.0
 10
172.1706125601
 20
226.8443023873
 30
0.0
 10
172.1515051056
 20
226.8215233879
 30
0.0
 10
172.1354995255
 20
226.8077232637
 30
0.0
 10
172.1267241165
 20
226.8011092337
 30
0.0
 11
172.1831771989
 21
226.8801514938
 31
0.0
 11
172.1814898324
 21
226.8691621477
 31
0.0
 11
172.170655408
 21
226.8461998072
 31
0.0
 11
172.1515562855
 21
226.8227919953
 31
0.0
 11
172.1267241165
 21
226.8011092337
 31
0.0
  0
LINE
  5
439
100
AcDbEntity
  8
RUNDUNGEN
100
AcDbLine
 62
9
  6
CONTINUOUS
 10
172.2210521361
 20
226.7648676504
 11
172.1267240693
 21
226.801109268
  0
LINE
  5
43A
100
AcDbEntity
  8
RUNDUNGEN
100
AcDbLine
 62
9
  6
CONTINUOUS
 10
173.5244645846
 20
226.1788539694
 11
173.4367324102
 21
226.2236631275
  0
SPLINE
  5
43B
100
AcDbEntity
  8
RUNDUNGEN
100
AcDbSpline
 62
7
  6
CONTINUOUS
 70
0
 71
3
 72
11
 73
7
 74
5
 42
0.0000001
 43
0.0000001
 44
0.0000000001
 12
0.0715371433
 22
0.0593714979
 32
0.0
 13
-0.0027377294
 23
0.0903350589
 33
0.0
 40
0.0
 40
0.0
 40
0.0
 40
0.0
 40
0.0794568969
 40
0.3328994615
 40
0.6469959131
 40
1.0
 40
1.0
 40
1.0
 40
1.0
 10
173.5069414016
 20
229.5994493589
 30
0.0
 10
173.5088361081
 20
229.6010218505
 30
0.0
 10
173.5160767483
 20
229.6086662225
 30
0.0
 10
173.5238219772
 20
229.6267071865
 30
0.0
 10
173.5291472611
 20
229.6541071829
 30
0.0
 10
173.5297416849
 20
229.6742666773
 30
0.0
 10
173.5294195417
 20
229.6848962256
 30
0.0
 11
173.5069414016
 21
229.5994493589
 31
0.0
 11
173.5121070591
 21
229.6047643187
 31
0.0
 11
173.5223957501
 21
229.6252287709
 31
0.0
 11
173.5281984335
 21
229.6530163172
 31
0.0
 11
173.5294195417
 21
229.6848962256
 31
0.0
  0
SPLINE
  5
43C
100
AcDbEntity
  8
RUNDUNGEN
100
AcDbSpline
 62
9
  6
CONTINUOUS
 70
0
 71
3
 72
26
 73
22
 74
20
 42
0.0000001
 43
0.0000001
 44
0.0000000001
 12
-0.0089727256
 22
-6.3490134005
 32
0.0
 13
0.0089727256
 23
6.3490134005
 33
0.0
 40
0.0
 40
0.0
 40
0.0
 40
0.0
 40
0.0536701353
 40
0.1056745152
 40
0.1560547922
 40
0.2050194689
 40
0.2529709826
 40
0.3004384536
 40
0.3480238262
 40
0.3963137405
 40
0.4457931993
 40
0.49679247
 40
0.5494535137
 40
0.6037365812
 40
0.65943417
 40
0.7162091221
 40
0.7736270026
 40
0.8311942754
 40
0.8884180026
 40
0.9448161045
 40
1.0
 40
1.0
 40
1.0
 40
1.0
 10
171.5532117295
 20
227.6072671378
 30
0.0
 10
171.553051207
 20
227.4936830017
 30
0.0
 10
171.5695368744
 20
227.2695707622
 30
0.0
 10
171.6467717408
 20
226.9469500681
 30
0.0
 10
171.7743244894
 20
226.651273328
 30
0.0
 10
171.9490303726
 20
226.3908671288
 30
0.0
 10
172.1662860534
 20
226.1731787409
 30
0.0
 10
172.4200913089
 20
226.0045836169
 30
0.0
 10
172.7031740876
 20
225.8899872882
 30
0.0
 10
173.0073590913
 20
225.8325436859
 30
0.0
 10
173.3239973008
 20
225.8335837469
 30
0.0
 10
173.6443095466
 20
225.8927256325
 30
0.0
 10
173.9596236312
 20
226.0080341879
 30
0.0
 10
174.2615181847
 20
226.1761500679
 30
0.0
 10
174.5419842377
 20
226.3923969663
 30
0.0
 10
174.7935825118
 20
226.6508820593
 30
0.0
 10
175.0096198935
 20
226.9446281152
 30
0.0
 10
175.1843389175
 20
227.265743117
 30
0.0
 10
175.3130454745
 20
227.6056463316
 30
0.0
 10
175.3922613538
 20
227.9551588675
 30
0.0
 10
175.4108307084
 20
228.1916062359
 30
0.0
 10
175.4109957584
 20
228.3083939999
 30
0.0
 11
171.5532117295
 21
227.6072671378
 31
0.0
 11
171.5790349703
 21
227.2674942784
 31
0.0
 11
171.6567638559
 21
226.9465971575
 31
0.0
 11
171.7842888436
 21
226.65325225
 31
0.0
 11
171.9581143677
 21
226.3955127867
 31
0.0
 11
172.173523025
 21
226.1803711275
 31
0.0
 11
172.4246243005
 21
226.0137182615
 31
0.0
 11
172.704565874
 21
225.9000983074
 31
0.0
 11
173.0057208688
 21
225.8426064285
 31
0.0
 11
173.3198668618
 21
225.8428126337
 31
0.0
 11
173.6384435941
 21
225.9007117826
 31
0.0
 11
173.9527504312
 21
226.0147225896
 31
0.0
 11
174.2542227611
 21
226.1817378732
 31
0.0
 11
174.5346294925
 21
226.3971973128
 31
0.0
 11
174.7863311204
 21
226.6552312582
 31
0.0
 11
175.0024587772
 21
226.9488015878
 31
0.0
 11
175.1771022923
 21
227.2698728991
 31
0.0
 11
175.3055227235
 21
227.6097341532
 31
0.0
 11
175.3841980325
 21
227.9590566796
 31
0.0
 11
175.4109957584
 21
228.3083939999
 31
0.0
  0
SPLINE
  5
43D
100
AcDbEntity
  8
RUNDUNGEN
100
AcDbSpline
 62
7
  6
CONTINUOUS
 70
0
 71
3
 72
11
 73
7
 74
5
 42
0.0000001
 43
0.0000001
 44
0.0000000001
 12
-0.0171266114
 22
-0.0568867629
 32
0.0
 13
-0.0542211904
 23
0.0244206319
 33
0.0
 40
0.0
 40
0.0
 40
0.0
 40
0.0
 40
0.008595282
 40
0.1991342933
 40
0.5448237878
 40
1.0
 40
1.0
 40
1.0
 40
1.0
 10
172.1840112084
 20
228.5325611764
 30
0.0
 10
172.183962139
 20
228.5323981905
 30
0.0
 10
172.1826324079
 20
228.52881911
 30
0.0
 10
172.1681735177
 20
228.5399006078
 30
0.0
 10
172.1528725492
 20
228.5424180811
 30
0.0
 10
172.1374283013
 20
228.5504251496
 30
0.0
 10
172.1292015692
 20
228.5541303798
 30
0.0
 11
172.1840112084
 21
228.5325611764
 31
0.0
 11
172.1838399795
 21
228.5321034351
 31
0.0
 11
172.1730428639
 21
228.5355397476
 31
0.0
 11
172.1539877263
 21
228.5432530145
 31
0.0
 11
172.1292015692
 21
228.5541303798
 31
0.0
  0
SPLINE
  5
43E
100
AcDbEntity
  8
RUNDUNGEN
100
AcDbSpline
 62
9
  6
CONTINUOUS
 70
0
 71
3
 72
13
 73
9
 74
7
 42
0.0000001
 43
0.0000001
 44
0.0000000001
 12
1.5633616611
 22
0.3807119098
 32
0.0
 13
0.7709083725
 23
1.4123531863
 33
0.0
 40
0.0
 40
0.0
 40
0.0
 40
0.0
 40
0.1573481313
 40
0.3193431414
 40
0.4855343147
 40
0.6551206841
 40
0.8270299521
 40
1.0
 40
1.0
 40
1.0
 40
1.0
 10
173.6142653943
 20
226.25592857
 30
0.0
 10
173.6962627397
 20
226.2758966726
 30
0.0
 10
173.8596305443
 20
226.330013167
 30
0.0
 10
174.0925572045
 20
226.4484075931
 30
0.0
 10
174.3117545116
 20
226.6023397497
 30
0.0
 10
174.5119842266
 20
226.7880709501
 30
0.0
 10
174.6885206893
 20
227.0010993962
 30
0.0
 10
174.7876527227
 20
227.1579771457
 30
0.0
 10
174.8321007421
 20
227.2394087451
 30
0.0
 11
173.6142653943
 21
226.25592857
 31
0.0
 11
173.8547846452
 21
226.3349924544
 31
0.0
 11
174.0873955661
 21
226.4526137623
 31
0.0
 11
174.3064789403
 21
226.6059451532
 31
0.0
 11
174.50675192
 21
226.7912836548
 31
0.0
 11
174.6833832704
 21
227.0041563276
 31
0.0
 11
174.8321007421
 21
227.2394087451
 31
0.0
  0
SPLINE
  5
43F
100
AcDbEntity
  8
RUNDUNGEN
100
AcDbSpline
 62
7
  6
CONTINUOUS
 70
0
 71
3
 72
12
 73
8
 74
6
 42
0.0000001
 43
0.0000001
 44
0.0000000001
 12
0.1374101969
 22
-0.0610078618
 32
0.0
 13
0.1137503624
 23
0.0985039156
 33
0.0
 40
0.0
 40
0.0
 40
0.0
 40
0.0
 40
0.1290632211
 40
0.3216280635
 40
0.5425510045
 40
0.7744493516
 40
1.0
 40
1.0
 40
1.0
 40
1.0
 10
174.7901123146
 20
229.0147663186
 30
0.0
 10
174.7960238488
 20
229.0121416949
 30
0.0
 10
174.8126515551
 20
229.0096094397
 30
0.0
 10
174.8396448034
 20
229.0138582371
 30
0.0
 10
174.8702435894
 20
229.0250133082
 30
0.0
 10
174.9001276286
 20
229.0414856292
 30
0.0
 10
174.9186079057
 20
229.055235051
 30
0.0
 10
174.9271600617
 20
229.062640925
 30
0.0
 11
174.7901123146
 21
229.0147663186
 31
0.0
 11
174.8092678236
 21
229.0109227432
 31
0.0
 11
174.8380239913
 21
229.0144839142
 31
0.0
 11
174.8693611802
 21
229.0255778575
 31
0.0
 11
174.8999776996
 21
229.0423186153
 31
0.0
 11
174.9271600617
 21
229.062640925
 31
0.0
  0
SPLINE
  5
440
100
AcDbEntity
  8
RUNDUNGEN
100
AcDbSpline
 62
9
  6
CONTINUOUS
 70
0
 71
3
 72
13
 73
9
 74
7
 42
0.0000001
 43
0.0000001
 44
0.0000000001
 12
0.7852714027
 22
-1.1593063534
 32
0.0
 13
1.3902627937
 23
0.1667685865
 33
0.0
 40
0.0
 40
0.0
 40
0.0
 40
0.0
 40
0.1672021044
 40
0.3318463978
 40
0.495675569
 40
0.6605493996
 40
0.8281965513
 40
1.0
 40
1.0
 40
1.0
 40
1.0
 10
172.2210520222
 20
226.7648678186
 30
0.0
 10
172.2648183658
 20
226.700254998
 30
0.0
 10
172.3632183263
 20
226.5793469365
 30
0.0
 10
172.5408165572
 20
226.4290501152
 30
0.0
 10
172.7426435509
 20
226.3153268583
 30
0.0
 10
172.9635503536
 20
226.2411327577
 30
0.0
 10
173.1978719637
 20
226.2081988154
 30
0.0
 10
173.3571152998
 20
226.2141126792
 30
0.0
 10
173.436732614
 20
226.223663152
 30
0.0
 11
172.2210520222
 21
226.7648678186
 31
0.0
 11
172.3691808428
 21
226.5835652058
 31
0.0
 11
172.54530111
 21
226.4348028371
 31
0.0
 11
172.7451528976
 21
226.3221844564
 31
0.0
 11
172.9639152599
 21
226.2484286686
 31
0.0
 11
173.1963131059
 21
226.2153196312
 31
0.0
 11
173.436732614
 21
226.223663152
 31
0.0
  0
SPLINE
  5
441
100
AcDbEntity
  8
RUNDUNGEN
100
AcDbSpline
 62
9
  6
CONTINUOUS
 70
0
 71
3
 72
10
 73
6
 74
4
 42
0.0000001
 43
0.0000001
 44
0.0000000001
 12
-0.0010694126
 22
-0.7567059624
 32
0.0
 13
0.3413923579
 23
-0.6753194171
 33
0.0
 40
0.0
 40
0.0
 40
0.0
 40
0.0
 40
0.3431620754
 40
0.6765068396
 40
1.0
 40
1.0
 40
1.0
 40
1.0
 10
171.9666258886
 20
227.6475772255
 30
0.0
 10
171.9665035614
 20
227.5610196293
 30
0.0
 10
171.9783370726
 20
227.3900534793
 30
0.0
 10
172.0336874422
 20
227.1430196527
 30
0.0
 10
172.0957087599
 20
226.9884014918
 30
0.0
 10
172.1325214575
 20
226.9155810876
 30
0.0
 11
171.9666258886
 21
227.6475772255
 31
0.0
 11
171.9850988276
 21
227.3885620863
 31
0.0
 11
172.0408429188
 21
227.1425544765
 31
0.0
 11
172.1325214575
 21
226.9155810876
 31
0.0
  0
SPLINE
  5
442
100
AcDbEntity
  8
RUNDUNGEN
100
AcDbSpline
 62
9
  6
CONTINUOUS
 70
0
 71
3
 72
10
 73
6
 74
4
 42
0.0000001
 43
0.0000001
 44
0.0000000001
 12
-0.321683233
 22
-0.7490427943
 32
0.0
 13
-0.0011520729
 23
-0.8151956102
 33
0.0
 40
0.0
 40
0.0
 40
0.0
 40
0.0
 40
0.3389345824
 40
0.6729691725
 40
1.0
 40
1.0
 40
1.0
 40
1.0
 10
172.134676214
 20
228.4402658253
 30
0.0
 10
172.0983330233
 20
228.3556403231
 30
0.0
 10
172.0368719646
 20
228.1827541254
 30
0.0
 10
171.9800471772
 20
227.9162870409
 30
0.0
 10
171.9667514764
 20
227.7364419238
 30
0.0
 10
171.9666258886
 20
227.6475772255
 30
0.0
 11
172.134676214
 21
228.4402658253
 31
0.0
 11
172.0423142302
 21
228.1798623073
 31
0.0
 11
171.9858457331
 21
227.9134778667
 31
0.0
 11
171.9666258886
 21
227.6475772255
 31
0.0
  0
LINE
  5
443
100
AcDbEntity
  8
RUNDUNGEN
100
AcDbLine
 62
9
  6
CONTINUOUS
 10
173.4763135804
 20
226.3218928772
 11
173.4313669961
 21
226.3418744676
  0
LINE
  5
444
100
AcDbEntity
  8
RUNDUNGEN
100
AcDbLine
 62
9
  6
CONTINUOUS
 10
172.2156893118
 20
226.8830778399
 11
172.1818987627
 21
226.8981363005
  0
SPLINE
  5
445
100
AcDbEntity
  8
RUNDUNGEN
100
AcDbSpline
 62
9
  6
CONTINUOUS
 70
0
 71
3
 72
11
 73
7
 74
5
 42
0.0000001
 43
0.0000001
 44
0.0000000001
 12
-0.1364288045
 22
-0.0247950375
 32
0.0
 13
-0.1200073049
 23
0.0694684055
 33
0.0
 40
0.0
 40
0.0
 40
0.0
 40
0.0
 40
0.2688990842
 40
0.5495609181
 40
0.8039907988
 40
1.0
 40
1.0
 40
1.0
 40
1.0
 10
174.9232576451
 20
228.9470703838
 30
0.0
 10
174.9110291183
 20
228.9448479295
 30
0.0
 10
174.8856553069
 20
228.9423791018
 30
0.0
 10
174.848394684
 20
228.9432831006
 30
0.0
 10
174.8149704632
 20
228.9484524938
 30
0.0
 10
174.7949038161
 20
228.9550882238
 30
0.0
 10
174.7870629708
 20
228.9596270394
 30
0.0
 11
174.9232576451
 21
228.9470703838
 31
0.0
 11
174.8861755744
 21
228.9431709507
 31
0.0
 11
174.8472712658
 21
228.9441879539
 31
0.0
 11
174.8124675478
 21
228.9499665637
 31
0.0
 11
174.7870629708
 21
228.9596270394
 31
0.0
  0
SPLINE
  5
446
100
AcDbEntity
  8
RUNDUNGEN
100
AcDbSpline
 62
9
  6
CONTINUOUS
 70
0
 71
3
 72
11
 73
7
 74
5
 42
0.0000001
 43
0.0000001
 44
0.0000000001
 12
-0.1364288045
 22
-0.0247950375
 32
0.0
 13
-0.1200073048
 23
0.0694684056
 33
0.0
 40
0.0
 40
0.0
 40
0.0
 40
0.0
 40
0.268899084
 40
0.5495609178
 40
0.8039907986
 40
1.0
 40
1.0
 40
1.0
 40
1.0
 10
174.9211028937
 20
227.422389188
 30
0.0
 10
174.9088743668
 20
227.4201667338
 30
0.0
 10
174.8835005555
 20
227.4176979061
 30
0.0
 10
174.8462399325
 20
227.4186019049
 30
0.0
 10
174.8128157117
 20
227.423771298
 30
0.0
 10
174.7927490647
 20
227.4304070281
 30
0.0
 10
174.7849082193
 20
227.4349458436
 30
0.0
 11
174.9211028937
 21
227.422389188
 31
0.0
 11
174.8840208229
 21
227.418489755
 31
0.0
 11
174.8451165144
 21
227.4195067581
 31
0.0
 11
174.8103127963
 21
227.425285368
 31
0.0
 11
174.7849082193
 21
227.4349458436
 31
0.0
  0
SPLINE
  5
447
100
AcDbEntity
  8
RUNDUNGEN
100
AcDbSpline
 62
7
  6
CONTINUOUS
 70
0
 71
3
 72
12
 73
8
 74
6
 42
0.0000001
 43
0.0000001
 44
0.0000000001
 12
0.1351016446
 22
-0.0782060372
 32
0.0
 13
0.1429088206
 23
-0.0628148679
 33
0.0
 40
0.0
 40
0.0
 40
0.0
 40
0.0
 40
0.1629869986
 40
0.3696840366
 40
0.5928761263
 40
0.8093060381
 40
1.0
 40
1.0
 40
1.0
 40
1.0
 10
174.7846185412
 20
227.378433069
 30
0.0
 10
174.7919584784
 20
227.3741842132
 30
0.0
 10
174.8089117564
 20
227.3650803114
 30
0.0
 10
174.8363990331
 20
227.3510744988
 30
0.0
 10
174.8666213629
 20
227.3363164079
 30
0.0
 10
174.8962965077
 20
227.3223460313
 30
0.0
 10
174.9155986603
 20
227.3136125836
 30
0.0
 10
174.92468261
 20
227.3096197782
 30
0.0
 11
174.7846185412
 21
227.378433069
 31
0.0
 11
174.8069434646
 21
227.3662287717
 31
0.0
 11
174.8356738442
 21
227.3515426267
 31
0.0
 11
174.8669737244
 21
227.3362379171
 31
0.0
 11
174.8975462589
 21
227.321857596
 31
0.0
 11
174.92468261
 21
227.3096197782
 31
0.0
  0
SPLINE
  5
448
100
AcDbEntity
  8
RUNDUNGEN
100
AcDbSpline
 62
9
  6
CONTINUOUS
 70
0
 71
3
 72
11
 73
7
 74
5
 42
0.0000001
 43
0.0000001
 44
0.0000000001
 12
-0.0518021099
 22
-0.1064994211
 32
0.0
 13
-0.1092413011
 23
0.0471606649
 33
0.0
 40
0.0
 40
0.0
 40
0.0
 40
0.0
 40
0.3221702575
 40
0.6077146695
 40
0.838890078
 40
1.0
 40
1.0
 40
1.0
 40
1.0
 10
173.6190479309
 20
229.6389894529
 30
0.0
 10
173.6134848978
 20
229.6275524709
 30
0.0
 10
173.6006539842
 20
229.6069724454
 30
0.0
 10
173.5766306245
 20
229.5837087881
 30
0.0
 10
173.5517031717
 20
229.5717639023
 30
0.0
 10
173.535201486
 20
229.5735157473
 30
0.0
 10
173.5293348668
 20
229.576048431
 30
0.0
 11
173.6190479309
 21
229.6389894529
 31
0.0
 11
173.5985956914
 21
229.6067796262
 31
0.0
 11
173.5737894732
 21
229.5837962364
 31
0.0
 11
173.5484057979
 21
229.5735382965
 31
0.0
 11
173.5293348668
 21
229.576048431
 31
0.0
  0
SPLINE
  5
449
100
AcDbEntity
  8
RUNDUNGEN
100
AcDbSpline
 62
9
  6
CONTINUOUS
 70
0
 71
3
 72
11
 73
7
 74
5
 42
0.0000001
 43
0.0000001
 44
0.0000000001
 12
-0.0518020699
 22
-0.106499339
 32
0.0
 13
-0.1092413791
 23
0.0471603056
 33
0.0
 40
0.0
 40
0.0
 40
0.0
 40
0.0
 40
0.3221705054
 40
0.6077151375
 40
0.8388907242
 40
1.0
 40
1.0
 40
1.0
 40
1.0
 10
174.8347256152
 20
229.0977860807
 30
0.0
 10
174.8291625821
 20
229.0863490987
 30
0.0
 10
174.8163316686
 20
229.0657690732
 30
0.0
 10
174.7923083088
 20
229.0425054159
 30
0.0
 10
174.7673808843
 20
229.0305605437
 30
0.0
 10
174.7508792351
 20
229.0323123682
 30
0.0
 10
174.7450126353
 20
229.0348450224
 30
0.0
 11
174.8347256152
 21
229.0977860807
 31
0.0
 11
174.8142733758
 21
229.0655762539
 31
0.0
 11
174.7894671575
 21
229.0425928642
 31
0.0
 11
174.7640834822
 21
229.0323349242
 31
0.0
 11
174.7450126353
 21
229.0348450224
 31
0.0
  0
SPLINE
  5
44A
100
AcDbEntity
  8
RUNDUNGEN
100
AcDbSpline
 62
9
  6
CONTINUOUS
 70
0
 71
3
 72
13
 73
9
 74
7
 42
0.0000001
 43
0.0000001
 44
0.0000000001
 12
-1.5633616611
 22
-0.3807119098
 32
0.0
 13
-0.7709083725
 23
-1.4123531863
 33
0.0
 40
0.0
 40
0.0
 40
0.0
 40
0.0
 40
0.1573481313
 40
0.3193431414
 40
0.4855343147
 40
0.6551206841
 40
0.8270299521
 40
1.0
 40
1.0
 40
1.0
 40
1.0
 10
173.4415137108
 20
229.6067246758
 30
0.0
 10
173.3595163655
 20
229.5867565732
 30
0.0
 10
173.1961485609
 20
229.5326400788
 30
0.0
 10
172.9632219007
 20
229.4142456527
 30
0.0
 10
172.7440245936
 20
229.260313496
 30
0.0
 10
172.5437948786
 20
229.0745822957
 30
0.0
 10
172.3672584159
 20
228.8615538496
 30
0.0
 10
172.2681263825
 20
228.7046761001
 30
0.0
 10
172.2236783631
 20
228.6232445007
 30
0.0
 11
173.4415137108
 21
229.6067246758
 31
0.0
 11
173.20099446
 21
229.5276607914
 31
0.0
 11
172.9683835391
 21
229.4100394835
 31
0.0
 11
172.7493001649
 21
229.2567080926
 31
0.0
 11
172.5490271852
 21
229.071369591
 31
0.0
 11
172.3723958348
 21
228.8584969182
 31
0.0
 11
172.2236783631
 21
228.6232445007
 31
0.0
  0
SPLINE
  5
44B
100
AcDbEntity
  8
RUNDUNGEN
100
AcDbSpline
 62
9
  6
CONTINUOUS
 70
0
 71
3
 72
10
 73
6
 74
4
 42
0.0000001
 43
0.0000001
 44
0.0000000001
 12
0.0267579626
 22
-0.0455523834
 32
0.0
 13
-0.0401743463
 23
-0.0377321093
 33
0.0
 40
0.0
 40
0.0
 40
0.0
 40
0.0
 40
0.5518850928
 40
0.8959806884
 40
1.0
 40
1.0
 40
1.0
 40
1.0
 10
172.2236798383
 20
228.623245692
 30
0.0
 10
172.2286022785
 20
228.6148657982
 30
0.0
 10
172.2345224478
 20
228.6012306144
 30
0.0
 10
172.2431315702
 20
228.5831538329
 30
0.0
 10
172.2382424169
 20
228.5757951665
 30
0.0
 10
172.2368494476
 20
228.5744868771
 30
0.0
 11
172.2236798383
 21
228.623245692
 31
0.0
 11
172.2365758462
 21
228.5970966898
 31
0.0
 11
172.2400409069
 21
228.579251419
 31
0.0
 11
172.2368494476
 21
228.5744868771
 31
0.0
  0
SPLINE
  5
44C
100
AcDbEntity
  8
RUNDUNGEN
100
AcDbSpline
 62
9
  6
CONTINUOUS
 70
0
 71
3
 72
10
 73
6
 74
4
 42
0.0000001
 43
0.0000001
 44
0.0000000001
 12
0.0267579138
 22
-0.0455523003
 32
0.0
 13
-0.0401740118
 23
-0.037732445
 33
0.0
 40
0.0
 40
0.0
 40
0.0
 40
0.0
 40
0.5518860994
 40
0.8959823229
 40
1.0
 40
1.0
 40
1.0
 40
1.0
 10
173.4415122741
 20
229.6067235155
 30
0.0
 10
173.4464347143
 20
229.5983436217
 30
0.0
 10
173.4523548836
 20
229.5847084379
 30
0.0
 10
173.4609639903
 20
229.5666316894
 30
0.0
 10
173.4560748925
 20
229.5592730499
 30
0.0
 10
173.4546819567
 20
229.5579647695
 30
0.0
 11
173.4415122741
 21
229.6067235155
 31
0.0
 11
173.454408282
 21
229.5805745133
 31
0.0
 11
173.4578733427
 21
229.5627292425
 31
0.0
 11
173.4546819567
 21
229.5579647695
 31
0.0
  0
SPLINE
  5
44D
100
AcDbEntity
  8
RUNDUNGEN
100
AcDbSpline
 62
9
  6
CONTINUOUS
 70
0
 71
3
 72
10
 73
6
 74
4
 42
0.0000001
 43
0.0000001
 44
0.0000000001
 12
0.0597391327
 22
0.0108571943
 32
0.0
 13
0.0049898604
 23
0.061351166
 33
0.0
 40
0.0
 40
0.0
 40
0.0
 40
0.0
 40
0.5061891161
 40
0.8511271923
 40
1.0
 40
1.0
 40
1.0
 40
1.0
 10
172.13252146
 20
226.915582862
 30
0.0
 10
172.1426012263
 20
226.9174147932
 30
0.0
 10
172.1588541295
 20
226.9220729202
 30
0.0
 10
172.178622681
 20
226.9303681436
 30
0.0
 10
172.1828009115
 20
226.940825462
 30
0.0
 10
172.1830485297
 20
226.9438699688
 30
0.0
 11
172.13252146
 21
226.915582862
 31
0.0
 11
172.1621358839
 21
226.923805078
 31
0.0
 11
172.1797741333
 21
226.935098319
 31
0.0
 11
172.1830485297
 21
226.9438699688
 31
0.0
  0
SPLINE
  5
44E
100
AcDbEntity
  8
RUNDUNGEN
100
AcDbSpline
 62
9
  6
CONTINUOUS
 70
0
 71
3
 72
10
 73
6
 74
4
 42
0.0000001
 43
0.0000001
 44
0.0000000001
 12
0.0597393106
 22
0.0108572266
 32
0.0
 13
0.0049890594
 23
0.0613512615
 33
0.0
 40
0.0
 40
0.0
 40
0.0
 40
0.0
 40
0.5061876083
 40
0.8511246573
 40
1.0
 40
1.0
 40
1.0
 40
1.0
 10
172.1346762115
 20
228.4402640577
 30
0.0
 10
172.1447559778
 20
228.4420959889
 30
0.0
 10
172.161008881
 20
228.4467541159
 30
0.0
 10
172.1807774913
 20
228.4550493641
 30
0.0
 10
172.1849557134
 20
228.4655067839
 30
0.0
 10
172.185203296
 20
228.4685513473
 30
0.0
 11
172.1346762115
 21
228.4402640577
 31
0.0
 11
172.1642906354
 21
228.4484862737
 31
0.0
 11
172.1819288848
 21
228.4597795147
 31
0.0
 11
172.185203296
 21
228.4685513473
 31
0.0
  0
SPLINE
  5
44F
100
AcDbEntity
  8
RUNDUNGEN
100
AcDbSpline
 62
9
  6
CONTINUOUS
 70
0
 71
3
 72
11
 73
7
 74
5
 42
0.0000001
 43
0.0000001
 44
0.0000000001
 12
0.0556087982
 22
0.1143255521
 32
0.0
 13
-0.1100275792
 23
0.0636914603
 33
0.0
 40
0.0
 40
0.0
 40
0.0
 40
0.0
 40
0.3049694488
 40
0.583975536
 40
0.8152015762
 40
1.0
 40
1.0
 40
1.0
 40
1.0
 10
173.4367311743
 20
226.2236637929
 30
0.0
 10
173.4423841692
 20
226.2352857264
 30
0.0
 10
173.4508679323
 20
226.258794938
 30
0.0
 10
173.4548827956
 20
226.2934361565
 30
0.0
 10
173.4498224663
 20
226.3230779324
 30
0.0
 10
173.4381446371
 20
226.3379511072
 30
0.0
 10
173.4313669961
 20
226.3418744676
 30
0.0
 11
173.4367311743
 21
226.2236637929
 31
0.0
 11
173.4497157668
 21
226.2601964025
 31
0.0
 11
173.4532559259
 21
226.2954900364
 31
0.0
 11
173.4468126945
 21
226.3241715587
 31
0.0
 11
173.4313669961
 21
226.3418744676
 31
0.0
  0
SPLINE
  5
450
100
AcDbEntity
  8
RUNDUNGEN
100
AcDbSpline
 62
9
  6
CONTINUOUS
 70
0
 71
3
 72
11
 73
7
 74
5
 42
0.0000001
 43
0.0000001
 44
0.0000000001
 12
0.0556087982
 22
0.1143255521
 32
0.0
 13
-0.1100275792
 23
0.0636914603
 33
0.0
 40
0.0
 40
0.0
 40
0.0
 40
0.0
 40
0.3049694486
 40
0.5839755358
 40
0.815201576
 40
1.0
 40
1.0
 40
1.0
 40
1.0
 10
172.22105349
 20
226.7648671651
 30
0.0
 10
172.2267064849
 20
226.7764890987
 30
0.0
 10
172.2351902479
 20
226.7999983102
 30
0.0
 10
172.2392051113
 20
226.8346395287
 30
0.0
 10
172.234144782
 20
226.8642813047
 30
0.0
 10
172.2224669528
 20
226.8791544794
 30
0.0
 10
172.2156893118
 20
226.8830778399
 30
0.0
 11
172.22105349
 21
226.7648671651
 31
0.0
 11
172.2340380825
 21
226.8013997747
 31
0.0
 11
172.2375782416
 21
226.8366934086
 31
0.0
 11
172.2311350102
 21
226.8653749309
 31
0.0
 11
172.2156893118
 21
226.8830778399
 31
0.0
  0
SPLINE
  5
451
100
AcDbEntity
  8
RUNDUNGEN
100
AcDbSpline
 62
9
  6
CONTINUOUS
 70
0
 71
3
 72
11
 73
7
 74
5
 42
0.0000001
 43
0.0000001
 44
0.0000000001
 12
-0.0703912837
 22
0.1198331426
 32
0.0
 13
-0.1202794408
 23
0.0696259364
 33
0.0
 40
0.0
 40
0.0
 40
0.0
 40
0.0
 40
0.2637091845
 40
0.544327384
 40
0.8016830989
 40
1.0
 40
1.0
 40
1.0
 40
1.0
 10
174.8320992669
 20
227.2394075538
 30
0.0
 10
174.8259116575
 20
227.2499412539
 30
0.0
 10
174.8117179018
 20
227.2708486705
 30
0.0
 10
174.7881577924
 20
227.2996338954
 30
0.0
 10
174.7641570265
 20
227.3238865411
 30
0.0
 10
174.7475430675
 20
227.3371778642
 30
0.0
 10
174.7395919188
 20
227.3417805308
 30
0.0
 11
174.8320992669
 21
227.2394075538
 31
0.0
 11
174.8117356121
 21
227.2698793389
 31
0.0
 11
174.7870044922
 21
227.3000348539
 31
0.0
 11
174.7616709961
 21
227.3252831949
 31
0.0
 11
174.7395919188
 21
227.3417805308
 31
0.0
  0
SPLINE
  5
452
100
AcDbEntity
  8
RUNDUNGEN
100
AcDbSpline
 62
9
  6
CONTINUOUS
 70
0
 71
3
 72
11
 73
7
 74
5
 42
0.0000001
 43
0.0000001
 44
0.0000000001
 12
-0.0703912837
 22
0.1198331426
 32
0.0
 13
-0.1202794408
 23
0.0696259364
 33
0.0
 40
0.0
 40
0.0
 40
0.0
 40
0.0
 40
0.2637091843
 40
0.5443273836
 40
0.8016830987
 40
1.0
 40
1.0
 40
1.0
 40
1.0
 10
173.6142668311
 20
226.2559297303
 30
0.0
 10
173.6080792217
 20
226.2664634304
 30
0.0
 10
173.593885466
 20
226.287370847
 30
0.0
 10
173.5703253566
 20
226.3161560719
 30
0.0
 10
173.5463245907
 20
226.3404087176
 30
0.0
 10
173.5297106317
 20
226.3537000407
 30
0.0
 10
173.521759483
 20
226.3583027073
 30
0.0
 11
173.6142668311
 21
226.2559297303
 31
0.0
 11
173.5939031763
 21
226.2864015154
 31
0.0
 11
173.5691720564
 21
226.3165570303
 31
0.0
 11
173.5438385603
 21
226.3418053713
 31
0.0
 11
173.521759483
 21
226.3583027073
 31
0.0
  0
SPLINE
  5
453
100
AcDbEntity
  8
RUNDUNGEN
100
AcDbSpline
 62
7
  6
CONTINUOUS
 70
0
 71
3
 72
12
 73
8
 74
6
 42
0.0000001
 43
0.0000001
 44
0.0000000001
 12
0.1348227098
 22
-0.0780445452
 32
0.0
 13
-0.0053465876
 23
-0.1556904882
 33
0.0
 40
0.0
 40
0.0
 40
0.0
 40
0.0
 40
0.1520349583
 40
0.3446451288
 40
0.5623067662
 40
0.7864998881
 40
1.0
 40
1.0
 40
1.0
 40
1.0
 10
173.4763135804
 20
226.3218928772
 30
0.0
 10
173.4831461688
 20
226.3179377108
 30
0.0
 10
173.495557757
 20
226.3041452752
 30
0.0
 10
173.5087217562
 20
226.2780289735
 30
0.0
 10
173.5184633728
 20
226.2463809525
 30
0.0
 10
173.5239890117
 20
226.2127260592
 30
0.0
 10
173.5248451361
 20
226.1899339115
 30
0.0
 10
173.5244646371
 20
226.1788539326
 30
0.0
 11
173.4763135804
 21
226.3218928772
 31
0.0
 11
173.4932513489
 21
226.3053381062
 31
0.0
 11
173.5074067648
 21
226.2788817431
 31
0.0
 11
173.5176208383
 21
226.2465488937
 31
0.0
 11
173.5233355518
 21
226.2120942932
 31
0.0
 11
173.5244646371
 21
226.1788539326
 31
0.0
  0
SPLINE
  5
454
100
AcDbEntity
  8
RUNDUNGEN
100
AcDbSpline
 62
9
  6
CONTINUOUS
 70
0
 71
3
 72
13
 73
9
 74
7
 42
0.0000001
 43
0.0000001
 44
0.0000000001
 12
-0.7852714027
 22
1.1593063534
 32
0.0
 13
-1.3902627937
 23
-0.1667685865
 33
0.0
 40
0.0
 40
0.0
 40
0.0
 40
0.0
 40
0.1672021044
 40
0.3318463978
 40
0.495675569
 40
0.6605493996
 40
0.8281965513
 40
1.0
 40
1.0
 40
1.0
 40
1.0
 10
174.834727083
 20
229.0977854272
 30
0.0
 10
174.7909607393
 20
229.1623982478
 30
0.0
 10
174.6925607789
 20
229.2833063092
 30
0.0
 10
174.514962548
 20
229.4336031306
 30
0.0
 10
174.3131355543
 20
229.5473263875
 30
0.0
 10
174.0922287516
 20
229.6215204881
 30
0.0
 10
173.8579071415
 20
229.6544544304
 30
0.0
 10
173.6986638053
 20
229.6485405666
 30
0.0
 10
173.6190464912
 20
229.6389900938
 30
0.0
 11
174.834727083
 21
229.0977854272
 31
0.0
 11
174.6865982624
 21
229.27908804
 31
0.0
 11
174.5104779952
 21
229.4278504087
 31
0.0
 11
174.3106262075
 21
229.5404687894
 31
0.0
 11
174.0918638453
 21
229.6142245772
 31
0.0
 11
173.8594659993
 21
229.6473336146
 31
0.0
 11
173.6190464912
 21
229.6389900938
 31
0.0
  0
SPLINE
  5
455
100
AcDbEntity
  8
RUNDUNGEN
100
AcDbSpline
 62
9
  6
CONTINUOUS
 70
0
 71
3
 72
43
 73
39
 74
37
 42
0.0000001
 43
0.0000001
 44
0.0000000001
 12
-4.5920718706
 22
10.3022500962
 32
0.0
 13
-0.0159358032
 23
-11.2760193761
 33
0.0
 40
0.0
 40
0.0
 40
0.0
 40
0.0
 40
0.0255768275
 40
0.0519157743
 40
0.0779912194
 40
0.1038306185
 40
0.1294448878
 40
0.1549087963
 40
0.1803004514
 40
0.2056851996
 40
0.2311307847
 40
0.2567068
 40
0.2824788136
 40
0.3085059808
 40
0.3348393073
 40
0.3615204003
 40
0.388580806
 40
0.4160419428
 40
0.4439161214
 40
0.472205746
 40
0.5009027435
 40
0.5299897675
 40
0.5594406401
 40
0.5892242339
 40
0.6193060978
 40
0.6496409535
 40
0.6801735401
 40
0.7108591361
 40
0.7416551685
 40
0.7724649376
 40
0.8031985076
 40
0.8339688717
 40
0.8647646438
 40
0.8948669694
 40
0.9235959405
 40
0.9507543159
 40
0.9762491418
 40
1.0
 40
1.0
 40
1.0
 40
1.0
 10
176.0029287005
 20
230.9972050476
 30
0.0
 10
175.9637784905
 20
231.0850380054
 30
0.0
 10
175.8772957114
 20
231.2602004392
 30
0.0
 10
175.7259757977
 20
231.5116902374
 30
0.0
 10
175.5527638037
 20
231.7498813061
 30
0.0
 10
175.3608111606
 20
231.9696588977
 30
0.0
 10
175.1513692227
 20
232.1695367082
 30
0.0
 10
174.9257555989
 20
232.3482759002
 30
0.0
 10
174.6852640558
 20
232.5048622533
 30
0.0
 10
174.4313142224
 20
232.6383743674
 30
0.0
 10
174.1654382377
 20
232.7480195569
 30
0.0
 10
173.8892174142
 20
232.8331646082
 30
0.0
 10
173.6042768572
 20
232.8933266933
 30
0.0
 10
173.3122908634
 20
232.9281681758
 30
0.0
 10
173.0149762456
 20
232.9374985975
 30
0.0
 10
172.7140829855
 20
232.9212770414
 30
0.0
 10
172.4113824047
 20
232.8796134455
 30
0.0
 10
172.1086507625
 20
232.8127671284
 30
0.0
 10
171.807657523
 20
232.7211427313
 30
0.0
 10
171.5101590563
 20
232.6052868367
 30
0.0
 10
171.2178936459
 20
232.4658868689
 30
0.0
 10
170.9325732748
 20
232.3037696907
 30
0.0
 10
170.6558622793
 20
232.1198914494
 30
0.0
 10
170.3893587175
 20
231.9153216902
 30
0.0
 10
170.1346031674
 20
231.6912431245
 30
0.0
 10
169.893091305
 20
231.4489668956
 30
0.0
 10
169.6662306956
 20
231.1899022612
 30
0.0
 10
169.4553144306
 20
230.9155135723
 30
0.0
 10
169.2616289733
 20
230.6274479309
 30
0.0
 10
169.0864205607
 20
230.3275774175
 30
0.0
 10
168.930504296
 20
230.0173464735
 30
0.0
 10
168.7945638299
 20
229.6979098754
 30
0.0
 10
168.6801567831
 20
229.3726516081
 30
0.0
 10
168.5890217012
 20
229.0480912816
 30
0.0
 10
168.5215673854
 20
228.7317836373
 30
0.0
 10
168.4763991951
 20
228.4290528319
 30
0.0
 10
168.4511314222
 20
228.1428281832
 30
0.0
 10
168.4455425287
 20
227.9576976377
 30
0.0
 10
168.4454163657
 20
227.8684259255
 30
0.0
 11
176.0029287005
 21
230.9972050476
 31
0.0
 11
175.8751077865
 21
231.2557467531
 31
0.0
 11
175.7218479335
 21
231.5101473975
 31
0.0
 11
175.5488044923
 21
231.7478618233
 31
0.0
 11
175.3570478381
 21
231.9672323949
 31
0.0
 11
175.1480386102
 21
232.1665721645
 31
0.0
 11
174.9229410713
 21
232.3448297732
 31
0.0
 11
174.6829906706
 21
232.5010388515
 31
0.0
 11
174.4296400639
 21
232.6342542736
 31
0.0
 11
174.1644052945
 21
232.7436918623
 31
0.0
 11
173.8888311878
 21
232.828727887
 31
0.0
 11
173.6045179229
 21
232.8888762352
 31
0.0
 11
173.3131188794
 21
232.9237896587
 31
0.0
 11
173.0163346605
 21
232.9332636843
 31
0.0
 11
172.7159048079
 21
232.9172408548
 31
0.0
 11
172.4135961082
 21
232.8758139746
 31
0.0
 11
172.1111876347
 21
232.809226739
 31
0.0
 11
171.8104477201
 21
232.7178684451
 31
0.0
 11
171.5131347496
 21
232.6022717358
 31
0.0
 11
171.2209967893
 21
232.463114451
 31
0.0
 11
170.9357537512
 21
232.3012152873
 31
0.0
 11
170.6590891042
 21
232.1175314868
 31
0.0
 11
170.3926118958
 21
231.9131326515
 31
0.0
 11
170.1378471054
 21
231.6891811642
 31
0.0
 11
169.8963004661
 21
231.4469869247
 31
0.0
 11
169.6694377151
 21
231.1880151026
 31
0.0
 11
169.4585323647
 21
230.9137104467
 31
0.0
 11
169.2647550321
 21
230.625547693
 31
0.0
 11
169.0894912104
 21
230.3255849931
 31
0.0
 11
168.9338862465
 21
230.0159305847
 31
0.0
 11
168.7980578495
 21
229.6966546225
 31
0.0
 11
168.6828922751
 21
229.3690538299
 31
0.0
 11
168.5912044561
 21
229.0422369225
 31
0.0
 11
168.5237236479
 21
228.7253944725
 31
0.0
 11
168.478617958
 21
228.4224958068
 31
0.0
 11
168.4534217554
 21
228.1361216566
 31
0.0
 11
168.4454163657
 21
227.8684259255
 31
0.0
  0
SPLINE
  5
456
100
AcDbEntity
  8
RUNDUNGEN
100
AcDbSpline
 62
7
  6
CONTINUOUS
 70
0
 71
3
 72
12
 73
8
 74
6
 42
0.0000001
 43
0.0000001
 44
0.0000000001
 12
-0.1302332516
 22
0.0753878803
 32
0.0
 13
0.0002126643
 23
0.1504791915
 33
0.0
 40
0.0
 40
0.0
 40
0.0
 40
0.0
 40
0.1515267524
 40
0.3426514366
 40
0.559056231
 40
0.7835085633
 40
1.0
 40
1.0
 40
1.0
 40
1.0
 10
172.6916991482
 20
226.7760811753
 30
0.0
 10
172.6851212077
 20
226.7798889356
 30
0.0
 10
172.6730912416
 20
226.7929906469
 30
0.0
 10
172.6601059655
 20
226.8179029897
 30
0.0
 10
172.6502379491
 20
226.8481876604
 30
0.0
 10
172.6442151929
 20
226.8806734982
 30
0.0
 10
172.6427866189
 20
226.9028130067
 30
0.0
 10
172.6428019655
 20
226.9136721588
 30
0.0
 11
172.6916991482
 21
226.7760811753
 31
0.0
 11
172.6752776072
 21
226.7919004057
 31
0.0
 11
172.661375513
 21
226.8170775301
 31
0.0
 11
172.6510490063
 21
226.8479612917
 31
0.0
 11
172.6448189
 21
226.881157166
 31
0.0
 11
172.6428019655
 21
226.9136721588
 31
0.0
  0
SPLINE
  5
457
100
AcDbEntity
  8
RUNDUNGEN
100
AcDbSpline
 62
7
  6
CONTINUOUS
 70
0
 71
3
 72
12
 73
8
 74
6
 42
0.0000001
 43
0.0000001
 44
0.0000000001
 12
-0.1313992458
 22
0.0760628372
 32
0.0
 13
-0.1387026731
 23
0.0617485666
 33
0.0
 40
0.0
 40
0.0
 40
0.0
 40
0.0
 40
0.1611471826
 40
0.3652349608
 40
0.5868620266
 40
0.8043407455
 40
1.0
 40
1.0
 40
1.0
 40
1.0
 10
174.000004109
 20
227.8326213672
 30
0.0
 10
173.9929459029
 20
227.8367071378
 30
0.0
 10
173.9766643342
 20
227.8454704518
 30
0.0
 10
173.9502173765
 20
227.8589855108
 30
0.0
 10
173.9209887727
 20
227.8733171422
 30
0.0
 10
173.891954149
 20
227.8870660925
 30
0.0
 10
173.8729327495
 20
227.8957491117
 30
0.0
 10
173.8638865956
 20
227.8997763378
 30
0.0
 11
174.000004109
 21
227.8326213672
 31
0.0
 11
173.9785439505
 21
227.8443715907
 31
0.0
 11
173.9509708114
 21
227.8585084692
 31
0.0
 11
173.9207669469
 21
227.8733399891
 31
0.0
 11
173.8909217046
 21
227.8874651261
 31
0.0
 11
173.8638865956
 21
227.8997763378
 31
0.0
  0
SPLINE
  5
458
100
AcDbEntity
  8
RUNDUNGEN
100
AcDbSpline
 62
9
  6
CONTINUOUS
 70
0
 71
3
 72
10
 73
6
 74
4
 42
0.0000001
 43
0.0000001
 44
0.0000000001
 12
0.0010694126
 22
0.7567059624
 32
0.0
 13
-0.3413923579
 23
0.6753194171
 33
0.0
 40
0.0
 40
0.0
 40
0.0
 40
0.0
 40
0.3431620754
 40
0.6765068396
 40
1.0
 40
1.0
 40
1.0
 40
1.0
 10
175.0891532165
 20
228.2150760203
 30
0.0
 10
175.0892755438
 20
228.3016336165
 30
0.0
 10
175.0774420325
 20
228.4725997665
 30
0.0
 10
175.022091663
 20
228.7196335931
 30
0.0
 10
174.9600703452
 20
228.874251754
 30
0.0
 10
174.9232576476
 20
228.9470721582
 30
0.0
 11
175.0891532165
 21
228.2150760203
 31
0.0
 11
175.0706802776
 21
228.4740911595
 31
0.0
 11
175.0149361864
 21
228.7200987693
 31
0.0
 11
174.9232576476
 21
228.9470721582
 31
0.0
  0
SPLINE
  5
459
100
AcDbEntity
  8
RUNDUNGEN
100
AcDbSpline
 62
9
  6
CONTINUOUS
 70
0
 71
3
 72
10
 73
6
 74
4
 42
0.0000001
 43
0.0000001
 44
0.0000000001
 12
0.321683233
 22
0.7490427943
 32
0.0
 13
0.0011520729
 23
0.8151956102
 33
0.0
 40
0.0
 40
0.0
 40
0.0
 40
0.0
 40
0.3389345824
 40
0.6729691725
 40
1.0
 40
1.0
 40
1.0
 40
1.0
 10
174.9211028912
 20
227.4223874205
 30
0.0
 10
174.9574460819
 20
227.5070129227
 30
0.0
 10
175.0189071406
 20
227.6798991204
 30
0.0
 10
175.075731928
 20
227.9463662049
 30
0.0
 10
175.0890276287
 20
228.126211322
 30
0.0
 10
175.0891532165
 20
228.2150760203
 30
0.0
 11
174.9211028912
 21
227.4223874205
 31
0.0
 11
175.0134648749
 21
227.6827909385
 31
0.0
 11
175.0699333721
 21
227.9491753791
 31
0.0
 11
175.0891532165
 21
228.2150760203
 31
0.0
  0
SPLINE
  5
45A
100
AcDbEntity
  8
RUNDUNGEN
100
AcDbSpline
 62
7
  6
CONTINUOUS
 70
0
 71
3
 72
20
 73
16
 74
14
 42
0.0000001
 43
0.0000001
 44
0.0000000001
 12
-6.6179733526
 22
-3.0672106897
 32
0.0
 13
0.0103084974
 23
7.2941925482
 33
0.0
 40
0.0
 40
0.0
 40
0.0
 40
0.0
 40
0.0813755303
 40
0.1605516933
 40
0.2376242073
 40
0.3128652843
 40
0.3867650611
 40
0.4598648243
 40
0.5328835373
 40
0.6064813664
 40
0.6813286174
 40
0.7578584528
 40
0.8364405544
 40
0.9171785857
 40
1.0
 40
1.0
 40
1.0
 40
1.0
 10
151.5978476451
 20
220.6579704708
 30
0.0
 10
151.4183339482
 20
220.5747718387
 30
0.0
 10
151.0526524202
 20
220.434023787
 30
0.0
 10
150.4875842892
 20
220.3044982313
 30
0.0
 10
149.9241393723
 20
220.2616749405
 30
0.0
 10
149.3735861855
 20
220.3063271337
 30
0.0
 10
148.8468291317
 20
220.4374336393
 30
0.0
 10
148.3541741918
 20
220.6523482561
 30
0.0
 10
147.9053776278
 20
220.9468065574
 30
0.0
 10
147.5092192531
 20
221.3151930648
 30
0.0
 10
147.1737677244
 20
221.7503087274
 30
0.0
 10
146.9058580858
 20
222.2436409359
 30
0.0
 10
146.7110768578
 20
222.7852576361
 30
0.0
 10
146.5934215228
 20
223.3640344548
 30
0.0
 10
146.5682311645
 20
223.762316744
 30
0.0
 10
146.5685157526
 20
223.963688525
 30
0.0
 11
151.5978476451
 21
220.6579704708
 31
0.0
 11
151.0435047038
 21
220.4457712273
 31
0.0
 11
150.4803348728
 21
220.3177989882
 31
0.0
 11
149.9196901169
 21
220.2762488076
 31
0.0
 11
149.3727347189
 21
220.3214922986
 31
0.0
 11
148.8498017786
 21
220.4522783078
 31
0.0
 11
148.3611800772
 21
220.665715976
 31
0.0
 11
147.915790037
 21
220.9577851624
 31
0.0
 11
147.5223191117
 21
221.3229904305
 31
0.0
 11
147.1883421926
 21
221.7548720115
 31
0.0
 11
146.9210553368
 21
222.244945142
 31
0.0
 11
146.7260345625
 21
222.7839421235
 31
0.0
 11
146.6076608959
 21
223.3608421648
 31
0.0
 11
146.5685157526
 21
223.963688525
 31
0.0
  0
SPLINE
  5
45B
100
AcDbEntity
  8
RUNDUNGEN
100
AcDbSpline
 62
7
  6
CONTINUOUS
 70
0
 71
3
 72
29
 73
25
 74
23
 42
0.0000001
 43
0.0000001
 44
0.0000000001
 12
0.0179811423
 22
12.7232814893
 32
0.0
 13
1.1096777757
 23
-12.6748110411
 33
0.0
 40
0.0
 40
0.0
 40
0.0
 40
0.0
 40
0.0476261077
 40
0.0961193942
 40
0.1452752745
 40
0.1948560753
 40
0.2445387273
 40
0.2940116889
 40
0.3430020839
 40
0.3912823239
 40
0.4385694785
 40
0.4847812932
 40
0.5298415683
 40
0.5736517175
 40
0.6164396411
 40
0.6583665017
 40
0.6996708654
 40
0.7407452019
 40
0.781963819
 40
0.8236538059
 40
0.8660770925
 40
0.9095456947
 40
0.9541678898
 40
1.0
 40
1.0
 40
1.0
 40
1.0
 10
146.5685157526
 20
223.963688525
 30
0.0
 10
146.5688012099
 20
224.1656753166
 30
0.0
 10
146.5958485778
 20
224.5737067861
 30
0.0
 10
146.7119667395
 20
225.1802342279
 30
0.0
 10
146.901715921
 20
225.7766529628
 30
0.0
 10
147.1614569415
 20
226.3515589692
 30
0.0
 10
147.4861932187
 20
226.8939824057
 30
0.0
 10
147.8696332562
 20
227.393488905
 30
0.0
 10
148.3045459286
 20
227.8406803603
 30
0.0
 10
148.7826129314
 20
228.226927279
 30
0.0
 10
149.2948486845
 20
228.5449059888
 30
0.0
 10
149.831524782
 20
228.788491564
 30
0.0
 10
150.3822824374
 20
228.9528585869
 30
0.0
 10
150.9366246079
 20
229.0348848455
 30
0.0
 10
151.4838605352
 20
229.0330311938
 30
0.0
 10
152.0137088039
 20
228.9472897955
 30
0.0
 10
152.5159323674
 20
228.7793416031
 30
0.0
 10
152.9810225
 20
228.5323548774
 30
0.0
 10
153.4001329986
 20
228.2108389096
 30
0.0
 10
153.7648980696
 20
227.8209959045
 30
0.0
 10
154.0682612026
 20
227.370277172
 30
0.0
 10
154.3043033168
 20
226.8672796703
 30
0.0
 10
154.4684365896
 20
226.3215922369
 30
0.0
 10
154.5270155892
 20
225.9410590089
 30
0.0
 10
154.5439685472
 20
225.7474212301
 30
0.0
 11
146.5685157526
 21
223.963688525
 31
0.0
 11
146.6078261702
 21
224.5683730711
 31
0.0
 11
146.7232252566
 21
225.1744795625
 31
0.0
 11
146.9124561674
 21
225.7705900811
 31
0.0
 11
147.1720081671
 21
226.3455515197
 31
0.0
 11
147.4967319839
 21
226.8878973364
 31
0.0
 11
147.8802163709
 21
227.3870550399
 31
0.0
 11
148.3151222503
 21
227.8335790732
 31
0.0
 11
148.793356217
 21
228.2191134223
 31
0.0
 11
149.3049601757
 21
228.5357238488
 31
0.0
 11
149.8407567069
 21
228.7778533567
 31
0.0
 11
150.3904239877
 21
228.940813859
 31
0.0
 11
150.9419783065
 21
229.0213935852
 31
0.0
 11
151.486374613
 21
229.0186264069
 31
0.0
 11
152.0128566361
 21
228.9327007665
 31
0.0
 11
152.511119154
 21
228.765626856
 31
0.0
 11
152.9726366885
 21
228.5204468578
 31
0.0
 11
153.3889083776
 21
228.2014615605
 31
0.0
 11
153.7517585952
 21
227.8145508296
 31
0.0
 11
154.0538481949
 21
227.3672399725
 31
0.0
 11
154.2897123222
 21
226.866992338
 31
0.0
 11
154.4542310482
 21
226.3236105294
 31
0.0
 11
154.5439685472
 21
225.7474212301
 31
0.0
  0
SPLINE
  5
45C
100
AcDbEntity
  8
BEZUGSACHSEN
100
AcDbSpline
 62
7
  6
CONTINUOUS
 70
0
 71
3
 72
21
 73
17
 74
15
 42
0.0000001
 43
0.0000001
 44
0.0000000001
 12
-4.2738780867
 22
2.4738301212
 32
0.0
 13
-0.006968531
 23
-4.9308647507
 33
0.0
 40
0.0
 40
0.0
 40
0.0
 40
0.0
 40
0.0566277593
 40
0.1209095775
 40
0.1864804893
 40
0.2538259117
 40
0.3232279918
 40
0.3947524133
 40
0.4682603106
 40
0.5434367301
 40
0.6198285358
 40
0.6968870893
 40
0.7740130706
 40
0.8506020994
 40
0.926090423
 40
1.0
 40
1.0
 40
1.0
 40
1.0
 10
148.6405377809
 20
228.5692849801
 30
0.0
 10
148.559864401
 20
228.615980799
 30
0.0
 10
148.3791148157
 20
228.7010195841
 30
0.0
 10
148.0812035088
 20
228.7803707107
 30
0.0
 10
147.7562897435
 20
228.8052681097
 30
0.0
 10
147.4237710977
 20
228.7723917877
 30
0.0
 10
147.0918562302
 20
228.6828502331
 30
0.0
 10
146.7686065721
 20
228.5390816671
 30
0.0
 10
146.4618051096
 20
228.34476204
 30
0.0
 10
146.1788174675
 20
228.1047204584
 30
0.0
 10
145.9264409852
 20
227.8248414861
 30
0.0
 10
145.710751417
 20
227.5119371178
 30
0.0
 10
145.5369591555
 20
227.173606349
 30
0.0
 10
145.4092854209
 20
226.8180123747
 30
0.0
 10
145.3308631276
 20
226.4538592913
 30
0.0
 10
145.3125145174
 20
226.2080204944
 30
0.0
 10
145.312342837
 20
226.0865411185
 30
0.0
 11
148.6405377809
 21
228.5692849801
 31
0.0
 11
148.3878350469
 21
228.6882684651
 31
0.0
 11
148.081668483
 21
228.7702990468
 31
0.0
 11
147.7593464666
 21
228.7957035359
 31
0.0
 11
147.4288056354
 21
228.7638563896
 31
0.0
 11
147.0981850018
 21
228.6755417903
 31
0.0
 11
146.775625543
 21
228.5329343365
 31
0.0
 11
146.4690697434
 21
228.3395454971
 31
0.0
 11
146.1860660241
 21
228.100137147
 31
0.0
 11
145.933582876
 21
227.8206043145
 31
0.0
 11
145.7178372722
 21
227.5078300255
 31
0.0
 11
145.5441415853
 21
227.1695158211
 31
0.0
 11
145.4167727797
 21
226.8139921198
 31
0.0
 11
145.3388670982
 21
226.4500130951
 31
0.0
 11
145.312342837
 21
226.0865411185
 31
0.0
  0
SPLINE
  5
45D
100
AcDbEntity
  8
BEZUGSACHSEN
100
AcDbSpline
 62
7
  6
CONTINUOUS
 70
0
 71
3
 72
14
 73
10
 74
8
 42
0.0000001
 43
0.0000001
 44
0.0000000001
 12
-1.7557527582
 22
1.0162746739
 32
0.0
 13
0.0028627437
 23
2.0256495883
 33
0.0
 40
0.0
 40
0.0
 40
0.0
 40
0.0
 40
0.0170609732
 40
0.1721647474
 40
0.3292106774
 40
0.4896942127
 40
0.6546940797
 40
0.8247808342
 40
1.0
 40
1.0
 40
1.0
 40
1.0
 10
146.2105916285
 20
224.3719255949
 30
0.0
 10
146.2006066782
 20
224.3777051399
 30
0.0
 10
146.1004624067
 20
224.4370890759
 30
0.0
 10
145.9213057299
 20
224.5709445082
 30
0.0
 10
145.7047993708
 20
224.8078989533
 30
0.0
 10
145.5313042071
 20
225.0856981921
 30
0.0
 10
145.4049191395
 20
225.3972423685
 30
0.0
 10
145.328498463
 20
225.734635119
 30
0.0
 10
145.3121756345
 20
225.9682302415
 30
0.0
 10
145.312342837
 20
226.0865411185
 30
0.0
 11
146.2105916285
 21
224.3719255949
 31
0.0
 11
146.180822088
 21
224.389578919
 31
0.0
 11
145.9289995078
 21
224.5774575039
 31
0.0
 11
145.7140273295
 21
224.8119516702
 31
0.0
 11
145.5411988817
 21
225.0872873933
 31
0.0
 11
145.4147697744
 21
225.396684994
 31
0.0
 11
145.3378531116
 21
225.7325260764
 31
0.0
 11
145.312342837
 21
226.0865411185
 31
0.0
  0
SPLINE
  5
45E
100
AcDbEntity
  8
RUNDUNGEN
100
AcDbSpline
 62
9
  6
CONTINUOUS
 70
0
 71
3
 72
26
 73
22
 74
20
 42
0.0000001
 43
0.0000001
 44
0.0000000001
 12
0.0089727256
 22
6.3490134029
 32
0.0
 13
-0.0089727256
 23
-6.3490134029
 33
0.0
 40
0.0
 40
0.0
 40
0.0
 40
0.0
 40
0.0536701703
 40
0.1056744715
 40
0.1560547901
 40
0.2050194548
 40
0.2529709755
 40
0.3004384473
 40
0.348023822
 40
0.3963137375
 40
0.4457931972
 40
0.4967924684
 40
0.5494535123
 40
0.6037365797
 40
0.6594341682
 40
0.7162091202
 40
0.7736270003
 40
0.8311942729
 40
0.8884180054
 40
0.9448160843
 40
1.0
 40
1.0
 40
1.0
 40
1.0
 10
153.6252033083
 20
224.3489695777
 30
0.0
 10
153.6253638308
 20
224.4625537879
 30
0.0
 10
153.6088774867
 20
224.6866658423
 30
0.0
 10
153.531643791
 20
225.0092868014
 30
0.0
 10
153.404090472
 20
225.3049632394
 30
0.0
 10
153.2293847611
 20
225.5653695955
 30
0.0
 10
153.0121290151
 20
225.7830579387
 30
0.0
 10
152.7583237607
 20
225.9516530843
 30
0.0
 10
152.4752409694
 20
226.0662494156
 30
0.0
 10
152.1710559587
 20
226.1236930234
 30
0.0
 10
151.854417743
 20
226.1226529659
 30
0.0
 10
151.5341054932
 20
226.0635110828
 30
0.0
 10
151.2187914073
 20
225.9482025279
 30
0.0
 10
150.9168968522
 20
225.7800866487
 30
0.0
 10
150.6364308098
 20
225.5638397432
 30
0.0
 10
150.3848325126
 20
225.3053546631
 30
0.0
 10
150.1687952294
 20
225.0116085594
 30
0.0
 10
149.9940759531
 20
224.6904936457
 30
0.0
 10
149.865370031
 20
224.3505902736
 30
0.0
 10
149.7861530921
 20
224.0010779631
 30
0.0
 10
149.7675843293
 20
223.7646305223
 30
0.0
 10
149.7674192793
 20
223.6478427155
 30
0.0
 11
153.6252033083
 21
224.3489695777
 31
0.0
 11
153.599379727
 21
224.6887426341
 31
0.0
 11
153.5216514672
 21
225.0096393927
 31
0.0
 11
153.3941261957
 21
225.3029844645
 31
0.0
 11
153.2203007451
 21
225.5607238853
 31
0.0
 11
153.0048920477
 21
225.7758655677
 31
0.0
 11
152.7537907675
 21
225.9425184364
 31
0.0
 11
152.4738491824
 21
226.0561383973
 31
0.0
 11
152.17269418
 21
226.1136302806
 31
0.0
 11
151.8585481812
 21
226.1134240787
 31
0.0
 11
151.5399714451
 21
226.055524932
 31
0.0
 11
151.2256646065
 21
225.9415141258
 31
0.0
 11
150.9241922774
 21
225.7744988419
 31
0.0
 11
150.6437855496
 21
225.5590394001
 31
0.0
 11
150.3920839236
 21
225.3010054536
 31
0.0
 11
150.1759562883
 21
225.0074351116
 31
0.0
 11
150.0013127294
 21
224.6863638257
 31
0.0
 11
149.8728924811
 21
224.3465024657
 31
0.0
 11
149.794216749
 21
223.9971801842
 31
0.0
 11
149.7674192793
 21
223.6478427155
 31
0.0
  0
SPLINE
  5
45F
100
AcDbEntity
  8
RUNDUNGEN
100
AcDbSpline
 62
7
  6
CONTINUOUS
 70
0
 71
3
 72
11
 73
7
 74
5
 42
0.0000001
 43
0.0000001
 44
0.0000000001
 12
-0.0014952064
 22
-0.1007342197
 32
0.0
 13
-0.0794412718
 23
-0.059874925
 33
0.0
 40
0.0
 40
0.0
 40
0.0
 40
0.0
 40
0.1096815418
 40
0.3649135551
 40
0.6686076839
 40
1.0
 40
1.0
 40
1.0
 40
1.0
 10
150.3973847487
 20
222.9207270715
 30
0.0
 10
150.3973300832
 20
222.9170441767
 30
0.0
 10
150.3951287831
 20
222.9046485564
 30
0.0
 10
150.38482011
 20
222.884877965
 30
0.0
 10
150.3657126555
 20
222.8620989656
 30
0.0
 10
150.3497070753
 20
222.8482988415
 30
0.0
 10
150.3409316663
 20
222.8416848114
 30
0.0
 11
150.3973847487
 21
222.9207270715
 31
0.0
 11
150.3956973823
 21
222.9097377255
 31
0.0
 11
150.3848629579
 21
222.8867753849
 31
0.0
 11
150.3657638354
 21
222.863367573
 31
0.0
 11
150.3409316663
 21
222.8416848114
 31
0.0
  0
LINE
  5
460
100
AcDbEntity
  8
RUNDUNGEN
100
AcDbLine
 62
9
  6
CONTINUOUS
 10
150.4352596859
 20
222.8054432282
 11
150.3409316191
 21
222.8416848457
  0
LINE
  5
461
100
AcDbEntity
  8
RUNDUNGEN
100
AcDbLine
 62
9
  6
CONTINUOUS
 10
151.7386721344
 20
222.2194295471
 11
151.65093996
 21
222.2642387053
  0
SPLINE
  5
462
100
AcDbEntity
  8
RUNDUNGEN
100
AcDbSpline
 62
7
  6
CONTINUOUS
 70
0
 71
3
 72
11
 73
7
 74
5
 42
0.0000001
 43
0.0000001
 44
0.0000000001
 12
0.0715371433
 22
0.0593714979
 32
0.0
 13
-0.0027377294
 23
0.0903350589
 33
0.0
 40
0.0
 40
0.0
 40
0.0
 40
0.0
 40
0.0794568969
 40
0.3328994615
 40
0.6469959131
 40
1.0
 40
1.0
 40
1.0
 40
1.0
 10
151.7211489514
 20
225.6400249366
 30
0.0
 10
151.7230436579
 20
225.6415974283
 30
0.0
 10
151.7302842981
 20
225.6492418003
 30
0.0
 10
151.738029527
 20
225.6672827643
 30
0.0
 10
151.7433548109
 20
225.6946827606
 30
0.0
 10
151.7439492347
 20
225.7148422551
 30
0.0
 10
151.7436270915
 20
225.7254718034
 30
0.0
 11
151.7211489514
 21
225.6400249366
 31
0.0
 11
151.7263146089
 21
225.6453398964
 31
0.0
 11
151.7366032999
 21
225.6658043487
 31
0.0
 11
151.7424059833
 21
225.693591895
 31
0.0
 11
151.7436270915
 21
225.7254718034
 31
0.0
  0
SPLINE
  5
463
100
AcDbEntity
  8
RUNDUNGEN
100
AcDbSpline
 62
9
  6
CONTINUOUS
 70
0
 71
3
 72
26
 73
22
 74
20
 42
0.0000001
 43
0.0000001
 44
0.0000000001
 12
-0.0089727256
 22
-6.3490134005
 32
0.0
 13
0.0089727256
 23
6.3490134005
 33
0.0
 40
0.0
 40
0.0
 40
0.0
 40
0.0
 40
0.0536701353
 40
0.1056745152
 40
0.1560547922
 40
0.2050194689
 40
0.2529709826
 40
0.3004384536
 40
0.3480238262
 40
0.3963137405
 40
0.4457931993
 40
0.49679247
 40
0.5494535137
 40
0.6037365812
 40
0.65943417
 40
0.7162091221
 40
0.7736270026
 40
0.8311942754
 40
0.8884180026
 40
0.9448161045
 40
1.0
 40
1.0
 40
1.0
 40
1.0
 10
149.7674192793
 20
223.6478427155
 30
0.0
 10
149.7672587568
 20
223.5342585794
 30
0.0
 10
149.7837444242
 20
223.3101463399
 30
0.0
 10
149.8609792906
 20
222.9875256459
 30
0.0
 10
149.9885320392
 20
222.6918489057
 30
0.0
 10
150.1632379224
 20
222.4314427066
 30
0.0
 10
150.3804936033
 20
222.2137543187
 30
0.0
 10
150.6342988587
 20
222.0451591947
 30
0.0
 10
150.9173816375
 20
221.930562866
 30
0.0
 10
151.2215666411
 20
221.8731192637
 30
0.0
 10
151.5382048506
 20
221.8741593247
 30
0.0
 10
151.8585170965
 20
221.9333012102
 30
0.0
 10
152.173831181
 20
222.0486097656
 30
0.0
 10
152.4757257346
 20
222.2167256457
 30
0.0
 10
152.7561917876
 20
222.432972544
 30
0.0
 10
153.0077900617
 20
222.6914576371
 30
0.0
 10
153.2238274434
 20
222.985203693
 30
0.0
 10
153.3985464673
 20
223.3063186947
 30
0.0
 10
153.5272530243
 20
223.6462219094
 30
0.0
 10
153.6064689036
 20
223.9957344452
 30
0.0
 10
153.6250382583
 20
224.2321818137
 30
0.0
 10
153.6252033083
 20
224.3489695777
 30
0.0
 11
149.7674192793
 21
223.6478427155
 31
0.0
 11
149.7932425201
 21
223.3080698562
 31
0.0
 11
149.8709714058
 21
222.9871727353
 31
0.0
 11
149.9984963934
 21
222.6938278278
 31
0.0
 11
150.1723219175
 21
222.4360883645
 31
0.0
 11
150.3877305748
 21
222.2209467053
 31
0.0
 11
150.6388318504
 21
222.0542938393
 31
0.0
 11
150.9187734238
 21
221.9406738851
 31
0.0
 11
151.2199284186
 21
221.8831820062
 31
0.0
 11
151.5340744116
 21
221.8833882115
 31
0.0
 11
151.852651144
 21
221.9412873604
 31
0.0
 11
152.1669579811
 21
222.0552981674
 31
0.0
 11
152.4684303109
 21
222.2223134509
 31
0.0
 11
152.7488370424
 21
222.4377728905
 31
0.0
 11
153.0005386703
 21
222.6958068359
 31
0.0
 11
153.216666327
 21
222.9893771656
 31
0.0
 11
153.3913098422
 21
223.3104484768
 31
0.0
 11
153.5197302733
 21
223.6503097309
 31
0.0
 11
153.5984055823
 21
223.9996322573
 31
0.0
 11
153.6252033083
 21
224.3489695777
 31
0.0
  0
SPLINE
  5
464
100
AcDbEntity
  8
RUNDUNGEN
100
AcDbSpline
 62
7
  6
CONTINUOUS
 70
0
 71
3
 72
11
 73
7
 74
5
 42
0.0000001
 43
0.0000001
 44
0.0000000001
 12
-0.0171266114
 22
-0.0568867629
 32
0.0
 13
-0.0542211904
 23
0.0244206319
 33
0.0
 40
0.0
 40
0.0
 40
0.0
 40
0.0
 40
0.008595282
 40
0.1991342933
 40
0.5448237878
 40
1.0
 40
1.0
 40
1.0
 40
1.0
 10
150.3982187582
 20
224.5731367542
 30
0.0
 10
150.3981696889
 20
224.5729737682
 30
0.0
 10
150.3968399577
 20
224.5693946878
 30
0.0
 10
150.3823810675
 20
224.5804761856
 30
0.0
 10
150.3670800991
 20
224.5829936588
 30
0.0
 10
150.3516358511
 20
224.5910007274
 30
0.0
 10
150.3434091191
 20
224.5947059576
 30
0.0
 11
150.3982187582
 21
224.5731367542
 31
0.0
 11
150.3980475294
 21
224.5726790129
 31
0.0
 11
150.3872504137
 21
224.5761153253
 31
0.0
 11
150.3681952761
 21
224.5838285922
 31
0.0
 11
150.3434091191
 21
224.5947059576
 31
0.0
  0
SPLINE
  5
465
100
AcDbEntity
  8
RUNDUNGEN
100
AcDbSpline
 62
9
  6
CONTINUOUS
 70
0
 71
3
 72
13
 73
9
 74
7
 42
0.0000001
 43
0.0000001
 44
0.0000000001
 12
1.5633616611
 22
0.3807119098
 32
0.0
 13
0.7709083725
 23
1.4123531863
 33
0.0
 40
0.0
 40
0.0
 40
0.0
 40
0.0
 40
0.1573481313
 40
0.3193431414
 40
0.4855343147
 40
0.6551206841
 40
0.8270299521
 40
1.0
 40
1.0
 40
1.0
 40
1.0
 10
151.8284729442
 20
222.2965041478
 30
0.0
 10
151.9104702895
 20
222.3164722503
 30
0.0
 10
152.0738380941
 20
222.3705887448
 30
0.0
 10
152.3067647543
 20
222.4889831709
 30
0.0
 10
152.5259620614
 20
222.6429153275
 30
0.0
 10
152.7261917764
 20
222.8286465279
 30
0.0
 10
152.9027282391
 20
223.041674974
 30
0.0
 10
153.0018602725
 20
223.1985527234
 30
0.0
 10
153.0463082919
 20
223.2799843229
 30
0.0
 11
151.8284729442
 21
222.2965041478
 31
0.0
 11
152.068992195
 21
222.3755680321
 31
0.0
 11
152.3016031159
 21
222.49318934
 31
0.0
 11
152.5206864901
 21
222.646520731
 31
0.0
 11
152.7209594698
 21
222.8318592326
 31
0.0
 11
152.8975908202
 21
223.0447319054
 31
0.0
 11
153.0463082919
 21
223.2799843229
 31
0.0
  0
SPLINE
  5
466
100
AcDbEntity
  8
RUNDUNGEN
100
AcDbSpline
 62
7
  6
CONTINUOUS
 70
0
 71
3
 72
12
 73
8
 74
6
 42
0.0000001
 43
0.0000001
 44
0.0000000001
 12
0.1374101969
 22
-0.0610078618
 32
0.0
 13
0.1137503624
 23
0.0985039156
 33
0.0
 40
0.0
 40
0.0
 40
0.0
 40
0.0
 40
0.1290632211
 40
0.3216280635
 40
0.5425510045
 40
0.7744493516
 40
1.0
 40
1.0
 40
1.0
 40
1.0
 10
153.0043198645
 20
225.0553418964
 30
0.0
 10
153.0102313987
 20
225.0527172726
 30
0.0
 10
153.0268591049
 20
225.0501850174
 30
0.0
 10
153.0538523532
 20
225.0544338149
 30
0.0
 10
153.0844511392
 20
225.065588886
 30
0.0
 10
153.1143351785
 20
225.082061207
 30
0.0
 10
153.1328154555
 20
225.0958106287
 30
0.0
 10
153.1413676115
 20
225.1032165028
 30
0.0
 11
153.0043198645
 21
225.0553418964
 31
0.0
 11
153.0234753735
 21
225.051498321
 31
0.0
 11
153.0522315411
 21
225.0550594919
 31
0.0
 11
153.08356873
 21
225.0661534352
 31
0.0
 11
153.1141852495
 21
225.082894193
 31
0.0
 11
153.1413676115
 21
225.1032165028
 31
0.0
  0
SPLINE
  5
467
100
AcDbEntity
  8
RUNDUNGEN
100
AcDbSpline
 62
9
  6
CONTINUOUS
 70
0
 71
3
 72
13
 73
9
 74
7
 42
0.0000001
 43
0.0000001
 44
0.0000000001
 12
0.7852714027
 22
-1.1593063534
 32
0.0
 13
1.3902627937
 23
0.1667685865
 33
0.0
 40
0.0
 40
0.0
 40
0.0
 40
0.0
 40
0.1672021044
 40
0.3318463978
 40
0.495675569
 40
0.6605493996
 40
0.8281965513
 40
1.0
 40
1.0
 40
1.0
 40
1.0
 10
150.435259572
 20
222.8054433964
 30
0.0
 10
150.4790259157
 20
222.7408305757
 30
0.0
 10
150.5774258761
 20
222.6199225143
 30
0.0
 10
150.755024107
 20
222.4696256929
 30
0.0
 10
150.9568511007
 20
222.355902436
 30
0.0
 10
151.1777579034
 20
222.2817083355
 30
0.0
 10
151.4120795135
 20
222.2487743932
 30
0.0
 10
151.5713228497
 20
222.254688257
 30
0.0
 10
151.6509401638
 20
222.2642387297
 30
0.0
 11
150.435259572
 21
222.8054433964
 31
0.0
 11
150.5833883926
 21
222.6241407836
 31
0.0
 11
150.7595086598
 21
222.4753784148
 31
0.0
 11
150.9593604475
 21
222.3627600341
 31
0.0
 11
151.1781228097
 21
222.2890042463
 31
0.0
 11
151.4105206557
 21
222.2558952089
 31
0.0
 11
151.6509401638
 21
222.2642387297
 31
0.0
  0
SPLINE
  5
468
100
AcDbEntity
  8
RUNDUNGEN
100
AcDbSpline
 62
9
  6
CONTINUOUS
 70
0
 71
3
 72
10
 73
6
 74
4
 42
0.0000001
 43
0.0000001
 44
0.0000000001
 12
-0.0010694126
 22
-0.7567059624
 32
0.0
 13
0.3413923579
 23
-0.6753194171
 33
0.0
 40
0.0
 40
0.0
 40
0.0
 40
0.0
 40
0.3431620754
 40
0.6765068396
 40
1.0
 40
1.0
 40
1.0
 40
1.0
 10
150.1808334385
 20
223.6881528032
 30
0.0
 10
150.1807111112
 20
223.601595207
 30
0.0
 10
150.1925446225
 20
223.430629057
 30
0.0
 10
150.247894992
 20
223.1835952305
 30
0.0
 10
150.3099163098
 20
223.0289770696
 30
0.0
 10
150.3467290074
 20
222.9561566654
 30
0.0
 11
150.1808334385
 21
223.6881528032
 31
0.0
 11
150.1993063774
 21
223.429137664
 31
0.0
 11
150.2550504686
 21
223.1831300543
 31
0.0
 11
150.3467290074
 21
222.9561566654
 31
0.0
  0
SPLINE
  5
469
100
AcDbEntity
  8
RUNDUNGEN
100
AcDbSpline
 62
9
  6
CONTINUOUS
 70
0
 71
3
 72
10
 73
6
 74
4
 42
0.0000001
 43
0.0000001
 44
0.0000000001
 12
-0.321683233
 22
-0.7490427943
 32
0.0
 13
-0.0011520729
 23
-0.8151956102
 33
0.0
 40
0.0
 40
0.0
 40
0.0
 40
0.0
 40
0.3389345824
 40
0.6729691725
 40
1.0
 40
1.0
 40
1.0
 40
1.0
 10
150.3488837638
 20
224.4808414031
 30
0.0
 10
150.3125405731
 20
224.3962159009
 30
0.0
 10
150.2510795144
 20
224.2233297031
 30
0.0
 10
150.194254727
 20
223.9568626187
 30
0.0
 10
150.1809590263
 20
223.7770175015
 30
0.0
 10
150.1808334385
 20
223.6881528032
 30
0.0
 11
150.3488837638
 21
224.4808414031
 31
0.0
 11
150.2565217801
 21
224.220437885
 31
0.0
 11
150.200053283
 21
223.9540534445
 31
0.0
 11
150.1808334385
 21
223.6881528032
 31
0.0
  0
LINE
  5
46A
100
AcDbEntity
  8
RUNDUNGEN
100
AcDbLine
 62
9
  6
CONTINUOUS
 10
151.6905211303
 20
222.3624684549
 11
151.6455745459
 21
222.3824500454
  0
LINE
  5
46B
100
AcDbEntity
  8
RUNDUNGEN
100
AcDbLine
 62
9
  6
CONTINUOUS
 10
150.4298968616
 20
222.9236534176
 11
150.3961063126
 21
222.9387118783
  0
SPLINE
  5
46C
100
AcDbEntity
  8
RUNDUNGEN
100
AcDbSpline
 62
9
  6
CONTINUOUS
 70
0
 71
3
 72
11
 73
7
 74
5
 42
0.0000001
 43
0.0000001
 44
0.0000000001
 12
-0.1364288045
 22
-0.0247950375
 32
0.0
 13
-0.1200073049
 23
0.0694684055
 33
0.0
 40
0.0
 40
0.0
 40
0.0
 40
0.0
 40
0.2688990842
 40
0.5495609181
 40
0.8039907988
 40
1.0
 40
1.0
 40
1.0
 40
1.0
 10
153.137465195
 20
224.9876459616
 30
0.0
 10
153.1252366681
 20
224.9854235073
 30
0.0
 10
153.0998628567
 20
224.9829546796
 30
0.0
 10
153.0626022338
 20
224.9838586784
 30
0.0
 10
153.029178013
 20
224.9890280715
 30
0.0
 10
153.009111366
 20
224.9956638016
 30
0.0
 10
153.0012705207
 20
225.0002026171
 30
0.0
 11
153.137465195
 21
224.9876459616
 31
0.0
 11
153.1003831242
 21
224.9837465285
 31
0.0
 11
153.0614788156
 21
224.9847635316
 31
0.0
 11
153.0266750976
 21
224.9905421415
 31
0.0
 11
153.0012705207
 21
225.0002026171
 31
0.0
  0
SPLINE
  5
46D
100
AcDbEntity
  8
RUNDUNGEN
100
AcDbSpline
 62
9
  6
CONTINUOUS
 70
0
 71
3
 72
11
 73
7
 74
5
 42
0.0000001
 43
0.0000001
 44
0.0000000001
 12
-0.1364288045
 22
-0.0247950375
 32
0.0
 13
-0.1200073048
 23
0.0694684056
 33
0.0
 40
0.0
 40
0.0
 40
0.0
 40
0.0
 40
0.268899084
 40
0.5495609178
 40
0.8039907986
 40
1.0
 40
1.0
 40
1.0
 40
1.0
 10
153.1353104435
 20
223.4629647658
 30
0.0
 10
153.1230819166
 20
223.4607423115
 30
0.0
 10
153.0977081053
 20
223.4582734838
 30
0.0
 10
153.0604474824
 20
223.4591774826
 30
0.0
 10
153.0270232615
 20
223.4643468758
 30
0.0
 10
153.0069566145
 20
223.4709826058
 30
0.0
 10
152.9991157692
 20
223.4755214214
 30
0.0
 11
153.1353104435
 21
223.4629647658
 31
0.0
 11
153.0982283727
 21
223.4590653327
 31
0.0
 11
153.0593240642
 21
223.4600823359
 31
0.0
 11
153.0245203461
 21
223.4658609458
 31
0.0
 11
152.9991157692
 21
223.4755214214
 31
0.0
  0
SPLINE
  5
46E
100
AcDbEntity
  8
RUNDUNGEN
100
AcDbSpline
 62
7
  6
CONTINUOUS
 70
0
 71
3
 72
12
 73
8
 74
6
 42
0.0000001
 43
0.0000001
 44
0.0000000001
 12
0.1351016446
 22
-0.0782060372
 32
0.0
 13
0.1429088206
 23
-0.0628148679
 33
0.0
 40
0.0
 40
0.0
 40
0.0
 40
0.0
 40
0.1629869986
 40
0.3696840366
 40
0.5928761263
 40
0.8093060381
 40
1.0
 40
1.0
 40
1.0
 40
1.0
 10
152.998826091
 20
223.4190086468
 30
0.0
 10
153.0061660282
 20
223.414759791
 30
0.0
 10
153.0231193063
 20
223.4056558891
 30
0.0
 10
153.0506065829
 20
223.3916500766
 30
0.0
 10
153.0808289128
 20
223.3768919857
 30
0.0
 10
153.1105040575
 20
223.3629216091
 30
0.0
 10
153.1298062101
 20
223.3541881613
 30
0.0
 10
153.1388901598
 20
223.350195356
 30
0.0
 11
152.998826091
 21
223.4190086468
 31
0.0
 11
153.0211510145
 21
223.4068043494
 31
0.0
 11
153.0498813941
 21
223.3921182045
 31
0.0
 11
153.0811812743
 21
223.3768134948
 31
0.0
 11
153.1117538087
 21
223.3624331738
 31
0.0
 11
153.1388901598
 21
223.350195356
 31
0.0
  0
SPLINE
  5
46F
100
AcDbEntity
  8
RUNDUNGEN
100
AcDbSpline
 62
9
  6
CONTINUOUS
 70
0
 71
3
 72
11
 73
7
 74
5
 42
0.0000001
 43
0.0000001
 44
0.0000000001
 12
-0.0518021099
 22
-0.1064994211
 32
0.0
 13
-0.1092413011
 23
0.0471606649
 33
0.0
 40
0.0
 40
0.0
 40
0.0
 40
0.0
 40
0.3221702575
 40
0.6077146695
 40
0.838890078
 40
1.0
 40
1.0
 40
1.0
 40
1.0
 10
151.8332554807
 20
225.6795650307
 30
0.0
 10
151.8276924477
 20
225.6681280487
 30
0.0
 10
151.8148615341
 20
225.6475480231
 30
0.0
 10
151.7908381743
 20
225.6242843658
 30
0.0
 10
151.7659107215
 20
225.6123394801
 30
0.0
 10
151.7494090358
 20
225.6140913251
 30
0.0
 10
151.7435424167
 20
225.6166240087
 30
0.0
 11
151.8332554807
 21
225.6795650307
 31
0.0
 11
151.8128032413
 21
225.6473552039
 31
0.0
 11
151.787997023
 21
225.6243718142
 31
0.0
 11
151.7626133477
 21
225.6141138742
 31
0.0
 11
151.7435424167
 21
225.6166240087
 31
0.0
  0
SPLINE
  5
470
100
AcDbEntity
  8
RUNDUNGEN
100
AcDbSpline
 62
9
  6
CONTINUOUS
 70
0
 71
3
 72
11
 73
7
 74
5
 42
0.0000001
 43
0.0000001
 44
0.0000000001
 12
-0.0518020699
 22
-0.106499339
 32
0.0
 13
-0.1092413791
 23
0.0471603056
 33
0.0
 40
0.0
 40
0.0
 40
0.0
 40
0.0
 40
0.3221705054
 40
0.6077151375
 40
0.8388907242
 40
1.0
 40
1.0
 40
1.0
 40
1.0
 10
153.048933165
 20
225.1383616584
 30
0.0
 10
153.043370132
 20
225.1269246765
 30
0.0
 10
153.0305392184
 20
225.1063446509
 30
0.0
 10
153.0065158587
 20
225.0830809936
 30
0.0
 10
152.9815884342
 20
225.0711361214
 30
0.0
 10
152.965086785
 20
225.0728879459
 30
0.0
 10
152.9592201851
 20
225.0754206002
 30
0.0
 11
153.048933165
 21
225.1383616584
 31
0.0
 11
153.0284809256
 21
225.1061518317
 31
0.0
 11
153.0036747073
 21
225.083168442
 31
0.0
 11
152.978291032
 21
225.072910502
 31
0.0
 11
152.9592201851
 21
225.0754206002
 31
0.0
  0
SPLINE
  5
471
100
AcDbEntity
  8
RUNDUNGEN
100
AcDbSpline
 62
9
  6
CONTINUOUS
 70
0
 71
3
 72
13
 73
9
 74
7
 42
0.0000001
 43
0.0000001
 44
0.0000000001
 12
-1.5633616611
 22
-0.3807119098
 32
0.0
 13
-0.7709083725
 23
-1.4123531863
 33
0.0
 40
0.0
 40
0.0
 40
0.0
 40
0.0
 40
0.1573481313
 40
0.3193431414
 40
0.4855343147
 40
0.6551206841
 40
0.8270299521
 40
1.0
 40
1.0
 40
1.0
 40
1.0
 10
151.6557212607
 20
225.6473002535
 30
0.0
 10
151.5737239154
 20
225.627332151
 30
0.0
 10
151.4103561107
 20
225.5732156566
 30
0.0
 10
151.1774294505
 20
225.4548212304
 30
0.0
 10
150.9582321434
 20
225.3008890738
 30
0.0
 10
150.7580024285
 20
225.1151578734
 30
0.0
 10
150.5814659657
 20
224.9021294274
 30
0.0
 10
150.4823339323
 20
224.7452516779
 30
0.0
 10
150.4378859129
 20
224.6638200784
 30
0.0
 11
151.6557212607
 21
225.6473002535
 31
0.0
 11
151.4152020099
 21
225.5682363692
 31
0.0
 11
151.1825910889
 21
225.4506150613
 31
0.0
 11
150.9635077147
 21
225.2972836703
 31
0.0
 11
150.763234735
 21
225.1119451687
 31
0.0
 11
150.5866033846
 21
224.8990724959
 31
0.0
 11
150.4378859129
 21
224.6638200784
 31
0.0
  0
SPLINE
  5
472
100
AcDbEntity
  8
RUNDUNGEN
100
AcDbSpline
 62
9
  6
CONTINUOUS
 70
0
 71
3
 72
10
 73
6
 74
4
 42
0.0000001
 43
0.0000001
 44
0.0000000001
 12
0.0267579626
 22
-0.0455523834
 32
0.0
 13
-0.0401743463
 23
-0.0377321093
 33
0.0
 40
0.0
 40
0.0
 40
0.0
 40
0.0
 40
0.5518850928
 40
0.8959806884
 40
1.0
 40
1.0
 40
1.0
 40
1.0
 10
150.4378873882
 20
224.6638212698
 30
0.0
 10
150.4428098284
 20
224.655441376
 30
0.0
 10
150.4487299976
 20
224.6418061922
 30
0.0
 10
150.4573391201
 20
224.6237294106
 30
0.0
 10
150.4524499667
 20
224.6163707442
 30
0.0
 10
150.4510569974
 20
224.6150624549
 30
0.0
 11
150.4378873882
 21
224.6638212698
 31
0.0
 11
150.4507833961
 21
224.6376722675
 31
0.0
 11
150.4542484567
 21
224.6198269967
 31
0.0
 11
150.4510569974
 21
224.6150624549
 31
0.0
  0
SPLINE
  5
473
100
AcDbEntity
  8
RUNDUNGEN
100
AcDbSpline
 62
9
  6
CONTINUOUS
 70
0
 71
3
 72
10
 73
6
 74
4
 42
0.0000001
 43
0.0000001
 44
0.0000000001
 12
0.0267579138
 22
-0.0455523003
 32
0.0
 13
-0.0401740118
 23
-0.037732445
 33
0.0
 40
0.0
 40
0.0
 40
0.0
 40
0.0
 40
0.5518860994
 40
0.8959823229
 40
1.0
 40
1.0
 40
1.0
 40
1.0
 10
151.6557198239
 20
225.6472990933
 30
0.0
 10
151.6606422641
 20
225.6389191995
 30
0.0
 10
151.6665624334
 20
225.6252840157
 30
0.0
 10
151.6751715402
 20
225.6072072671
 30
0.0
 10
151.6702824423
 20
225.5998486277
 30
0.0
 10
151.6688895065
 20
225.5985403472
 30
0.0
 11
151.6557198239
 21
225.6472990933
 31
0.0
 11
151.6686158318
 21
225.6211500911
 31
0.0
 11
151.6720808925
 21
225.6033048203
 31
0.0
 11
151.6688895065
 21
225.5985403472
 31
0.0
  0
SPLINE
  5
474
100
AcDbEntity
  8
RUNDUNGEN
100
AcDbSpline
 62
9
  6
CONTINUOUS
 70
0
 71
3
 72
10
 73
6
 74
4
 42
0.0000001
 43
0.0000001
 44
0.0000000001
 12
0.0597391327
 22
0.0108571943
 32
0.0
 13
0.0049898604
 23
0.061351166
 33
0.0
 40
0.0
 40
0.0
 40
0.0
 40
0.0
 40
0.5061891161
 40
0.8511271923
 40
1.0
 40
1.0
 40
1.0
 40
1.0
 10
150.3467290099
 20
222.9561584398
 30
0.0
 10
150.3568087761
 20
222.957990371
 30
0.0
 10
150.3730616794
 20
222.9626484979
 30
0.0
 10
150.3928302308
 20
222.9709437214
 30
0.0
 10
150.3970084613
 20
222.9814010398
 30
0.0
 10
150.3972560795
 20
222.9844455466
 30
0.0
 11
150.3467290099
 21
222.9561584398
 31
0.0
 11
150.3763434337
 21
222.9643806557
 31
0.0
 11
150.3939816831
 21
222.9756738967
 31
0.0
 11
150.3972560795
 21
222.9844455466
 31
0.0
  0
SPLINE
  5
475
100
AcDbEntity
  8
RUNDUNGEN
100
AcDbSpline
 62
9
  6
CONTINUOUS
 70
0
 71
3
 72
10
 73
6
 74
4
 42
0.0000001
 43
0.0000001
 44
0.0000000001
 12
0.0597393106
 22
0.0108572266
 32
0.0
 13
0.0049890594
 23
0.0613512615
 33
0.0
 40
0.0
 40
0.0
 40
0.0
 40
0.0
 40
0.5061876083
 40
0.8511246573
 40
1.0
 40
1.0
 40
1.0
 40
1.0
 10
150.3488837614
 20
224.4808396355
 30
0.0
 10
150.3589635276
 20
224.4826715667
 30
0.0
 10
150.3752164308
 20
224.4873296937
 30
0.0
 10
150.3949850412
 20
224.4956249418
 30
0.0
 10
150.3991632632
 20
224.5060823617
 30
0.0
 10
150.3994108458
 20
224.509126925
 30
0.0
 11
150.3488837614
 21
224.4808396355
 31
0.0
 11
150.3784981852
 21
224.4890618515
 31
0.0
 11
150.3961364346
 21
224.5003550925
 31
0.0
 11
150.3994108458
 21
224.509126925
 31
0.0
  0
SPLINE
  5
476
100
AcDbEntity
  8
RUNDUNGEN
100
AcDbSpline
 62
9
  6
CONTINUOUS
 70
0
 71
3
 72
11
 73
7
 74
5
 42
0.0000001
 43
0.0000001
 44
0.0000000001
 12
0.0556087982
 22
0.1143255521
 32
0.0
 13
-0.1100275792
 23
0.0636914603
 33
0.0
 40
0.0
 40
0.0
 40
0.0
 40
0.0
 40
0.3049694488
 40
0.583975536
 40
0.8152015762
 40
1.0
 40
1.0
 40
1.0
 40
1.0
 10
151.6509387241
 20
222.2642393707
 30
0.0
 10
151.656591719
 20
222.2758613042
 30
0.0
 10
151.6650754821
 20
222.2993705157
 30
0.0
 10
151.6690903455
 20
222.3340117343
 30
0.0
 10
151.6640300162
 20
222.3636535102
 30
0.0
 10
151.652352187
 20
222.3785266849
 30
0.0
 10
151.6455745459
 20
222.3824500454
 30
0.0
 11
151.6509387241
 21
222.2642393707
 31
0.0
 11
151.6639233167
 21
222.3007719803
 31
0.0
 11
151.6674634758
 21
222.3360656142
 31
0.0
 11
151.6610202443
 21
222.3647471365
 31
0.0
 11
151.6455745459
 21
222.3824500454
 31
0.0
  0
SPLINE
  5
477
100
AcDbEntity
  8
RUNDUNGEN
100
AcDbSpline
 62
9
  6
CONTINUOUS
 70
0
 71
3
 72
11
 73
7
 74
5
 42
0.0000001
 43
0.0000001
 44
0.0000000001
 12
0.0556087982
 22
0.1143255521
 32
0.0
 13
-0.1100275792
 23
0.0636914603
 33
0.0
 40
0.0
 40
0.0
 40
0.0
 40
0.0
 40
0.3049694486
 40
0.5839755358
 40
0.815201576
 40
1.0
 40
1.0
 40
1.0
 40
1.0
 10
150.4352610398
 20
222.8054427429
 30
0.0
 10
150.4409140347
 20
222.8170646764
 30
0.0
 10
150.4493977978
 20
222.8405738879
 30
0.0
 10
150.4534126611
 20
222.8752151065
 30
0.0
 10
150.4483523319
 20
222.9048568824
 30
0.0
 10
150.4366745027
 20
222.9197300572
 30
0.0
 10
150.4298968616
 20
222.9236534176
 30
0.0
 11
150.4352610398
 21
222.8054427429
 31
0.0
 11
150.4482456323
 21
222.8419753525
 31
0.0
 11
150.4517857915
 21
222.8772689864
 31
0.0
 11
150.44534256
 21
222.9059505087
 31
0.0
 11
150.4298968616
 21
222.9236534176
 31
0.0
  0
SPLINE
  5
478
100
AcDbEntity
  8
RUNDUNGEN
100
AcDbSpline
 62
9
  6
CONTINUOUS
 70
0
 71
3
 72
11
 73
7
 74
5
 42
0.0000001
 43
0.0000001
 44
0.0000000001
 12
-0.0703912837
 22
0.1198331426
 32
0.0
 13
-0.1202794408
 23
0.0696259364
 33
0.0
 40
0.0
 40
0.0
 40
0.0
 40
0.0
 40
0.2637091845
 40
0.544327384
 40
0.8016830989
 40
1.0
 40
1.0
 40
1.0
 40
1.0
 10
153.0463068167
 20
223.2799831315
 30
0.0
 10
153.0401192074
 20
223.2905168317
 30
0.0
 10
153.0259254516
 20
223.3114242483
 30
0.0
 10
153.0023653422
 20
223.3402094732
 30
0.0
 10
152.9783645763
 20
223.3644621189
 30
0.0
 10
152.9617506173
 20
223.377753442
 30
0.0
 10
152.9537994687
 20
223.3823561086
 30
0.0
 11
153.0463068167
 21
223.2799831315
 31
0.0
 11
153.0259431619
 21
223.3104549167
 31
0.0
 11
153.001212042
 21
223.3406104316
 31
0.0
 11
152.9758785459
 21
223.3658587726
 31
0.0
 11
152.9537994687
 21
223.3823561086
 31
0.0
  0
SPLINE
  5
479
100
AcDbEntity
  8
RUNDUNGEN
100
AcDbSpline
 62
9
  6
CONTINUOUS
 70
0
 71
3
 72
11
 73
7
 74
5
 42
0.0000001
 43
0.0000001
 44
0.0000000001
 12
-0.0703912837
 22
0.1198331426
 32
0.0
 13
-0.1202794408
 23
0.0696259364
 33
0.0
 40
0.0
 40
0.0
 40
0.0
 40
0.0
 40
0.2637091843
 40
0.5443273836
 40
0.8016830987
 40
1.0
 40
1.0
 40
1.0
 40
1.0
 10
151.8284743809
 20
222.296505308
 30
0.0
 10
151.8222867716
 20
222.3070390081
 30
0.0
 10
151.8080930158
 20
222.3279464247
 30
0.0
 10
151.7845329065
 20
222.3567316496
 30
0.0
 10
151.7605321406
 20
222.3809842954
 30
0.0
 10
151.7439181815
 20
222.3942756185
 30
0.0
 10
151.7359670329
 20
222.3988782851
 30
0.0
 11
151.8284743809
 21
222.296505308
 31
0.0
 11
151.8081107261
 21
222.3269770931
 31
0.0
 11
151.7833796063
 21
222.3571326081
 31
0.0
 11
151.7580461101
 21
222.3823809491
 31
0.0
 11
151.7359670329
 21
222.3988782851
 31
0.0
  0
SPLINE
  5
47A
100
AcDbEntity
  8
RUNDUNGEN
100
AcDbSpline
 62
7
  6
CONTINUOUS
 70
0
 71
3
 72
12
 73
8
 74
6
 42
0.0000001
 43
0.0000001
 44
0.0000000001
 12
0.1348227098
 22
-0.0780445452
 32
0.0
 13
-0.0053465876
 23
-0.1556904882
 33
0.0
 40
0.0
 40
0.0
 40
0.0
 40
0.0
 40
0.1520349583
 40
0.3446451288
 40
0.5623067662
 40
0.7864998881
 40
1.0
 40
1.0
 40
1.0
 40
1.0
 10
151.6905211303
 20
222.3624684549
 30
0.0
 10
151.6973537186
 20
222.3585132885
 30
0.0
 10
151.7097653068
 20
222.344720853
 30
0.0
 10
151.722929306
 20
222.3186045513
 30
0.0
 10
151.7326709227
 20
222.2869565303
 30
0.0
 10
151.7381965615
 20
222.253301637
 30
0.0
 10
151.739052686
 20
222.2305094893
 30
0.0
 10
151.738672187
 20
222.2194295104
 30
0.0
 11
151.6905211303
 21
222.3624684549
 31
0.0
 11
151.7074588988
 21
222.345913684
 31
0.0
 11
151.7216143146
 21
222.3194573209
 31
0.0
 11
151.7318283882
 21
222.2871244714
 31
0.0
 11
151.7375431016
 21
222.252669871
 31
0.0
 11
151.738672187
 21
222.2194295104
 31
0.0
  0
SPLINE
  5
47B
100
AcDbEntity
  8
RUNDUNGEN
100
AcDbSpline
 62
9
  6
CONTINUOUS
 70
0
 71
3
 72
13
 73
9
 74
7
 42
0.0000001
 43
0.0000001
 44
0.0000000001
 12
-0.7852714027
 22
1.1593063534
 32
0.0
 13
-1.3902627937
 23
-0.1667685865
 33
0.0
 40
0.0
 40
0.0
 40
0.0
 40
0.0
 40
0.1672021044
 40
0.3318463978
 40
0.495675569
 40
0.6605493996
 40
0.8281965513
 40
1.0
 40
1.0
 40
1.0
 40
1.0
 10
153.0489346329
 20
225.138361005
 30
0.0
 10
153.0051682892
 20
225.2029738256
 30
0.0
 10
152.9067683287
 20
225.323881887
 30
0.0
 10
152.7291700978
 20
225.4741787084
 30
0.0
 10
152.5273431042
 20
225.5879019653
 30
0.0
 10
152.3064363014
 20
225.6620960659
 30
0.0
 10
152.0721146913
 20
225.6950300081
 30
0.0
 10
151.9128713552
 20
225.6891161444
 30
0.0
 10
151.833254041
 20
225.6795656716
 30
0.0
 11
153.0489346329
 21
225.138361005
 31
0.0
 11
152.9008058123
 21
225.3196636177
 31
0.0
 11
152.724685545
 21
225.4684259865
 31
0.0
 11
152.5248337574
 21
225.5810443672
 31
0.0
 11
152.3060713951
 21
225.654800155
 31
0.0
 11
152.0736735491
 21
225.6879091924
 31
0.0
 11
151.833254041
 21
225.6795656716
 31
0.0
  0
SPLINE
  5
47C
100
AcDbEntity
  8
RUNDUNGEN
100
AcDbSpline
 62
9
  6
CONTINUOUS
 70
0
 71
3
 72
43
 73
39
 74
37
 42
0.0000001
 43
0.0000001
 44
0.0000000001
 12
-4.5920718706
 22
10.3022500962
 32
0.0
 13
-0.0159358032
 23
-11.2760193761
 33
0.0
 40
0.0
 40
0.0
 40
0.0
 40
0.0
 40
0.0255768275
 40
0.0519157743
 40
0.0779912194
 40
0.1038306185
 40
0.1294448878
 40
0.1549087963
 40
0.1803004514
 40
0.2056851996
 40
0.2311307847
 40
0.2567068
 40
0.2824788136
 40
0.3085059808
 40
0.3348393073
 40
0.3615204003
 40
0.388580806
 40
0.4160419428
 40
0.4439161214
 40
0.472205746
 40
0.5009027435
 40
0.5299897675
 40
0.5594406401
 40
0.5892242339
 40
0.6193060978
 40
0.6496409535
 40
0.6801735401
 40
0.7108591361
 40
0.7416551685
 40
0.7724649376
 40
0.8031985076
 40
0.8339688717
 40
0.8647646438
 40
0.8948669694
 40
0.9235959405
 40
0.9507543159
 40
0.9762491418
 40
1.0
 40
1.0
 40
1.0
 40
1.0
 10
154.2171362503
 20
227.0377806254
 30
0.0
 10
154.1779860403
 20
227.1256135832
 30
0.0
 10
154.0915032613
 20
227.300776017
 30
0.0
 10
153.9401833475
 20
227.5522658152
 30
0.0
 10
153.7669713535
 20
227.7904568838
 30
0.0
 10
153.5750187104
 20
228.0102344755
 30
0.0
 10
153.3655767726
 20
228.210112286
 30
0.0
 10
153.1399631487
 20
228.388851478
 30
0.0
 10
152.8994716056
 20
228.545437831
 30
0.0
 10
152.6455217722
 20
228.6789499451
 30
0.0
 10
152.3796457875
 20
228.7885951346
 30
0.0
 10
152.103424964
 20
228.873740186
 30
0.0
 10
151.8184844071
 20
228.933902271
 30
0.0
 10
151.5264984132
 20
228.9687437536
 30
0.0
 10
151.2291837955
 20
228.9780741752
 30
0.0
 10
150.9282905353
 20
228.9618526191
 30
0.0
 10
150.6255899545
 20
228.9201890233
 30
0.0
 10
150.3228583124
 20
228.8533427062
 30
0.0
 10
150.0218650729
 20
228.7617183091
 30
0.0
 10
149.7243666061
 20
228.6458624145
 30
0.0
 10
149.4321011957
 20
228.5064624466
 30
0.0
 10
149.1467808246
 20
228.3443452684
 30
0.0
 10
148.8700698291
 20
228.1604670271
 30
0.0
 10
148.6035662674
 20
227.955897268
 30
0.0
 10
148.3488107172
 20
227.7318187023
 30
0.0
 10
148.1072988548
 20
227.4895424733
 30
0.0
 10
147.8804382455
 20
227.230477839
 30
0.0
 10
147.6695219804
 20
226.9560891501
 30
0.0
 10
147.4758365232
 20
226.6680235087
 30
0.0
 10
147.3006281105
 20
226.3681529952
 30
0.0
 10
147.1447118458
 20
226.0579220513
 30
0.0
 10
147.0087713797
 20
225.7384854532
 30
0.0
 10
146.8943643329
 20
225.4132271858
 30
0.0
 10
146.803229251
 20
225.0886668594
 30
0.0
 10
146.7357749353
 20
224.772359215
 30
0.0
 10
146.6906067449
 20
224.4696284097
 30
0.0
 10
146.665338972
 20
224.183403761
 30
0.0
 10
146.6597500785
 20
223.9982732155
 30
0.0
 10
146.6596239155
 20
223.9090015033
 30
0.0
 11
154.2171362503
 21
227.0377806254
 31
0.0
 11
154.0893153363
 21
227.2963223308
 31
0.0
 11
153.9360554834
 21
227.5507229752
 31
0.0
 11
153.7630120421
 21
227.7884374011
 31
0.0
 11
153.5712553879
 21
228.0078079727
 31
0.0
 11
153.36224616
 21
228.2071477423
 31
0.0
 11
153.1371486211
 21
228.385405351
 31
0.0
 11
152.8971982204
 21
228.5416144293
 31
0.0
 11
152.6438476137
 21
228.6748298514
 31
0.0
 11
152.3786128443
 21
228.7842674401
 31
0.0
 11
152.1030387376
 21
228.8693034648
 31
0.0
 11
151.8187254728
 21
228.929451813
 31
0.0
 11
151.5273264292
 21
228.9643652365
 31
0.0
 11
151.2305422103
 21
228.973839262
 31
0.0
 11
150.9301123577
 21
228.9578164325
 31
0.0
 11
150.627803658
 21
228.9163895523
 31
0.0
 11
150.3253951845
 21
228.8498023168
 31
0.0
 11
150.0246552699
 21
228.7584440229
 31
0.0
 11
149.7273422994
 21
228.6428473136
 31
0.0
 11
149.4352043392
 21
228.5036900288
 31
0.0
 11
149.149961301
 21
228.3417908651
 31
0.0
 11
148.873296654
 21
228.1581070646
 31
0.0
 11
148.6068194456
 21
227.9537082293
 31
0.0
 11
148.3520546552
 21
227.729756742
 31
0.0
 11
148.110508016
 21
227.4875625025
 31
0.0
 11
147.8836452649
 21
227.2285906804
 31
0.0
 11
147.6727399145
 21
226.9542860245
 31
0.0
 11
147.4789625819
 21
226.6661232708
 31
0.0
 11
147.3036987602
 21
226.3661605708
 31
0.0
 11
147.1480937963
 21
226.0565061624
 31
0.0
 11
147.0122653993
 21
225.7372302003
 31
0.0
 11
146.8970998249
 21
225.4096294076
 31
0.0
 11
146.805412006
 21
225.0828125003
 31
0.0
 11
146.7379311977
 21
224.7659700503
 31
0.0
 11
146.6928255078
 21
224.4630713845
 31
0.0
 11
146.6676293053
 21
224.1766972344
 31
0.0
 11
146.6596239155
 21
223.9090015033
 31
0.0
  0
SPLINE
  5
47D
100
AcDbEntity
  8
RUNDUNGEN
100
AcDbSpline
 62
7
  6
CONTINUOUS
 70
0
 71
3
 72
12
 73
8
 74
6
 42
0.0000001
 43
0.0000001
 44
0.0000000001
 12
-0.1302332516
 22
0.0753878803
 32
0.0
 13
0.0002126643
 23
0.1504791915
 33
0.0
 40
0.0
 40
0.0
 40
0.0
 40
0.0
 40
0.1515267524
 40
0.3426514366
 40
0.559056231
 40
0.7835085633
 40
1.0
 40
1.0
 40
1.0
 40
1.0
 10
150.9059066981
 20
222.8166567531
 30
0.0
 10
150.8993287575
 20
222.8204645133
 30
0.0
 10
150.8872987915
 20
222.8335662247
 30
0.0
 10
150.8743135153
 20
222.8584785674
 30
0.0
 10
150.8644454989
 20
222.8887632381
 30
0.0
 10
150.8584227428
 20
222.9212490759
 30
0.0
 10
150.8569941687
 20
222.9433885844
 30
0.0
 10
150.8570095154
 20
222.9542477366
 30
0.0
 11
150.9059066981
 21
222.8166567531
 31
0.0
 11
150.889485157
 21
222.8324759834
 31
0.0
 11
150.8755830629
 21
222.8576531079
 31
0.0
 11
150.8652565562
 21
222.8885368694
 31
0.0
 11
150.8590264498
 21
222.9217327437
 31
0.0
 11
150.8570095154
 21
222.9542477366
 31
0.0
  0
SPLINE
  5
47E
100
AcDbEntity
  8
RUNDUNGEN
100
AcDbSpline
 62
7
  6
CONTINUOUS
 70
0
 71
3
 72
12
 73
8
 74
6
 42
0.0000001
 43
0.0000001
 44
0.0000000001
 12
-0.1313992458
 22
0.0760628372
 32
0.0
 13
-0.1387026731
 23
0.0617485666
 33
0.0
 40
0.0
 40
0.0
 40
0.0
 40
0.0
 40
0.1611471826
 40
0.3652349608
 40
0.5868620266
 40
0.8043407455
 40
1.0
 40
1.0
 40
1.0
 40
1.0
 10
152.2142116588
 20
223.8731969449
 30
0.0
 10
152.2071534527
 20
223.8772827156
 30
0.0
 10
152.190871884
 20
223.8860460295
 30
0.0
 10
152.1644249264
 20
223.8995610886
 30
0.0
 10
152.1351963225
 20
223.9138927199
 30
0.0
 10
152.1061616988
 20
223.9276416703
 30
0.0
 10
152.0871402993
 20
223.9363246894
 30
0.0
 10
152.0780941454
 20
223.9403519156
 30
0.0
 11
152.2142116588
 21
223.8731969449
 31
0.0
 11
152.1927515004
 21
223.8849471684
 31
0.0
 11
152.1651783612
 21
223.8990840469
 31
0.0
 11
152.1349744968
 21
223.9139155668
 31
0.0
 11
152.1051292544
 21
223.9280407038
 31
0.0
 11
152.0780941454
 21
223.9403519156
 31
0.0
  0
SPLINE
  5
47F
100
AcDbEntity
  8
RUNDUNGEN
100
AcDbSpline
 62
9
  6
CONTINUOUS
 70
0
 71
3
 72
10
 73
6
 74
4
 42
0.0000001
 43
0.0000001
 44
0.0000000001
 12
0.0010694126
 22
0.7567059624
 32
0.0
 13
-0.3413923579
 23
0.6753194171
 33
0.0
 40
0.0
 40
0.0
 40
0.0
 40
0.0
 40
0.3431620754
 40
0.6765068396
 40
1.0
 40
1.0
 40
1.0
 40
1.0
 10
153.3033607664
 20
224.2556515981
 30
0.0
 10
153.3034830937
 20
224.3422091943
 30
0.0
 10
153.2916495824
 20
224.5131753443
 30
0.0
 10
153.2362992128
 20
224.7602091708
 30
0.0
 10
153.1742778951
 20
224.9148273317
 30
0.0
 10
153.1374651975
 20
224.9876477359
 30
0.0
 11
153.3033607664
 21
224.2556515981
 31
0.0
 11
153.2848878274
 21
224.5146667373
 31
0.0
 11
153.2291437362
 21
224.760674347
 31
0.0
 11
153.1374651975
 21
224.9876477359
 31
0.0
  0
SPLINE
  5
480
100
AcDbEntity
  8
RUNDUNGEN
100
AcDbSpline
 62
9
  6
CONTINUOUS
 70
0
 71
3
 72
10
 73
6
 74
4
 42
0.0000001
 43
0.0000001
 44
0.0000000001
 12
0.321683233
 22
0.7490427943
 32
0.0
 13
0.0011520729
 23
0.8151956102
 33
0.0
 40
0.0
 40
0.0
 40
0.0
 40
0.0
 40
0.3389345824
 40
0.6729691725
 40
1.0
 40
1.0
 40
1.0
 40
1.0
 10
153.135310441
 20
223.4629629982
 30
0.0
 10
153.1716536317
 20
223.5475885004
 30
0.0
 10
153.2331146904
 20
223.7204746982
 30
0.0
 10
153.2899394778
 20
223.9869417826
 30
0.0
 10
153.3032351786
 20
224.1667868998
 30
0.0
 10
153.3033607664
 20
224.2556515981
 30
0.0
 11
153.135310441
 21
223.4629629982
 31
0.0
 11
153.2276724248
 21
223.7233665163
 31
0.0
 11
153.2841409219
 21
223.9897509569
 31
0.0
 11
153.3033607664
 21
224.2556515981
 31
0.0
  0
SPLINE
  5
481
100
AcDbEntity
  8
BEZUGSACHSEN
100
AcDbSpline
 62
7
  6
CONTINUOUS
 70
0
 71
3
 72
8
 73
4
 74
2
 42
0.0000001
 43
0.0000001
 44
0.0000000001
 12
0.6297106338
 22
-0.0798121327
 32
0.0
 13
0.6212166179
 23
0.1129020326
 33
0.0
 40
0.0
 40
0.0
 40
0.0
 40
0.0
 40
1.0
 40
1.0
 40
1.0
 40
1.0
 10
163.9850072136
 20
118.8822331603
 30
0.0
 10
164.1949107582
 20
118.8556291161
 30
0.0
 10
164.4091766407
 20
118.8638653362
 30
0.0
 10
164.6162488467
 20
118.9014993471
 30
0.0
 11
163.9850072136
 21
118.8822331603
 31
0.0
 11
164.6162488467
 21
118.9014993471
 31
0.0
  0
SPLINE
  5
482
100
AcDbEntity
  8
0
100
AcDbSpline
 62
7
  6
CONTINUOUS
 70
0
 71
3
 72
12
 73
8
 74
6
 42
0.0000001
 43
0.0000001
 44
0.0000000001
 12
-3.2424962541
 22
3.554590813
 32
0.0
 13
0.0067995922
 23
4.8113253445
 33
0.0
 40
0.0
 40
0.0
 40
0.0
 40
0.0
 40
0.1674646074
 40
0.3602736944
 40
0.5713039887
 40
0.7878952146
 40
1.0
 40
1.0
 40
1.0
 40
1.0
 10
136.0746932297
 20
161.1337727758
 30
0.0
 10
135.893692109
 20
161.3321954942
 30
0.0
 10
135.5597550133
 20
161.8097259932
 30
0.0
 10
135.1658598015
 20
162.6399578964
 30
0.0
 10
134.8631269273
 20
163.5908485279
 30
0.0
 10
134.6716248635
 20
164.6010257524
 30
0.0
 10
134.6251345586
 20
165.2892090128
 30
0.0
 10
134.6256153006
 20
165.6293773893
 30
0.0
 11
136.0746932297
 21
161.1337727758
 31
0.0
 11
135.6017288865
 21
161.7860775801
 31
0.0
 11
135.1969742441
 21
162.6207882604
 31
0.0
 11
134.8854806499
 21
163.5871628153
 31
0.0
 11
134.691172289
 21
164.6109790976
 31
0.0
 11
134.6256153006
 21
165.6293773893
 31
0.0
  0
SPLINE
  5
483
100
AcDbEntity
  8
BEZUGSACHSEN
100
AcDbSpline
 62
7
  6
CONTINUOUS
 70
0
 71
3
 72
8
 73
4
 74
2
 42
0.0000001
 43
0.0000001
 44
0.0000000001
 12
0.6297106338
 22
-0.0798121327
 32
0.0
 13
0.6212166179
 23
0.1129020326
 33
0.0
 40
0.0
 40
0.0
 40
0.0
 40
0.0
 40
1.0
 40
1.0
 40
1.0
 40
1.0
 10
142.1992147634
 20
114.9228087381
 30
0.0
 10
142.409118308
 20
114.8962046939
 30
0.0
 10
142.6233841905
 20
114.904440914
 30
0.0
 10
142.8304563965
 20
114.9420749248
 30
0.0
 11
142.1992147634
 21
114.9228087381
 31
0.0
 11
142.8304563965
 21
114.9420749248
 31
0.0
  0
SPLINE
  5
484
100
AcDbEntity
  8
0
100
AcDbSpline
 62
7
  6
CONTINUOUS
 70
0
 71
3
 72
13
 73
9
 74
7
 42
0.0000001
 43
0.0000001
 44
0.0000000001
 12
1.3310731924
 22
2.2803504957
 32
0.0
 13
-1.7794482343
 23
1.9507224836
 33
0.0
 40
0.0
 40
0.0
 40
0.0
 40
0.0
 40
0.1355470297
 40
0.3015272382
 40
0.486522803
 40
0.6749828683
 40
0.8506902362
 40
1.0
 40
1.0
 40
1.0
 40
1.0
 10
139.8515625939
 20
154.9009586536
 30
0.0
 10
139.9117035998
 20
155.0039902324
 30
0.0
 10
139.9968228046
 20
155.2606332021
 30
0.0
 10
140.0378634348
 20
155.6885895199
 30
0.0
 10
140.0033756369
 20
156.1642681415
 30
0.0
 10
139.8960017812
 20
156.6375208758
 30
0.0
 10
139.7276139877
 20
157.0587102355
 30
0.0
 10
139.5701480458
 20
157.3018758042
 30
0.0
 10
139.4815850473
 20
157.3989631086
 30
0.0
 11
139.8515625939
 21
154.9009586536
 31
0.0
 11
139.9761706966
 21
155.2364654972
 31
0.0
 11
140.0246196961
 21
155.6720347187
 31
0.0
 11
139.9915382975
 21
156.159376969
 31
0.0
 11
139.8805940676
 21
156.6444630857
 31
0.0
 11
139.7040868303
 21
157.0735140326
 31
0.0
 11
139.4815850473
 21
157.3989631086
 31
0.0
  0
SPLINE
  5
485
100
AcDbEntity
  8
BEZUGSACHSEN
100
AcDbSpline
 62
7
  6
CONTINUOUS
 70
0
 71
3
 72
8
 73
4
 74
2
 42
0.0000001
 43
0.0000001
 44
0.0000000001
 12
0.6297106338
 22
-0.0798121327
 32
0.0
 13
0.6212166179
 23
0.1129020326
 33
0.0
 40
0.0
 40
0.0
 40
0.0
 40
0.0
 40
1.0
 40
1.0
 40
1.0
 40
1.0
 10
164.1427102366
 20
230.4713589558
 30
0.0
 10
164.3526137812
 20
230.4447549116
 30
0.0
 10
164.5668796637
 20
230.4529911317
 30
0.0
 10
164.7739518696
 20
230.4906251425
 30
0.0
 11
164.1427102366
 21
230.4713589558
 31
0.0
 11
164.7739518696
 21
230.4906251425
 31
0.0
  0
SPLINE
  5
486
100
AcDbEntity
  8
0
100
AcDbSpline
 62
7
  6
CONTINUOUS
 70
0
 71
3
 72
18
 73
14
 74
12
 42
0.0000001
 43
0.0000001
 44
0.0000000001
 12
-3.6555933382
 22
5.4093605437
 32
0.0
 13
3.2912492738
 23
5.6384592189
 33
0.0
 40
0.0
 40
0.0
 40
0.0
 40
0.0
 40
0.0849215838
 40
0.1768503979
 40
0.2743004875
 40
0.374922479
 40
0.4770161628
 40
0.5778593297
 40
0.6758043408
 40
0.7683289537
 40
0.8541085981
 40
0.9315131028
 40
1.0
 40
1.0
 40
1.0
 40
1.0
 10
129.1295558783
 20
129.1423979726
 30
0.0
 10
129.0260762864
 20
129.2955217941
 30
0.0
 10
128.8307982559
 20
129.6282852838
 30
0.0
 10
128.5816738382
 20
130.1716292496
 30
0.0
 10
128.3699341683
 20
130.7669779357
 30
0.0
 10
128.2011977991
 20
131.398730151
 30
0.0
 10
128.0803133733
 20
132.0488600779
 30
0.0
 10
128.0104074549
 20
132.7005785451
 30
0.0
 10
127.9934668053
 20
133.3350600469
 30
0.0
 10
128.0298596953
 20
133.9359815944
 30
0.0
 10
128.1185107099
 20
134.4865013873
 30
0.0
 10
128.2570733102
 20
134.9725563975
 30
0.0
 10
128.3888784811
 20
135.2634679832
 30
0.0
 10
128.4640142979
 20
135.3921881754
 30
0.0
 11
129.1295558783
 21
129.1423979726
 31
0.0
 11
128.8465274558
 21
129.619146636
 31
0.0
 11
128.5946351746
 21
130.1639092735
 31
0.0
 11
128.3803043532
 21
130.762947781
 31
0.0
 11
128.2102122044
 21
131.3974814789
 31
0.0
 11
128.0883355892
 21
132.0527881556
 31
0.0
 11
128.0186447819
 21
132.7074688846
 31
0.0
 11
128.0027157316
 21
133.3467287041
 31
0.0
 11
128.0410684341
 21
133.9495797948
 31
0.0
 11
128.1327507551
 21
134.502057876
 31
0.0
 11
128.274946885
 21
134.986994366
 31
0.0
 11
128.4640142979
 21
135.3921881754
 31
0.0
  0
SPLINE
  5
487
100
AcDbEntity
  8
BEZUGSACHSEN
100
AcDbSpline
 62
7
  6
CONTINUOUS
 70
0
 71
3
 72
8
 73
4
 74
2
 42
0.0000001
 43
0.0000001
 44
0.0000000001
 12
0.6297106338
 22
-0.0798121327
 32
0.0
 13
0.6212166179
 23
0.1129020326
 33
0.0
 40
0.0
 40
0.0
 40
0.0
 40
0.0
 40
1.0
 40
1.0
 40
1.0
 40
1.0
 10
142.3569177864
 20
226.5119345336
 30
0.0
 10
142.566821331
 20
226.4853304893
 30
0.0
 10
142.7810872135
 20
226.4935667095
 30
0.0
 10
142.9881594195
 20
226.5312007203
 30
0.0
 11
142.3569177864
 21
226.5119345336
 31
0.0
 11
142.9881594195
 21
226.5312007203
 31
0.0
  0
SPLINE
  5
488
100
AcDbEntity
  8
0
100
AcDbSpline
 62
7
  6
CONTINUOUS
 70
0
 71
3
 72
11
 73
7
 74
5
 42
0.0000001
 43
0.0000001
 44
0.0000000001
 12
0.0022732079
 22
1.608499822
 32
0.0
 13
-0.900636315
 23
1.332715676
 33
0.0
 40
0.0
 40
0.0
 40
0.0
 40
0.0
 40
0.2581755135
 40
0.5213229218
 40
0.7734396323
 40
1.0
 40
1.0
 40
1.0
 40
1.0
 10
134.5614109995
 20
120.1990381311
 30
0.0
 10
134.5616066283
 20
120.3374632203
 30
0.0
 10
134.541116728
 20
120.617261828
 30
0.0
 10
134.4576176493
 20
121.0246017996
 30
0.0
 10
134.3269308389
 20
121.4014446619
 30
0.0
 10
134.2064223949
 20
121.629909881
 30
0.0
 10
134.13840623
 20
121.7305567322
 30
0.0
 11
134.5614109995
 21
120.1990381311
 31
0.0
 11
134.5325342153
 21
120.6133086027
 31
0.0
 11
134.4472598456
 21
121.0279027406
 31
0.0
 11
134.3123919469
 21
121.4103492113
 31
0.0
 11
134.13840623
 21
121.7305567322
 31
0.0
  0
SPLINE
  5
489
100
AcDbEntity
  8
BEZUGSACHSEN
100
AcDbSpline
 62
7
  6
CONTINUOUS
 70
0
 71
3
 72
15
 73
11
 74
9
 42
0.0000001
 43
0.0000001
 44
0.0000000001
 12
5.4123867087
 22
0.9836656696
 32
0.0
 13
-3.3580505942
 23
4.3862266553
 33
0.0
 40
0.0
 40
0.0
 40
0.0
 40
0.0
 40
0.1248580954
 40
0.2561939424
 40
0.3919968017
 40
0.529075653
 40
0.6639205269
 40
0.7935849786
 40
0.9165274555
 40
1.0
 40
1.0
 40
1.0
 40
1.0
 10
142.9881594195
 20
226.5312007203
 30
0.0
 10
143.2134195181
 20
226.572140261
 30
0.0
 10
143.6644916162
 20
226.7282355872
 30
0.0
 10
144.2633185291
 20
227.1388582028
 30
0.0
 10
144.7601538076
 20
227.6984477033
 30
0.0
 10
145.1167798619
 20
228.3632528907
 30
0.0
 10
145.3059176887
 20
229.0823398247
 30
0.0
 10
145.3115785686
 20
229.8008797293
 30
0.0
 10
145.1464078268
 20
230.4037169328
 30
0.0
 10
144.9512911708
 20
230.7331672761
 30
0.0
 10
144.8578561616
 20
230.8552104426
 30
0.0
 11
142.9881594195
 21
226.5312007203
 31
0.0
 11
143.6389061836
 21
226.7509552904
 31
0.0
 11
144.2372202374
 21
227.155930054
 31
0.0
 11
144.7346297344
 21
227.7133163642
 31
0.0
 11
145.0908375154
 21
228.377958097
 31
0.0
 11
145.2769857444
 21
229.0960099321
 31
0.0
 11
145.277993799
 21
229.8092995802
 31
0.0
 11
145.0937800126
 21
230.460040556
 31
0.0
 11
144.8578561616
 21
230.8552104426
 31
0.0
  0
SPLINE
  5
48A
100
AcDbEntity
  8
BEZUGSACHSEN
100
AcDbSpline
 62
7
  6
CONTINUOUS
 70
0
 71
3
 72
15
 73
11
 74
9
 42
0.0000001
 43
0.0000001
 44
0.0000000001
 12
5.4123867087
 22
0.9836656696
 32
0.0
 13
-3.3580505942
 23
4.3862266553
 33
0.0
 40
0.0
 40
0.0
 40
0.0
 40
0.0
 40
0.1248580954
 40
0.2561939424
 40
0.3919968017
 40
0.529075653
 40
0.6639205269
 40
0.7935849786
 40
0.9165274555
 40
1.0
 40
1.0
 40
1.0
 40
1.0
 10
164.6162488467
 20
118.9014993471
 30
0.0
 10
164.8415089453
 20
118.9424388877
 30
0.0
 10
165.2925810434
 20
119.098534214
 30
0.0
 10
165.8914079563
 20
119.5091568295
 30
0.0
 10
166.3882432348
 20
120.06874633
 30
0.0
 10
166.7448692891
 20
120.7335515175
 30
0.0
 10
166.9340071159
 20
121.4526384515
 30
0.0
 10
166.9396679958
 20
122.171178356
 30
0.0
 10
166.774497254
 20
122.7740155595
 30
0.0
 10
166.579380598
 20
123.1034659029
 30
0.0
 10
166.4859455888
 20
123.2255090693
 30
0.0
 11
164.6162488467
 21
118.9014993471
 31
0.0
 11
165.2669956108
 21
119.1212539172
 31
0.0
 11
165.8653096646
 21
119.5262286808
 31
0.0
 11
166.3627191616
 21
120.0836149909
 31
0.0
 11
166.7189269426
 21
120.7482567238
 31
0.0
 11
166.9050751716
 21
121.4663085589
 31
0.0
 11
166.9060832262
 21
122.1795982069
 31
0.0
 11
166.7218694398
 21
122.8303391828
 31
0.0
 11
166.4859455888
 21
123.2255090693
 31
0.0
  0
SPLINE
  5
48B
100
AcDbEntity
  8
BEZUGSACHSEN
100
AcDbSpline
 62
7
  6
CONTINUOUS
 70
0
 71
3
 72
15
 73
11
 74
9
 42
0.0000001
 43
0.0000001
 44
0.0000000001
 12
5.4123867087
 22
0.9836656696
 32
0.0
 13
-3.3580505942
 23
4.3862266553
 33
0.0
 40
0.0
 40
0.0
 40
0.0
 40
0.0
 40
0.1248580954
 40
0.2561939424
 40
0.3919968017
 40
0.529075653
 40
0.6639205269
 40
0.7935849786
 40
0.9165274555
 40
1.0
 40
1.0
 40
1.0
 40
1.0
 10
164.7739518696
 20
230.4906251425
 30
0.0
 10
164.9992119683
 20
230.5315646832
 30
0.0
 10
165.4502840663
 20
230.6876600094
 30
0.0
 10
166.0491109792
 20
231.098282625
 30
0.0
 10
166.5459462578
 20
231.6578721255
 30
0.0
 10
166.9025723121
 20
232.322677313
 30
0.0
 10
167.0917101389
 20
233.0417642469
 30
0.0
 10
167.0973710187
 20
233.7603041515
 30
0.0
 10
166.932200277
 20
234.363141355
 30
0.0
 10
166.7370836209
 20
234.6925916983
 30
0.0
 10
166.6436486118
 20
234.8146348648
 30
0.0
 11
164.7739518696
 21
230.4906251425
 31
0.0
 11
165.4246986338
 21
230.7103797127
 31
0.0
 11
166.0230126876
 21
231.1153544762
 31
0.0
 11
166.5204221845
 21
231.6727407864
 31
0.0
 11
166.8766299655
 21
232.3373825193
 31
0.0
 11
167.0627781945
 21
233.0554343543
 31
0.0
 11
167.0637862492
 21
233.7687240024
 31
0.0
 11
166.8795724628
 21
234.4194649782
 31
0.0
 11
166.6436486118
 21
234.8146348648
 31
0.0
  0
SPLINE
  5
48C
100
AcDbEntity
  8
BEZUGSACHSEN
100
AcDbSpline
 62
7
  6
CONTINUOUS
 70
0
 71
3
 72
15
 73
11
 74
9
 42
0.0000001
 43
0.0000001
 44
0.0000000001
 12
5.4123867087
 22
0.9836656696
 32
0.0
 13
-3.3580505942
 23
4.3862266553
 33
0.0
 40
0.0
 40
0.0
 40
0.0
 40
0.0
 40
0.1248580954
 40
0.2561939424
 40
0.3919968017
 40
0.529075653
 40
0.6639205269
 40
0.7935849786
 40
0.9165274555
 40
1.0
 40
1.0
 40
1.0
 40
1.0
 10
142.8304563965
 20
114.9420749248
 30
0.0
 10
143.0557164951
 20
114.9830144655
 30
0.0
 10
143.5067885932
 20
115.1391097917
 30
0.0
 10
144.1056155061
 20
115.5497324073
 30
0.0
 10
144.6024507847
 20
116.1093219078
 30
0.0
 10
144.959076839
 20
116.7741270952
 30
0.0
 10
145.1482146657
 20
117.4932140292
 30
0.0
 10
145.1538755456
 20
118.2117539338
 30
0.0
 10
144.9887048038
 20
118.8145911373
 30
0.0
 10
144.7935881478
 20
119.1440414806
 30
0.0
 10
144.7001531386
 20
119.2660846471
 30
0.0
 11
142.8304563965
 21
114.9420749248
 31
0.0
 11
143.4812031607
 21
115.1618294949
 31
0.0
 11
144.0795172144
 21
115.5668042585
 31
0.0
 11
144.5769267114
 21
116.1241905687
 31
0.0
 11
144.9331344924
 21
116.7888323015
 31
0.0
 11
145.1192827214
 21
117.5068841366
 31
0.0
 11
145.120290776
 21
118.2201737847
 31
0.0
 11
144.9360769897
 21
118.8709147605
 31
0.0
 11
144.7001531386
 21
119.2660846471
 31
0.0
  0
SPLINE
  5
48D
100
AcDbEntity
  8
BEZUGSACHSEN
100
AcDbSpline
 62
3
  6
CONTINUOUS
 70
0
 71
3
 72
16
 73
12
 74
10
 42
0.0000001
 43
0.0000001
 44
0.0000000001
 12
-6.1210861301
 22
-1.112467126
 32
0.0
 13
5.4076503486
 23
-3.133239894
 33
0.0
 40
0.0
 40
0.0
 40
0.0
 40
0.0
 40
0.1104020237
 40
0.2265318049
 40
0.3466114075
 40
0.4678192679
 40
0.5870518008
 40
0.7017037008
 40
0.8104118964
 40
0.9136356193
 40
1.0
 40
1.0
 40
1.0
 40
1.0
 10
144.2215303038
 20
230.8333958441
 30
0.0
 10
143.9962702052
 20
230.7924563034
 30
0.0
 10
143.5451981072
 20
230.6363609772
 30
0.0
 10
142.9463711942
 20
230.2257383616
 30
0.0
 10
142.4495359157
 20
229.6661488611
 30
0.0
 10
142.0929098614
 20
229.0013436737
 30
0.0
 10
141.9037720346
 20
228.2822567397
 30
0.0
 10
141.8981111548
 20
227.5637168351
 30
0.0
 10
142.0796315656
 20
226.9012069034
 30
0.0
 10
142.4231947344
 20
226.3735160497
 30
0.0
 10
142.73536271
 20
226.1237856573
 30
0.0
 10
142.8910388344
 20
226.0335855497
 30
0.0
 11
144.2215303038
 21
230.8333958441
 31
0.0
 11
143.5707835397
 21
230.6136412739
 31
0.0
 11
142.9724694859
 21
230.2086665104
 31
0.0
 11
142.475059989
 21
229.6512802002
 31
0.0
 11
142.118852208
 21
228.9866384673
 31
0.0
 11
141.9327039789
 21
228.2685866323
 31
0.0
 11
141.9316959243
 21
227.5552969842
 31
0.0
 11
142.1159097107
 21
226.9045560084
 31
0.0
 11
142.4704214327
 21
226.3690828685
 31
0.0
 11
142.8910388344
 21
226.0335855497
 31
0.0
  0
SPLINE
  5
48E
100
AcDbEntity
  8
BEZUGSACHSEN
100
AcDbSpline
 62
3
  6
CONTINUOUS
 70
0
 71
3
 72
16
 73
12
 74
10
 42
0.0000001
 43
0.0000001
 44
0.0000000001
 12
-6.1210861301
 22
-1.112467126
 32
0.0
 13
5.4076503486
 23
-3.133239894
 33
0.0
 40
0.0
 40
0.0
 40
0.0
 40
0.0
 40
0.1104020237
 40
0.2265318049
 40
0.3466114075
 40
0.4678192679
 40
0.5870518008
 40
0.7017037008
 40
0.8104118964
 40
0.9136356193
 40
1.0
 40
1.0
 40
1.0
 40
1.0
 10
166.007322754
 20
234.7928202663
 30
0.0
 10
165.7820626554
 20
234.7518807256
 30
0.0
 10
165.3309905573
 20
234.5957853994
 30
0.0
 10
164.7321636444
 20
234.1851627838
 30
0.0
 10
164.2353283659
 20
233.6255732833
 30
0.0
 10
163.8787023116
 20
232.9607680959
 30
0.0
 10
163.6895644848
 20
232.2416811619
 30
0.0
 10
163.6839036049
 20
231.5231412573
 30
0.0
 10
163.8654240158
 20
230.8606313256
 30
0.0
 10
164.2089871846
 20
230.3329404719
 30
0.0
 10
164.5211551602
 20
230.0832100795
 30
0.0
 10
164.6768312846
 20
229.9930099719
 30
0.0
 11
166.007322754
 21
234.7928202663
 31
0.0
 11
165.3565759898
 21
234.5730656962
 31
0.0
 11
164.7582619361
 21
234.1680909326
 31
0.0
 11
164.2608524391
 21
233.6107046224
 31
0.0
 11
163.9046446581
 21
232.9460628896
 31
0.0
 11
163.7184964291
 21
232.2280110545
 31
0.0
 11
163.7174883745
 21
231.5147214064
 31
0.0
 11
163.9017021609
 21
230.8639804306
 31
0.0
 11
164.2562138828
 21
230.3285072907
 31
0.0
 11
164.6768312846
 21
229.9930099719
 31
0.0
  0
SPLINE
  5
48F
100
AcDbEntity
  8
BEZUGSACHSEN
100
AcDbSpline
 62
3
  6
CONTINUOUS
 70
0
 71
3
 72
16
 73
12
 74
10
 42
0.0000001
 43
0.0000001
 44
0.0000000001
 12
-6.1210861301
 22
-1.112467126
 32
0.0
 13
5.4076503486
 23
-3.133239894
 33
0.0
 40
0.0
 40
0.0
 40
0.0
 40
0.0
 40
0.1104020237
 40
0.2265318049
 40
0.3466114075
 40
0.4678192679
 40
0.5870518008
 40
0.7017037008
 40
0.8104118964
 40
0.9136356193
 40
1.0
 40
1.0
 40
1.0
 40
1.0
 10
144.0638272809
 20
119.2442700486
 30
0.0
 10
143.8385671823
 20
119.2033305079
 30
0.0
 10
143.3874950842
 20
119.0472351817
 30
0.0
 10
142.7886681713
 20
118.6366125661
 30
0.0
 10
142.2918328927
 20
118.0770230656
 30
0.0
 10
141.9352068384
 20
117.4122178782
 30
0.0
 10
141.7460690116
 20
116.6931309442
 30
0.0
 10
141.7404081318
 20
115.9745910396
 30
0.0
 10
141.9219285426
 20
115.3120811079
 30
0.0
 10
142.2654917114
 20
114.7843902542
 30
0.0
 10
142.5776596871
 20
114.5346598618
 30
0.0
 10
142.7333358115
 20
114.4444597542
 30
0.0
 11
144.0638272809
 21
119.2442700486
 31
0.0
 11
143.4130805167
 21
119.0245154785
 31
0.0
 11
142.814766463
 21
118.6195407149
 31
0.0
 11
142.317356966
 21
118.0621544047
 31
0.0
 11
141.961149185
 21
117.3975126719
 31
0.0
 11
141.775000956
 21
116.6794608368
 31
0.0
 11
141.7739929014
 21
115.9661711887
 31
0.0
 11
141.9582066877
 21
115.3154302129
 31
0.0
 11
142.3127184097
 21
114.779957073
 31
0.0
 11
142.7333358115
 21
114.4444597542
 31
0.0
  0
SPLINE
  5
490
100
AcDbEntity
  8
BEZUGSACHSEN
100
AcDbSpline
 62
3
  6
CONTINUOUS
 70
0
 71
3
 72
16
 73
12
 74
10
 42
0.0000001
 43
0.0000001
 44
0.0000000001
 12
-6.1210861301
 22
-1.112467126
 32
0.0
 13
5.4076503486
 23
-3.133239894
 33
0.0
 40
0.0
 40
0.0
 40
0.0
 40
0.0
 40
0.1104020237
 40
0.2265318049
 40
0.3466114075
 40
0.4678192679
 40
0.5870518008
 40
0.7017037008
 40
0.8104118964
 40
0.9136356193
 40
1.0
 40
1.0
 40
1.0
 40
1.0
 10
165.849619731
 20
123.2036944708
 30
0.0
 10
165.6243596324
 20
123.1627549301
 30
0.0
 10
165.1732875344
 20
123.0066596039
 30
0.0
 10
164.5744606214
 20
122.5960369884
 30
0.0
 10
164.0776253429
 20
122.0364474879
 30
0.0
 10
163.7209992886
 20
121.3716423004
 30
0.0
 10
163.5318614618
 20
120.6525553664
 30
0.0
 10
163.526200582
 20
119.9340154618
 30
0.0
 10
163.7077209928
 20
119.2715055301
 30
0.0
 10
164.0512841616
 20
118.7438146764
 30
0.0
 10
164.3634521372
 20
118.4940842841
 30
0.0
 10
164.5191282616
 20
118.4038841764
 30
0.0
 11
165.849619731
 21
123.2036944708
 31
0.0
 11
165.1988729669
 21
122.9839399007
 31
0.0
 11
164.6005589131
 21
122.5789651371
 31
0.0
 11
164.1031494162
 21
122.0215788269
 31
0.0
 11
163.7469416352
 21
121.3569370941
 31
0.0
 11
163.5607934061
 21
120.638885259
 31
0.0
 11
163.5597853515
 21
119.925595611
 31
0.0
 11
163.7439991379
 21
119.2748546351
 31
0.0
 11
164.0985108599
 21
118.7393814952
 31
0.0
 11
164.5191282616
 21
118.4038841764
 31
0.0
  0
SPLINE
  5
491
100
AcDbEntity
  8
BEZUGSACHSEN
100
AcDbSpline
 62
3
  6
CONTINUOUS
 70
0
 71
3
 72
10
 73
6
 74
4
 42
0.0000001
 43
0.0000001
 44
0.0000000001
 12
-1.1843819793
 22
0.6862412745
 32
0.0
 13
-1.3406384731
 23
-0.2436522208
 33
0.0
 40
0.0
 40
0.0
 40
0.0
 40
0.0
 40
0.0628754484
 40
0.5224753166
 40
1.0
 40
1.0
 40
1.0
 40
1.0
 10
167.1730279291
 20
122.99145081
 30
0.0
 10
167.1482050798
 20
123.0058333859
 30
0.0
 10
166.9390886756
 20
123.1203702281
 30
0.0
 10
166.4967902103
 20
123.2573190109
 30
0.0
 10
166.0630157185
 20
123.2424777873
 30
0.0
 10
165.849619731
 20
123.2036944708
 30
0.0
 11
167.1730279291
 21
122.99145081
 31
0.0
 11
167.0975561046
 21
123.0327779459
 31
0.0
 11
166.500079573
 21
123.2204256391
 31
0.0
 11
165.849619731
 21
123.2036944708
 31
0.0
  0
SPLINE
  5
492
100
AcDbEntity
  8
0
100
AcDbSpline
 62
3
  6
CONTINUOUS
 70
0
 71
3
 72
11
 73
7
 74
5
 42
0.0000001
 43
0.0000001
 44
0.0000000001
 12
-1.215322543
 22
1.3322989474
 32
0.0
 13
0.0025485604
 23
1.8033365946
 33
0.0
 40
0.0
 40
0.0
 40
0.0
 40
0.0
 40
0.2136513272
 40
0.46418207
 40
0.7334960959
 40
1.0
 40
1.0
 40
1.0
 40
1.0
 10
174.7383018493
 20
170.2022538109
 30
0.0
 10
174.6517500912
 20
170.2971362903
 30
0.0
 10
174.4974234545
 20
170.5337016333
 30
0.0
 10
174.3307163801
 20
170.9436271187
 30
0.0
 10
174.2219235225
 20
171.4054297927
 30
0.0
 10
174.1946712255
 20
171.7279067933
 30
0.0
 10
174.1948976259
 20
171.8881055409
 30
0.0
 11
174.7383018493
 21
170.2022538109
 31
0.0
 11
174.5200292269
 21
170.5197472563
 31
0.0
 11
174.3457221856
 21
170.9365599271
 31
0.0
 11
174.2333777761
 21
171.4090517987
 31
0.0
 11
174.1948976259
 21
171.8881055409
 31
0.0
  0
SPLINE
  5
493
100
AcDbEntity
  8
BEZUGSACHSEN
100
AcDbSpline
 62
3
  6
CONTINUOUS
 70
0
 71
3
 72
10
 73
6
 74
4
 42
0.0000001
 43
0.0000001
 44
0.0000000001
 12
-1.1843819793
 22
0.6862412745
 32
0.0
 13
-1.3406384731
 23
-0.2436522208
 33
0.0
 40
0.0
 40
0.0
 40
0.0
 40
0.0
 40
0.0628754484
 40
0.5224753166
 40
1.0
 40
1.0
 40
1.0
 40
1.0
 10
145.3872354789
 20
119.0320263877
 30
0.0
 10
145.3624126296
 20
119.0464089637
 30
0.0
 10
145.1532962254
 20
119.1609458058
 30
0.0
 10
144.7109977601
 20
119.2978945887
 30
0.0
 10
144.2772232683
 20
119.2830533651
 30
0.0
 10
144.0638272809
 20
119.2442700486
 30
0.0
 11
145.3872354789
 21
119.0320263877
 31
0.0
 11
145.3117636545
 21
119.0733535236
 31
0.0
 11
144.7142871228
 21
119.2610012169
 31
0.0
 11
144.0638272809
 21
119.2442700486
 31
0.0
  0
SPLINE
  5
494
100
AcDbEntity
  8
0
100
AcDbSpline
 62
3
  6
CONTINUOUS
 70
0
 71
3
 72
18
 73
14
 74
12
 42
0.0000001
 43
0.0000001
 44
0.0000000001
 12
3.5540817932
 22
6.0887351836
 32
0.0
 13
-4.7512823543
 23
5.2085995737
 33
0.0
 40
0.0
 40
0.0
 40
0.0
 40
0.0
 40
0.0698964062
 40
0.149649611
 40
0.2384867072
 40
0.3342541745
 40
0.4352250488
 40
0.5382457035
 40
0.6412824639
 40
0.7410533177
 40
0.835608534
 40
0.9223765617
 40
1.0
 40
1.0
 40
1.0
 40
1.0
 10
179.1318004579
 20
159.8060989304
 30
0.0
 10
179.214606306
 20
159.9479591661
 30
0.0
 10
179.3574953051
 20
160.2719762451
 30
0.0
 10
179.5008280968
 20
160.8153664782
 30
0.0
 10
179.5838555188
 20
161.432448898
 30
0.0
 10
179.6038915465
 20
162.1042882309
 30
0.0
 10
179.5602048875
 20
162.8083013545
 30
0.0
 10
179.4540672728
 20
163.5228362882
 30
0.0
 10
179.2891180968
 20
164.2232524641
 30
0.0
 10
179.0704783626
 20
164.887947751
 30
0.0
 10
178.8056380662
 20
165.4943738849
 30
0.0
 10
178.5029641379
 20
166.0237019877
 30
0.0
 10
178.2681306245
 20
166.3326743411
 30
0.0
 10
178.1451936669
 20
166.4674441437
 30
0.0
 11
179.1318004579
 21
159.8060989304
 31
0.0
 11
179.336533073
 21
160.2543341043
 31
0.0
 11
179.4845430199
 21
160.7967732632
 31
0.0
 11
179.5712514005
 21
161.4170543494
 31
0.0
 11
179.5934618269
 21
162.091861081
 31
0.0
 11
179.5505102918
 21
162.8024209002
 31
0.0
 11
179.4440981811
 21
163.5208913294
 31
0.0
 11
179.2771011144
 21
164.2278568368
 31
0.0
 11
179.0560444598
 21
164.8956147235
 31
0.0
 11
178.7871235661
 21
165.5055911866
 31
0.0
 11
178.4803847027
 21
166.0348536598
 31
0.0
 11
178.1451936669
 21
166.4674441437
 31
0.0
  0
SPLINE
  5
495
100
AcDbEntity
  8
BEZUGSACHSEN
100
AcDbSpline
 62
3
  6
CONTINUOUS
 70
0
 71
3
 72
10
 73
6
 74
4
 42
0.0000001
 43
0.0000001
 44
0.0000000001
 12
-1.1843819793
 22
0.6862412745
 32
0.0
 13
-1.3406384731
 23
-0.2436522208
 33
0.0
 40
0.0
 40
0.0
 40
0.0
 40
0.0
 40
0.0628754484
 40
0.5224753166
 40
1.0
 40
1.0
 40
1.0
 40
1.0
 10
167.3307309521
 20
234.5805766055
 30
0.0
 10
167.3059081027
 20
234.5949591814
 30
0.0
 10
167.0967916986
 20
234.7094960235
 30
0.0
 10
166.6544932332
 20
234.8464448064
 30
0.0
 10
166.2207187415
 20
234.8316035828
 30
0.0
 10
166.007322754
 20
234.7928202663
 30
0.0
 11
167.3307309521
 21
234.5805766055
 31
0.0
 11
167.2552591276
 21
234.6219037413
 31
0.0
 11
166.6577825959
 21
234.8095514346
 31
0.0
 11
166.007322754
 21
234.7928202663
 31
0.0
  0
SPLINE
  5
496
100
AcDbEntity
  8
0
100
AcDbSpline
 62
3
  6
CONTINUOUS
 70
0
 71
3
 72
13
 73
9
 74
7
 42
0.0000001
 43
0.0000001
 44
0.0000000001
 12
-1.3694609787
 22
2.0264584977
 32
0.0
 13
1.232970146
 23
2.1122836065
 33
0.0
 40
0.0
 40
0.0
 40
0.0
 40
0.0
 40
0.1611177277
 40
0.3411864418
 40
0.5277777242
 40
0.7074123467
 40
0.8672660638
 40
1.0
 40
1.0
 40
1.0
 40
1.0
 10
167.9938302545
 20
137.9536571261
 30
0.0
 10
167.9202821075
 20
138.0624899223
 30
0.0
 10
167.7916114947
 20
138.3113869594
 30
0.0
 10
167.6569513583
 20
138.7214469154
 30
0.0
 10
167.5779976915
 20
139.1612251064
 30
0.0
 10
167.5619515711
 20
139.5915563373
 30
0.0
 10
167.609410165
 20
139.9750943997
 30
0.0
 10
167.689699835
 20
140.203871213
 30
0.0
 10
167.7442521619
 20
140.2973284522
 30
0.0
 11
167.9938302545
 21
137.9536571261
 31
0.0
 11
167.8080392916
 21
138.3011724282
 31
0.0
 11
167.6683979681
 21
138.7188609788
 31
0.0
 11
167.5878323364
 21
139.1680589784
 31
0.0
 11
167.5738000429
 21
139.6071859207
 31
0.0
 11
167.6273243474
 21
139.9944756935
 31
0.0
 11
167.7442521619
 21
140.2973284522
 31
0.0
  0
SPLINE
  5
497
100
AcDbEntity
  8
BEZUGSACHSEN
100
AcDbSpline
 62
3
  6
CONTINUOUS
 70
0
 71
3
 72
10
 73
6
 74
4
 42
0.0000001
 43
0.0000001
 44
0.0000000001
 12
-1.1843819793
 22
0.6862412745
 32
0.0
 13
-1.3406384731
 23
-0.2436522208
 33
0.0
 40
0.0
 40
0.0
 40
0.0
 40
0.0
 40
0.0628754484
 40
0.5224753166
 40
1.0
 40
1.0
 40
1.0
 40
1.0
 10
145.5449385019
 20
230.6211521832
 30
0.0
 10
145.5201156526
 20
230.6355347592
 30
0.0
 10
145.3109992484
 20
230.7500716013
 30
0.0
 10
144.8687007831
 20
230.8870203841
 30
0.0
 10
144.4349262913
 20
230.8721791606
 30
0.0
 10
144.2215303038
 20
230.8333958441
 30
0.0
 11
145.5449385019
 21
230.6211521832
 31
0.0
 11
145.4694666774
 21
230.6624793191
 31
0.0
 11
144.8719901458
 21
230.8501270124
 31
0.0
 11
144.2215303038
 21
230.8333958441
 31
0.0
  0
SPLINE
  5
498
100
AcDbEntity
  8
0
100
AcDbSpline
 62
3
  6
CONTINUOUS
 70
0
 71
3
 72
12
 73
8
 74
6
 42
0.0000001
 43
0.0000001
 44
0.0000000001
 12
0.0060638785
 22
4.2907414835
 32
0.0
 13
-2.4024855617
 23
3.5550755793
 33
0.0
 40
0.0
 40
0.0
 40
0.0
 40
0.0
 40
0.2055190434
 40
0.4161757256
 40
0.6246223835
 40
0.8212696069
 40
1.0
 40
1.0
 40
1.0
 40
1.0
 10
174.1306933248
 20
126.4577662828
 30
0.0
 10
174.1311087389
 20
126.7517093112
 30
0.0
 10
174.0963284982
 20
127.3473912862
 30
0.0
 10
173.9505971559
 20
128.230280598
 30
0.0
 10
173.7172026467
 20
129.0813086012
 30
0.0
 10
173.4077631717
 20
129.8586969092
 30
0.0
 10
173.1458130026
 20
130.3300158671
 30
0.0
 10
173.0026806062
 20
130.5418158857
 30
0.0
 11
174.1306933248
 21
126.4577662828
 31
0.0
 11
174.0815605919
 21
127.3382264258
 31
0.0
 11
173.9346511384
 21
128.2300819655
 31
0.0
 11
173.6965361016
 21
129.0921942498
 31
0.0
 11
173.3809796999
 21
129.8747289554
 31
0.0
 11
173.0026806062
 21
130.5418158857
 31
0.0
  0
SPLINE
  5
499
100
AcDbEntity
  8
BEZUGSACHSEN
100
AcDbSpline
 62
3
  6
CONTINUOUS
 70
0
 71
3
 72
9
 73
5
 74
3
 42
0.0000001
 43
0.0000001
 44
0.0000000001
 12
1.0532454562
 22
0.1914204311
 32
0.0
 13
0.8830088038
 23
0.6099522554
 33
0.0
 40
0.0
 40
0.0
 40
0.0
 40
0.0
 40
0.6416171006
 40
1.0
 40
1.0
 40
1.0
 40
1.0
 10
165.8425364597
 20
118.1916405156
 30
0.0
 10
166.0677965583
 20
118.2325800562
 30
0.0
 10
166.4104206382
 20
118.3511465066
 30
0.0
 10
166.7185992018
 20
118.5344889743
 30
0.0
 10
166.8240842869
 20
118.6073544602
 30
0.0
 11
165.8425364597
 21
118.1916405156
 31
0.0
 11
166.4932832238
 21
118.4113950857
 31
0.0
 11
166.8240842869
 21
118.6073544602
 31
0.0
  0
SPLINE
  5
49A
100
AcDbEntity
  8
BEZUGSACHSEN
100
AcDbSpline
 62
3
  6
CONTINUOUS
 70
0
 71
3
 72
12
 73
8
 74
6
 42
0.0000001
 43
0.0000001
 44
0.0000000001
 12
0.361624259
 22
2.5780477259
 32
0.0
 13
-2.2567964816
 23
1.3076076139
 33
0.0
 40
0.0
 40
0.0
 40
0.0
 40
0.0
 40
0.0105091479
 40
0.2852336933
 40
0.5457161587
 40
0.7930569385
 40
1.0
 40
1.0
 40
1.0
 40
1.0
 10
168.1276893286
 20
120.7293381783
 30
0.0
 10
168.1289561162
 20
120.7383692067
 30
0.0
 10
168.1621924154
 20
120.9836544539
 30
0.0
 10
168.1659556088
 20
121.4613195246
 30
0.0
 10
167.9844351979
 20
122.1238294563
 30
0.0
 10
167.6408720291
 20
122.65152031
 30
0.0
 10
167.3287040535
 20
122.9012507023
 30
0.0
 10
167.1730279291
 20
122.99145081
 30
0.0
 11
168.1276893286
 21
120.7293381783
 31
0.0
 11
168.1313627846
 21
120.7564497274
 31
0.0
 11
168.1323708392
 21
121.4697393754
 31
0.0
 11
167.9481570528
 21
122.1204803513
 31
0.0
 11
167.5936453309
 21
122.6559534912
 31
0.0
 11
167.1730279291
 21
122.99145081
 31
0.0
  0
SPLINE
  5
49B
100
AcDbEntity
  8
0
100
AcDbSpline
 62
3
  6
CONTINUOUS
 70
0
 71
3
 72
18
 73
14
 74
12
 42
0.0000001
 43
0.0000001
 44
0.0000000001
 12
3.5540817932
 22
6.0887351836
 32
0.0
 13
-4.7512823543
 23
5.2085995737
 33
0.0
 40
0.0
 40
0.0
 40
0.0
 40
0.0
 40
0.0698964062
 40
0.149649611
 40
0.2384867072
 40
0.3342541745
 40
0.4352250488
 40
0.5382457035
 40
0.6412824639
 40
0.7410533177
 40
0.835608534
 40
0.9223765617
 40
1.0
 40
1.0
 40
1.0
 40
1.0
 10
140.7888057456
 20
152.8375119472
 30
0.0
 10
140.8716115937
 20
152.979372183
 30
0.0
 10
141.0145005928
 20
153.3033892619
 30
0.0
 10
141.1578333845
 20
153.8467794951
 30
0.0
 10
141.2408608065
 20
154.4638619149
 30
0.0
 10
141.2608968342
 20
155.1357012477
 30
0.0
 10
141.2172101752
 20
155.8397143714
 30
0.0
 10
141.1110725605
 20
156.554249305
 30
0.0
 10
140.9461233845
 20
157.254665481
 30
0.0
 10
140.7274836503
 20
157.9193607679
 30
0.0
 10
140.4626433539
 20
158.5257869018
 30
0.0
 10
140.1599694256
 20
159.0551150045
 30
0.0
 10
139.9251359122
 20
159.3640873579
 30
0.0
 10
139.8021989546
 20
159.4988571606
 30
0.0
 11
140.7888057456
 21
152.8375119472
 31
0.0
 11
140.9935383607
 21
153.2857471212
 31
0.0
 11
141.1415483076
 21
153.82818628
 31
0.0
 11
141.2282566882
 21
154.4484673663
 31
0.0
 11
141.2504671147
 21
155.1232740979
 31
0.0
 11
141.2075155795
 21
155.833833917
 31
0.0
 11
141.1011034688
 21
156.5523043463
 31
0.0
 11
140.9341064021
 21
157.2592698537
 31
0.0
 11
140.7130497475
 21
157.9270277404
 31
0.0
 11
140.4441288538
 21
158.5370042034
 31
0.0
 11
140.1373899904
 21
159.0662666767
 31
0.0
 11
139.8021989546
 21
159.4988571606
 31
0.0
  0
SPLINE
  5
49C
100
AcDbEntity
  8
BEZUGSACHSEN
100
AcDbSpline
 62
3
  6
CONTINUOUS
 70
0
 71
3
 72
10
 73
6
 74
4
 42
0.0000001
 43
0.0000001
 44
0.0000000001
 12
1.1843819793
 22
-0.6862412745
 32
0.0
 13
1.3406384731
 23
0.2436522208
 33
0.0
 40
0.0
 40
0.0
 40
0.0
 40
0.0
 40
0.0628754484
 40
0.5224753166
 40
1.0
 40
1.0
 40
1.0
 40
1.0
 10
164.6768312846
 20
229.9930099719
 30
0.0
 10
164.7016541339
 20
229.978627396
 30
0.0
 10
164.9107705381
 20
229.8640905538
 30
0.0
 10
165.3530690034
 20
229.727141771
 30
0.0
 10
165.7868434952
 20
229.7419829945
 30
0.0
 10
166.0002394826
 20
229.7807663111
 30
0.0
 11
164.6768312846
 21
229.9930099719
 31
0.0
 11
164.752303109
 21
229.951682836
 31
0.0
 11
165.3497796407
 21
229.7640351428
 31
0.0
 11
166.0002394826
 21
229.7807663111
 31
0.0
  0
SPLINE
  5
49D
100
AcDbEntity
  8
BEZUGSACHSEN
100
AcDbSpline
 62
3
  6
CONTINUOUS
 70
0
 71
3
 72
10
 73
6
 74
4
 42
0.0000001
 43
0.0000001
 44
0.0000000001
 12
1.1843819793
 22
-0.6862412745
 32
0.0
 13
1.3406384731
 23
0.2436522208
 33
0.0
 40
0.0
 40
0.0
 40
0.0
 40
0.0
 40
0.0628754484
 40
0.5224753166
 40
1.0
 40
1.0
 40
1.0
 40
1.0
 10
142.8910388344
 20
226.0335855497
 30
0.0
 10
142.9158616837
 20
226.0192029737
 30
0.0
 10
143.1249780879
 20
225.9046661316
 30
0.0
 10
143.5672765533
 20
225.7677173487
 30
0.0
 10
144.001051045
 20
225.7825585723
 30
0.0
 10
144.2144470325
 20
225.8213418888
 30
0.0
 11
142.8910388344
 21
226.0335855497
 31
0.0
 11
142.9665106589
 21
225.9922584138
 31
0.0
 11
143.5639871906
 21
225.8046107205
 31
0.0
 11
144.2144470325
 21
225.8213418888
 31
0.0
  0
SPLINE
  5
49E
100
AcDbEntity
  8
0
100
AcDbSpline
 62
3
  6
CONTINUOUS
 70
0
 71
3
 72
13
 73
9
 74
7
 42
0.0000001
 43
0.0000001
 44
0.0000000001
 12
-1.3694609787
 22
2.0264584977
 32
0.0
 13
1.232970146
 23
2.1122836065
 33
0.0
 40
0.0
 40
0.0
 40
0.0
 40
0.0
 40
0.1611177277
 40
0.3411864418
 40
0.5277777242
 40
0.7074123467
 40
0.8672660638
 40
1.0
 40
1.0
 40
1.0
 40
1.0
 10
129.6508355422
 20
130.985070143
 30
0.0
 10
129.5772873952
 20
131.0939029391
 30
0.0
 10
129.4486167824
 20
131.3427999763
 30
0.0
 10
129.313956646
 20
131.7528599322
 30
0.0
 10
129.2350029792
 20
132.1926381233
 30
0.0
 10
129.2189568588
 20
132.6229693542
 30
0.0
 10
129.2664154527
 20
133.0065074165
 30
0.0
 10
129.3467051227
 20
133.2352842299
 30
0.0
 10
129.4012574496
 20
133.328741469
 30
0.0
 11
129.6508355422
 21
130.985070143
 31
0.0
 11
129.4650445793
 21
131.3325854451
 31
0.0
 11
129.3254032558
 21
131.7502739957
 31
0.0
 11
129.2448376241
 21
132.1994719953
 31
0.0
 11
129.2308053306
 21
132.6385989375
 31
0.0
 11
129.2843296351
 21
133.0258887104
 31
0.0
 11
129.4012574496
 21
133.328741469
 31
0.0
  0
SPLINE
  5
49F
100
AcDbEntity
  8
BEZUGSACHSEN
100
AcDbSpline
 62
3
  6
CONTINUOUS
 70
0
 71
3
 72
10
 73
6
 74
4
 42
0.0000001
 43
0.0000001
 44
0.0000000001
 12
1.1843819793
 22
-0.6862412745
 32
0.0
 13
1.3406384731
 23
0.2436522208
 33
0.0
 40
0.0
 40
0.0
 40
0.0
 40
0.0
 40
0.0628754484
 40
0.5224753166
 40
1.0
 40
1.0
 40
1.0
 40
1.0
 10
164.5191282616
 20
118.4038841764
 30
0.0
 10
164.5439511109
 20
118.3895016005
 30
0.0
 10
164.7530675151
 20
118.2749647583
 30
0.0
 10
165.1953659805
 20
118.1380159755
 30
0.0
 10
165.6291404722
 20
118.1528571991
 30
0.0
 10
165.8425364597
 20
118.1916405156
 30
0.0
 11
164.5191282616
 21
118.4038841764
 31
0.0
 11
164.5946000861
 21
118.3625570405
 31
0.0
 11
165.1920766178
 21
118.1749093473
 31
0.0
 11
165.8425364597
 21
118.1916405156
 31
0.0
  0
SPLINE
  5
4A0
100
AcDbEntity
  8
0
100
AcDbSpline
 62
3
  6
CONTINUOUS
 70
0
 71
3
 72
11
 73
7
 74
5
 42
0.0000001
 43
0.0000001
 44
0.0000000001
 12
-1.215322543
 22
1.3322989474
 32
0.0
 13
0.0025485604
 23
1.8033365946
 33
0.0
 40
0.0
 40
0.0
 40
0.0
 40
0.0
 40
0.2136513272
 40
0.46418207
 40
0.7334960959
 40
1.0
 40
1.0
 40
1.0
 40
1.0
 10
136.395307137
 20
163.2336668278
 30
0.0
 10
136.3087553789
 20
163.3285493072
 30
0.0
 10
136.1544287422
 20
163.5651146502
 30
0.0
 10
135.9877216678
 20
163.9750401356
 30
0.0
 10
135.8789288102
 20
164.4368428096
 30
0.0
 10
135.8516765132
 20
164.7593198102
 30
0.0
 10
135.8519029136
 20
164.9195185578
 30
0.0
 11
136.395307137
 21
163.2336668278
 31
0.0
 11
136.1770345146
 21
163.5511602732
 31
0.0
 11
136.0027274733
 21
163.967972944
 31
0.0
 11
135.8903830638
 21
164.4404648155
 31
0.0
 11
135.8519029136
 21
164.9195185578
 31
0.0
  0
SPLINE
  5
4A1
100
AcDbEntity
  8
0
100
AcDbSpline
 62
3
  6
CONTINUOUS
 70
0
 71
3
 72
12
 73
8
 74
6
 42
0.0000001
 43
0.0000001
 44
0.0000000001
 12
0.0060638785
 22
4.2907414835
 32
0.0
 13
-2.4024855617
 23
3.5550755793
 33
0.0
 40
0.0
 40
0.0
 40
0.0
 40
0.0
 40
0.2055190434
 40
0.4161757256
 40
0.6246223835
 40
0.8212696069
 40
1.0
 40
1.0
 40
1.0
 40
1.0
 10
135.7876986125
 20
119.4891792997
 30
0.0
 10
135.7881140266
 20
119.7831223281
 30
0.0
 10
135.7533337859
 20
120.378804303
 30
0.0
 10
135.6076024436
 20
121.2616936149
 30
0.0
 10
135.3742079344
 20
122.1127216181
 30
0.0
 10
135.0647684594
 20
122.8901099261
 30
0.0
 10
134.8028182903
 20
123.361428884
 30
0.0
 10
134.659685894
 20
123.5732289026
 30
0.0
 11
135.7876986125
 21
119.4891792997
 31
0.0
 11
135.7385658796
 21
120.3696394426
 31
0.0
 11
135.5916564261
 21
121.2614949824
 31
0.0
 11
135.3535413893
 21
122.1236072667
 31
0.0
 11
135.0379849876
 21
122.9061419722
 31
0.0
 11
134.659685894
 21
123.5732289026
 31
0.0
  0
SPLINE
  5
4A2
100
AcDbEntity
  8
BEZUGSACHSEN
100
AcDbSpline
 62
3
  6
CONTINUOUS
 70
0
 71
3
 72
9
 73
5
 74
3
 42
0.0000001
 43
0.0000001
 44
0.0000000001
 12
1.0532454562
 22
0.1914204311
 32
0.0
 13
0.8830088038
 23
0.6099522554
 33
0.0
 40
0.0
 40
0.0
 40
0.0
 40
0.0
 40
0.6416171006
 40
1.0
 40
1.0
 40
1.0
 40
1.0
 10
144.2144470325
 20
225.8213418888
 30
0.0
 10
144.4397071311
 20
225.8622814295
 30
0.0
 10
144.782331211
 20
225.9808478799
 30
0.0
 10
145.0905097746
 20
226.1641903475
 30
0.0
 10
145.1959948597
 20
226.2370558335
 30
0.0
 11
144.2144470325
 21
225.8213418888
 31
0.0
 11
144.8651937966
 21
226.0410964589
 31
0.0
 11
145.1959948597
 21
226.2370558335
 31
0.0
  0
SPLINE
  5
4A3
100
AcDbEntity
  8
BEZUGSACHSEN
100
AcDbSpline
 62
3
  6
CONTINUOUS
 70
0
 71
3
 72
12
 73
8
 74
6
 42
0.0000001
 43
0.0000001
 44
0.0000000001
 12
0.361624259
 22
2.5780477259
 32
0.0
 13
-2.2567964816
 23
1.3076076139
 33
0.0
 40
0.0
 40
0.0
 40
0.0
 40
0.0
 40
0.0105091479
 40
0.2852336933
 40
0.5457161587
 40
0.7930569385
 40
1.0
 40
1.0
 40
1.0
 40
1.0
 10
146.4995999014
 20
228.3590395516
 30
0.0
 10
146.500866689
 20
228.3680705799
 30
0.0
 10
146.5341029882
 20
228.6133558272
 30
0.0
 10
146.5378661816
 20
229.0910208978
 30
0.0
 10
146.3563457707
 20
229.7535308295
 30
0.0
 10
146.0127826019
 20
230.2812216832
 30
0.0
 10
145.7006146263
 20
230.5309520756
 30
0.0
 10
145.5449385019
 20
230.6211521832
 30
0.0
 11
146.4995999014
 21
228.3590395516
 31
0.0
 11
146.5032733574
 21
228.3861511006
 31
0.0
 11
146.504281412
 21
229.0994407487
 31
0.0
 11
146.3200676256
 21
229.7501817245
 31
0.0
 11
145.9655559037
 21
230.2856548644
 31
0.0
 11
145.5449385019
 21
230.6211521832
 31
0.0
  0
SPLINE
  5
4A4
100
AcDbEntity
  8
BEZUGSACHSEN
100
AcDbSpline
 62
3
  6
CONTINUOUS
 70
0
 71
3
 72
9
 73
5
 74
3
 42
0.0000001
 43
0.0000001
 44
0.0000000001
 12
1.0532454562
 22
0.1914204311
 32
0.0
 13
0.8830088038
 23
0.6099522554
 33
0.0
 40
0.0
 40
0.0
 40
0.0
 40
0.0
 40
0.6416171006
 40
1.0
 40
1.0
 40
1.0
 40
1.0
 10
144.0567440095
 20
114.2322160934
 30
0.0
 10
144.2820041081
 20
114.273155634
 30
0.0
 10
144.6246281881
 20
114.3917220844
 30
0.0
 10
144.9328067516
 20
114.575064552
 30
0.0
 10
145.0382918367
 20
114.647930038
 30
0.0
 11
144.0567440095
 21
114.2322160934
 31
0.0
 11
144.7074907737
 21
114.4519706635
 31
0.0
 11
145.0382918367
 21
114.647930038
 31
0.0
  0
SPLINE
  5
4A5
100
AcDbEntity
  8
BEZUGSACHSEN
100
AcDbSpline
 62
3
  6
CONTINUOUS
 70
0
 71
3
 72
12
 73
8
 74
6
 42
0.0000001
 43
0.0000001
 44
0.0000000001
 12
0.361624259
 22
2.5780477259
 32
0.0
 13
-2.2567964816
 23
1.3076076139
 33
0.0
 40
0.0
 40
0.0
 40
0.0
 40
0.0
 40
0.0105091479
 40
0.2852336933
 40
0.5457161587
 40
0.7930569385
 40
1.0
 40
1.0
 40
1.0
 40
1.0
 10
146.3418968784
 20
116.7699137561
 30
0.0
 10
146.343163666
 20
116.7789447844
 30
0.0
 10
146.3763999653
 20
117.0242300317
 30
0.0
 10
146.3801631586
 20
117.5018951023
 30
0.0
 10
146.1986427478
 20
118.164405034
 30
0.0
 10
145.855079579
 20
118.6920958877
 30
0.0
 10
145.5429116033
 20
118.9418262801
 30
0.0
 10
145.3872354789
 20
119.0320263877
 30
0.0
 11
146.3418968784
 21
116.7699137561
 31
0.0
 11
146.3455703344
 21
116.7970253051
 31
0.0
 11
146.346578389
 21
117.5103149532
 31
0.0
 11
146.1623646027
 21
118.161055929
 31
0.0
 11
145.8078528807
 21
118.6965290689
 31
0.0
 11
145.3872354789
 21
119.0320263877
 31
0.0
  0
SPLINE
  5
4A6
100
AcDbEntity
  8
BEZUGSACHSEN
100
AcDbSpline
 62
3
  6
CONTINUOUS
 70
0
 71
3
 72
10
 73
6
 74
4
 42
0.0000001
 43
0.0000001
 44
0.0000000001
 12
1.1843819793
 22
-0.6862412745
 32
0.0
 13
1.3406384731
 23
0.2436522208
 33
0.0
 40
0.0
 40
0.0
 40
0.0
 40
0.0
 40
0.0628754484
 40
0.5224753166
 40
1.0
 40
1.0
 40
1.0
 40
1.0
 10
142.7333358115
 20
114.4444597542
 30
0.0
 10
142.7581586608
 20
114.4300771782
 30
0.0
 10
142.967275065
 20
114.3155403361
 30
0.0
 10
143.4095735303
 20
114.1785915533
 30
0.0
 10
143.8433480221
 20
114.1934327768
 30
0.0
 10
144.0567440095
 20
114.2322160934
 30
0.0
 11
142.7333358115
 21
114.4444597542
 31
0.0
 11
142.8088076359
 21
114.4031326183
 31
0.0
 11
143.4062841676
 21
114.2154849251
 31
0.0
 11
144.0567440095
 21
114.2322160934
 31
0.0
  0
SPLINE
  5
4A7
100
AcDbEntity
  8
BEZUGSACHSEN
100
AcDbSpline
 62
3
  6
CONTINUOUS
 70
0
 71
3
 72
9
 73
5
 74
3
 42
0.0000001
 43
0.0000001
 44
0.0000000001
 12
1.0532454562
 22
0.1914204311
 32
0.0
 13
0.8830088038
 23
0.6099522554
 33
0.0
 40
0.0
 40
0.0
 40
0.0
 40
0.0
 40
0.6416171006
 40
1.0
 40
1.0
 40
1.0
 40
1.0
 10
166.0002394826
 20
229.7807663111
 30
0.0
 10
166.2254995813
 20
229.8217058517
 30
0.0
 10
166.5681236612
 20
229.9402723021
 30
0.0
 10
166.8763022248
 20
230.1236147698
 30
0.0
 10
166.9817873099
 20
230.1964802557
 30
0.0
 11
166.0002394826
 21
229.7807663111
 31
0.0
 11
166.6509862468
 21
230.0005208812
 31
0.0
 11
166.9817873099
 21
230.1964802557
 31
0.0
  0
SPLINE
  5
4A8
100
AcDbEntity
  8
BEZUGSACHSEN
100
AcDbSpline
 62
3
  6
CONTINUOUS
 70
0
 71
3
 72
12
 73
8
 74
6
 42
0.0000001
 43
0.0000001
 44
0.0000000001
 12
0.361624259
 22
2.5780477259
 32
0.0
 13
-2.2567964816
 23
1.3076076139
 33
0.0
 40
0.0
 40
0.0
 40
0.0
 40
0.0
 40
0.0105091479
 40
0.2852336933
 40
0.5457161587
 40
0.7930569385
 40
1.0
 40
1.0
 40
1.0
 40
1.0
 10
168.2853923516
 20
232.3184639738
 30
0.0
 10
168.2866591392
 20
232.3274950021
 30
0.0
 10
168.3198954384
 20
232.5727802494
 30
0.0
 10
168.3236586317
 20
233.05044532
 30
0.0
 10
168.1421382209
 20
233.7129552518
 30
0.0
 10
167.7985750521
 20
234.2406461055
 30
0.0
 10
167.4864070765
 20
234.4903764978
 30
0.0
 10
167.3307309521
 20
234.5805766055
 30
0.0
 11
168.2853923516
 21
232.3184639738
 31
0.0
 11
168.2890658075
 21
232.3455755229
 31
0.0
 11
168.2900738622
 21
233.0588651709
 31
0.0
 11
168.1058600758
 21
233.7096061468
 31
0.0
 11
167.7513483538
 21
234.2450792866
 31
0.0
 11
167.3307309521
 21
234.5805766055
 31
0.0
  0
SPLINE
  5
4A9
100
AcDbEntity
  8
RUNDUNGEN
100
AcDbSpline
 62
9
  6
CONTINUOUS
 70
0
 71
3
 72
32
 73
28
 74
26
 42
0.0000001
 43
0.0000001
 44
0.0000000001
 12
-0.0101453715
 22
-7.1787662102
 32
0.0
 13
6.5146666395
 23
3.0193352897
 33
0.0
 40
0.0
 40
0.0
 40
0.0
 40
0.0
 40
0.0364881818
 40
0.0743479304
 40
0.1137201334
 40
0.1547220234
 40
0.1972983769
 40
0.2403378354
 40
0.2825202669
 40
0.3238920661
 40
0.3648499707
 40
0.4054371071
 40
0.4456706218
 40
0.4856679577
 40
0.525551802
 40
0.5654247972
 40
0.6053933519
 40
0.6455667793
 40
0.6860480705
 40
0.7269301429
 40
0.768293114
 40
0.8102023381
 40
0.8527073662
 40
0.8958418411
 40
0.9396250999
 40
0.9840609188
 40
1.0
 40
1.0
 40
1.0
 40
1.0
 10
168.2877133427
 20
116.27930013
 30
0.0
 10
168.2875899474
 20
116.1919867545
 30
0.0
 10
168.2923465489
 20
116.0140280348
 30
0.0
 10
168.315715812
 20
115.7427454387
 30
0.0
 10
168.3579277672
 20
115.462776727
 30
0.0
 10
168.4217799178
 20
115.1753201352
 30
0.0
 10
168.5094706956
 20
114.8849805576
 30
0.0
 10
168.6211321515
 20
114.5999116943
 30
0.0
 10
168.754844503
 20
114.3276911842
 30
0.0
 10
168.9086444024
 20
114.0720797132
 30
0.0
 10
169.0818563945
 20
113.8338886451
 30
0.0
 10
169.273809036
 20
113.6141110544
 30
0.0
 10
169.4832509725
 20
113.4142332448
 30
0.0
 10
169.7088645952
 20
113.2354940534
 30
0.0
 10
169.9493561371
 20
113.0789077011
 30
0.0
 10
170.2033059695
 20
112.9453955876
 30
0.0
 10
170.4691819533
 20
112.8357503986
 30
0.0
 10
170.7454027761
 20
112.7506053476
 30
0.0
 10
171.0303433325
 20
112.6904432629
 30
0.0
 10
171.3223293259
 20
112.6556017807
 30
0.0
 10
171.6196439434
 20
112.6462713592
 30
0.0
 10
171.9205372034
 20
112.6624929153
 30
0.0
 10
172.2232377843
 20
112.7041565111
 30
0.0
 10
172.5259694266
 20
112.7710028281
 30
0.0
 10
172.8269626665
 20
112.862627225
 30
0.0
 10
173.0594315866
 20
112.9531584297
 30
0.0
 10
173.1913244685
 20
113.012227295
 30
0.0
 10
173.2259370688
 20
113.0282691052
 30
0.0
 11
168.2877133427
 21
116.27930013
 31
0.0
 11
168.2947930801
 21
116.0174554352
 31
0.0
 11
168.318217144
 21
115.7466801688
 31
0.0
 11
168.3604764267
 21
115.4672130807
 31
0.0
 11
168.4244467437
 21
115.1799052966
 31
0.0
 11
168.5129858619
 21
114.8873641922
 31
0.0
 11
168.6258478102
 21
114.599744718
 31
0.0
 11
168.7595124145
 21
114.3280231966
 31
0.0
 11
168.9127722667
 21
114.0736225526
 31
0.0
 11
169.0858157059
 21
113.8359081279
 31
0.0
 11
169.2775723585
 21
113.6165375573
 31
0.0
 11
169.486581585
 21
113.4171977885
 31
0.0
 11
169.7116791227
 21
113.2389401805
 31
0.0
 11
169.9516295223
 21
113.0827311028
 31
0.0
 11
170.2049801279
 21
112.9495156813
 31
0.0
 11
170.4702148965
 21
112.8400780931
 31
0.0
 11
170.7457890024
 21
112.7550420688
 31
0.0
 11
171.0301022667
 21
112.694893721
 31
0.0
 11
171.3215013099
 21
112.6599802978
 31
0.0
 11
171.6182855284
 21
112.6505062723
 31
0.0
 11
171.918715381
 21
112.6665291019
 31
0.0
 11
172.2210240807
 21
112.7079559821
 31
0.0
 11
172.5234325545
 21
112.7745432175
 31
0.0
 11
172.8241724694
 21
112.8659015112
 31
0.0
 11
173.1214854405
 21
112.9814982202
 31
0.0
 11
173.2259370688
 21
113.0282691052
 31
0.0
  0
SPLINE
  5
4AA
100
AcDbEntity
  8
RUNDUNGEN
100
AcDbSpline
 62
9
  6
CONTINUOUS
 70
0
 71
3
 72
32
 73
28
 74
26
 42
0.0000001
 43
0.0000001
 44
0.0000000001
 12
-0.0101453715
 22
-7.1787662102
 32
0.0
 13
6.5146666395
 23
3.0193352897
 33
0.0
 40
0.0
 40
0.0
 40
0.0
 40
0.0
 40
0.0364881818
 40
0.0743479304
 40
0.1137201334
 40
0.1547220234
 40
0.1972983769
 40
0.2403378354
 40
0.2825202669
 40
0.3238920661
 40
0.3648499707
 40
0.4054371071
 40
0.4456706218
 40
0.4856679577
 40
0.525551802
 40
0.5654247972
 40
0.6053933519
 40
0.6455667793
 40
0.6860480705
 40
0.7269301429
 40
0.768293114
 40
0.8102023381
 40
0.8527073662
 40
0.8958418411
 40
0.9396250999
 40
0.9840609188
 40
1.0
 40
1.0
 40
1.0
 40
1.0
 10
146.5019208926
 20
112.3198757078
 30
0.0
 10
146.5017974972
 20
112.2325623323
 30
0.0
 10
146.5065540987
 20
112.0546036126
 30
0.0
 10
146.5299233618
 20
111.7833210165
 30
0.0
 10
146.572135317
 20
111.5033523047
 30
0.0
 10
146.6359874676
 20
111.2158957129
 30
0.0
 10
146.7236782454
 20
110.9255561353
 30
0.0
 10
146.8353397014
 20
110.640487272
 30
0.0
 10
146.9690520528
 20
110.368266762
 30
0.0
 10
147.1228519523
 20
110.1126552909
 30
0.0
 10
147.2960639444
 20
109.8744642228
 30
0.0
 10
147.4880165859
 20
109.6546866322
 30
0.0
 10
147.6974585224
 20
109.4548088225
 30
0.0
 10
147.923072145
 20
109.2760696312
 30
0.0
 10
148.1635636869
 20
109.1194832788
 30
0.0
 10
148.4175135193
 20
108.9859711653
 30
0.0
 10
148.6833895031
 20
108.8763259763
 30
0.0
 10
148.9596103259
 20
108.7911809254
 30
0.0
 10
149.2445508823
 20
108.7310188407
 30
0.0
 10
149.5365368757
 20
108.6961773584
 30
0.0
 10
149.8338514932
 20
108.6868469369
 30
0.0
 10
150.1347447532
 20
108.7030684931
 30
0.0
 10
150.4374453341
 20
108.7447320889
 30
0.0
 10
150.7401769764
 20
108.8115784058
 30
0.0
 10
151.0411702163
 20
108.9032028028
 30
0.0
 10
151.2736391365
 20
108.9937340074
 30
0.0
 10
151.4055320184
 20
109.0528028728
 30
0.0
 10
151.4401446186
 20
109.068844683
 30
0.0
 11
146.5019208926
 21
112.3198757078
 31
0.0
 11
146.5090006299
 21
112.058031013
 31
0.0
 11
146.5324246939
 21
111.7872557466
 31
0.0
 11
146.5746839766
 21
111.5077886584
 31
0.0
 11
146.6386542935
 21
111.2204808744
 31
0.0
 11
146.7271934118
 21
110.92793977
 31
0.0
 11
146.8400553601
 21
110.6403202958
 31
0.0
 11
146.9737199644
 21
110.3685987743
 31
0.0
 11
147.1269798165
 21
110.1141981304
 31
0.0
 11
147.3000232557
 21
109.8764837057
 31
0.0
 11
147.4917799083
 21
109.6571131351
 31
0.0
 11
147.7007891349
 21
109.4577733662
 31
0.0
 11
147.9258866726
 21
109.2795157582
 31
0.0
 11
148.1658370721
 21
109.1233066806
 31
0.0
 11
148.4191876778
 21
108.9900912591
 31
0.0
 11
148.6844224463
 21
108.8806536709
 31
0.0
 11
148.9599965523
 21
108.7956176466
 31
0.0
 11
149.2443098165
 21
108.7354692988
 31
0.0
 11
149.5357088597
 21
108.7005558755
 31
0.0
 11
149.8324930783
 21
108.6910818501
 31
0.0
 11
150.1329229308
 21
108.7071046797
 31
0.0
 11
150.4352316305
 21
108.7485315598
 31
0.0
 11
150.7376401043
 21
108.8151187953
 31
0.0
 11
151.0383800193
 21
108.906477089
 31
0.0
 11
151.3356929903
 21
109.0220737979
 31
0.0
 11
151.4401446186
 21
109.068844683
 31
0.0
  0
SPLINE
  5
4AB
100
AcDbEntity
  8
RUNDUNGEN
100
AcDbSpline
 62
9
  6
CONTINUOUS
 70
0
 71
3
 72
32
 73
28
 74
26
 42
0.0000001
 43
0.0000001
 44
0.0000000001
 12
-0.0101453715
 22
-7.1787662102
 32
0.0
 13
6.5146666395
 23
3.0193352896
 33
0.0
 40
0.0
 40
0.0
 40
0.0
 40
0.0
 40
0.0364881818
 40
0.0743479304
 40
0.1137201334
 40
0.1547220234
 40
0.1972983769
 40
0.2403378354
 40
0.2825202669
 40
0.3238920661
 40
0.3648499707
 40
0.4054371071
 40
0.4456706218
 40
0.4856679577
 40
0.525551802
 40
0.5654247972
 40
0.6053933519
 40
0.6455667793
 40
0.6860480705
 40
0.7269301429
 40
0.768293114
 40
0.8102023381
 40
0.8527073662
 40
0.8958418411
 40
0.9396250999
 40
0.9840609188
 40
1.0
 40
1.0
 40
1.0
 40
1.0
 10
168.4454163657
 20
227.8684259255
 30
0.0
 10
168.4452929703
 20
227.78111255
 30
0.0
 10
168.4500495719
 20
227.6031538303
 30
0.0
 10
168.4734188349
 20
227.3318712342
 30
0.0
 10
168.5156307902
 20
227.0519025225
 30
0.0
 10
168.5794829407
 20
226.7644459306
 30
0.0
 10
168.6671737186
 20
226.4741063531
 30
0.0
 10
168.7788351745
 20
226.1890374898
 30
0.0
 10
168.912547526
 20
225.9168169797
 30
0.0
 10
169.0663474254
 20
225.6612055087
 30
0.0
 10
169.2395594175
 20
225.4230144405
 30
0.0
 10
169.431512059
 20
225.2032368499
 30
0.0
 10
169.6409539955
 20
225.0033590402
 30
0.0
 10
169.8665676181
 20
224.8246198489
 30
0.0
 10
170.10705916
 20
224.6680334965
 30
0.0
 10
170.3610089925
 20
224.5345213831
 30
0.0
 10
170.6268849763
 20
224.424876194
 30
0.0
 10
170.903105799
 20
224.3397311431
 30
0.0
 10
171.1880463554
 20
224.2795690584
 30
0.0
 10
171.4800323489
 20
224.2447275761
 30
0.0
 10
171.7773469663
 20
224.2353971547
 30
0.0
 10
172.0782402264
 20
224.2516187108
 30
0.0
 10
172.3809408072
 20
224.2932823066
 30
0.0
 10
172.6836724496
 20
224.3601286236
 30
0.0
 10
172.9846656895
 20
224.4517530205
 30
0.0
 10
173.2171346096
 20
224.5422842252
 30
0.0
 10
173.3490274915
 20
224.6013530905
 30
0.0
 10
173.3836400918
 20
224.6173949007
 30
0.0
 11
168.4454163657
 21
227.8684259255
 31
0.0
 11
168.452496103
 21
227.6065812307
 31
0.0
 11
168.475920167
 21
227.3358059643
 31
0.0
 11
168.5181794497
 21
227.0563388761
 31
0.0
 11
168.5821497667
 21
226.7690310921
 31
0.0
 11
168.6706888849
 21
226.4764899877
 31
0.0
 11
168.7835508332
 21
226.1888705135
 31
0.0
 11
168.9172154375
 21
225.9171489921
 31
0.0
 11
169.0704752896
 21
225.6627483481
 31
0.0
 11
169.2435187289
 21
225.4250339234
 31
0.0
 11
169.4352753815
 21
225.2056633528
 31
0.0
 11
169.644284608
 21
225.006323584
 31
0.0
 11
169.8693821457
 21
224.8280659759
 31
0.0
 11
170.1093325452
 21
224.6718568983
 31
0.0
 11
170.3626831509
 21
224.5386414768
 31
0.0
 11
170.6279179194
 21
224.4292038886
 31
0.0
 11
170.9034920254
 21
224.3441678643
 31
0.0
 11
171.1878052897
 21
224.2840195165
 31
0.0
 11
171.4792043328
 21
224.2491060932
 31
0.0
 11
171.7759885514
 21
224.2396320678
 31
0.0
 11
172.0764184039
 21
224.2556548974
 31
0.0
 11
172.3787271037
 21
224.2970817776
 31
0.0
 11
172.6811355774
 21
224.363669013
 31
0.0
 11
172.9818754924
 21
224.4550273067
 31
0.0
 11
173.2791884635
 21
224.5706240157
 31
0.0
 11
173.3836400918
 21
224.6173949007
 31
0.0
  0
SPLINE
  5
4AC
100
AcDbEntity
  8
RUNDUNGEN
100
AcDbSpline
 62
9
  6
CONTINUOUS
 70
0
 71
3
 72
32
 73
28
 74
26
 42
0.0000001
 43
0.0000001
 44
0.0000000001
 12
-0.0101453715
 22
-7.1787662102
 32
0.0
 13
6.5146666395
 23
3.0193352897
 33
0.0
 40
0.0
 40
0.0
 40
0.0
 40
0.0
 40
0.0364881818
 40
0.0743479304
 40
0.1137201334
 40
0.1547220234
 40
0.1972983769
 40
0.2403378354
 40
0.2825202669
 40
0.3238920661
 40
0.3648499707
 40
0.4054371071
 40
0.4456706218
 40
0.4856679577
 40
0.525551802
 40
0.5654247972
 40
0.6053933519
 40
0.6455667793
 40
0.6860480705
 40
0.7269301429
 40
0.768293114
 40
0.8102023381
 40
0.8527073662
 40
0.8958418411
 40
0.9396250999
 40
0.9840609188
 40
1.0
 40
1.0
 40
1.0
 40
1.0
 10
146.6596239155
 20
223.9090015033
 30
0.0
 10
146.6595005202
 20
223.8216881278
 30
0.0
 10
146.6642571217
 20
223.643729408
 30
0.0
 10
146.6876263848
 20
223.372446812
 30
0.0
 10
146.72983834
 20
223.0924781002
 30
0.0
 10
146.7936904906
 20
222.8050215084
 30
0.0
 10
146.8813812684
 20
222.5146819308
 30
0.0
 10
146.9930427243
 20
222.2296130675
 30
0.0
 10
147.1267550758
 20
221.9573925575
 30
0.0
 10
147.2805549752
 20
221.7017810864
 30
0.0
 10
147.4537669673
 20
221.4635900183
 30
0.0
 10
147.6457196088
 20
221.2438124277
 30
0.0
 10
147.8551615453
 20
221.043934618
 30
0.0
 10
148.080775168
 20
220.8651954267
 30
0.0
 10
148.3212667099
 20
220.7086090743
 30
0.0
 10
148.5752165423
 20
220.5750969608
 30
0.0
 10
148.8410925261
 20
220.4654517718
 30
0.0
 10
149.1173133489
 20
220.3803067209
 30
0.0
 10
149.4022539053
 20
220.3201446362
 30
0.0
 10
149.6942398987
 20
220.2853031539
 30
0.0
 10
149.9915545162
 20
220.2759727324
 30
0.0
 10
150.2924477762
 20
220.2921942886
 30
0.0
 10
150.5951483571
 20
220.3338578844
 30
0.0
 10
150.8978799994
 20
220.4007042013
 30
0.0
 10
151.1988732393
 20
220.4923285982
 30
0.0
 10
151.4313421594
 20
220.5828598029
 30
0.0
 10
151.5632350413
 20
220.6419286683
 30
0.0
 10
151.5978476416
 20
220.6579704784
 30
0.0
 11
146.6596239155
 21
223.9090015033
 31
0.0
 11
146.6667036529
 21
223.6471568085
 31
0.0
 11
146.6901277168
 21
223.3763815421
 31
0.0
 11
146.7323869995
 21
223.0969144539
 31
0.0
 11
146.7963573165
 21
222.8096066699
 31
0.0
 11
146.8848964347
 21
222.5170655655
 31
0.0
 11
146.997758383
 21
222.2294460913
 31
0.0
 11
147.1314229873
 21
221.9577245698
 31
0.0
 11
147.2846828395
 21
221.7033239259
 31
0.0
 11
147.4577262787
 21
221.4656095012
 31
0.0
 11
147.6494829313
 21
221.2462389306
 31
0.0
 11
147.8584921578
 21
221.0468991617
 31
0.0
 11
148.0835896955
 21
220.8686415537
 31
0.0
 11
148.3235400951
 21
220.7124324761
 31
0.0
 11
148.5768907007
 21
220.5792170546
 31
0.0
 11
148.8421254693
 21
220.4697794664
 31
0.0
 11
149.1176995752
 21
220.3847434421
 31
0.0
 11
149.4020128395
 21
220.3245950943
 31
0.0
 11
149.6934118827
 21
220.289681671
 31
0.0
 11
149.9901961012
 21
220.2802076456
 31
0.0
 11
150.2906259538
 21
220.2962304752
 31
0.0
 11
150.5929346535
 21
220.3376573553
 31
0.0
 11
150.8953431273
 21
220.4042445908
 31
0.0
 11
151.1960830422
 21
220.4956028844
 31
0.0
 11
151.4933960133
 21
220.6111995934
 31
0.0
 11
151.5978476416
 21
220.6579704784
 31
0.0
  0
ENDSEC
  0
SECTION
  2
OBJECTS
  0
DICTIONARY
  5
C
100
AcDbDictionary
280
0
281
1
  3
ACAD_GROUP
350
D
  3
ACAD_MLINESTYLE
350
17
  3
ACAD_LAYOUT
350
1A
  3
ACAD_PLOTSETTINGS
350
19
  3
ACAD_PLOTSTYLENAME
350
E
  3
ACAD_TABLESTYLE
350
       4AD
  0
DICTIONARY
  5
D
102
{ACAD_REACTORS
330
C
102
}
100
AcDbDictionary
280
0
281
1
  0
ACDBDICTIONARYWDFLT
  5
E
102
{ACAD_REACTORS
330
C
102
}
100
AcDbDictionary
281
1
  3
Normal
350
F
100
AcDbDictionaryWithDefault
340
F
  0
DICTIONARY
  5
17
102
{ACAD_REACTORS
330
C
102
}
100
AcDbDictionary
280
0
281
1
  3
Standard
350
18
  0
DICTIONARY
  5
4AD
330
C
100
AcDbDictionary
281
1
  3
Standard
350
       4B0
  3
Standard1
350
       4B1
  0
DICTIONARY
  5
19
102
{ACAD_REACTORS
330
C
102
}
100
AcDbDictionary
281
1
  0
DICTIONARY
  5
1A
102
{ACAD_REACTORS
330
C
102
}
100
AcDbDictionary
281
1
  3
Model
350
4AE
  3
Layout1
350
4AF
  0
ACDBPLACEHOLDER
  5
F
102
{ACAD_REACTORS
330
E
102
}
  0
MLINESTYLE
  5
18
102
{ACAD_REACTORS
330
17
102
}
100
AcDbMlineStyle
  2
STANDARD
 70
0
  3

 62
256
 51
90.0
 52
90.0
 71
2
 49
0.5
 62
256
  6
BYLAYER
 49
-0.5
 62
256
  6
BYLAYER
  0
LAYOUT
  5
4AE
102
{ACAD_REACTORS
330
1A
102
}
100
AcDbPlotSettings
  1

  2
none_device
  4

  6

 40
0.0
 41
0.0
 42
0.0
 43
0.0
 44
210.0
 45
297.0
 46
0.0
 47
0.0
 48
0.0
 49
0.0
140
0.0
141
0.0
142
1.0
143
1.0
 70
1024
 72
1
 73
0
 74
0
  7

 75
0
147
1.0
148
0.0
149
0.0
100
AcDbLayout
  1
Model
 70
0
 71
0
 10
0.0
 20
0.0
 11
210.0
 21
297.0
 12
0.0
 22
0.0
 32
0.0
 14
0.0
 24
0.0
 34
0.0
 15
0.0
 25
0.0
 35
0.0
146
0.0
 13
0.0
 23
0.0
 33
0.0
 16
1.0
 26
0.0
 36
0.0
 17
0.0
 27
1.0
 37
0.0
 76
0
330
20C
345
0
346
0
  0
LAYOUT
  5
4AF
102
{ACAD_REACTORS
330
1A
102
}
100
AcDbPlotSettings
  1

  2
none_device
  4

  6

 40
0.0
 41
0.0
 42
0.0
 43
0.0
 44
210.0
 45
297.0
 46
0.0
 47
0.0
 48
0.0
 49
0.0
140
0.0
141
0.0
142
1.0
143
1.0
 70
0
 72
1
 73
0
 74
0
  7

 75
0
147
1.0
148
0.0
149
0.0
100
AcDbLayout
  1
Layout1
 70
0
 71
1
 10
0.0
 20
0.0
 11
210.0
 21
297.0
 12
0.0
 22
0.0
 32
0.0
 14
0.0
 24
0.0
 34
0.0
 15
0.0
 25
0.0
 35
0.0
146
0.0
 13
0.0
 23
0.0
 33
0.0
 16
1.0
 26
0.0
 36
0.0
 17
0.0
 27
1.0
 37
0.0
 76
0
330
20D
345
0
346
0
  0
TABLESTYLE
  5
4B0
102
{ACAD_REACTORS
330
4AD
330
2D1
102
}
330
4AD
100
AcDbTableStyle
  3
Standard
 70
0
 71
0
 40
0.06
 41
0.06
280
1
281
1
  7
Standard
140
0.18
170
1
 62
0
 63
7
283
0
  7
Standard
140
0.18
170
1
 62
0
 63
7
283
0
  7
Standard
140
0.18
170
1
 62
0
 63
7
283
0
  0
TABLESTYLE
  5
4B1
102
{ACAD_REACTORS
330
4AD
102
}
330
4AD
100
AcDbTableStyle
  3
Standard1
 70
1
 71
0
 40
0.06
 41
0.06
280
1
281
1
  7
Standard
140
0.18
170
1
 62
0
 63
7
283
0
  7
Standard
140
0.18
170
1
 62
0
 63
7
283
0
  7
Standard
140
0.18
170
1
 62
0
 63
7
283
0
  0
ENDSEC
  0
EOF
