  0
SECTION
  2
HEADER
  9
$ACADVER
  1
AC1009
  9
$INSBASE
 10
0.0
 20
0.0
 30
0.0
  9
$EXTMIN
 10
0.0
 20
0.0
 30
0.0
  9
$EXTMAX
 10
594.0
 20
420.0
 30
0.0
  9
$LIMMIN
 10
0.0
 20
0.0
  9
$LIMMAX
 10
594.0
 20
420.0
  9
$ORTHOMODE
 70
     0
  9
$REGENMODE
 70
     1
  9
$FILLMODE
 70
     1
  9
$QTEXTMODE
 70
     0
  9
$MIRRTEXT
 70
     1
  9
$DRAGMODE
 70
     2
  9
$LTSCALE
 40
32.67
  9
$OSMODE
 70
     0
  9
$ATTMODE
 70
     1
  9
$TEXTSIZE
 40
2.5
  9
$TRACEWID
 40
1.0
  9
$TEXTSTYLE
  7
STANDARD
  9
$CLAYER
  8
0
  9
$CELTYPE
  6
BYLAYER
  9
$CECOLOR
 62
   256
  9
$DIMSCALE
 40
1.0
  9
$DIMASZ
 40
3.5
  9
$DIMEXO
 40
3.7125
  9
$DIMDLI
 40
22.572
  9
$DIMRND
 40
0.0
  9
$DIMDLE
 40
0.0
  9
$DIMEXE
 40
10.692
  9
$DIMTP
 40
0.0
  9
$DIMTM
 40
0.0
  9
$DIMTXT
 40
6.712333
  9
$DIMCEN
 40
5.346
  9
$DIMTSZ
 40
0.0
  9
$DIMTOL
 70
     0
  9
$DIMLIM
 70
     0
  9
$DIMTIH
 70
     0
  9
$DIMTOH
 70
     0
  9
$DIMSE1
 70
     0
  9
$DIMSE2
 70
     0
  9
$DIMTAD
 70
     1
  9
$DIMZIN
 70
     8
  9
$DIMBLK
  1

  9
$DIMASO
 70
     1
  9
$DIMSHO
 70
     1
  9
$DIMPOST
  1

  9
$DIMAPOST
  1

  9
$DIMALT
 70
     0
  9
$DIMALTD
 70
     4
  9
$DIMALTF
 40
0.0394
  9
$DIMLFAC
 40
1.0
  9
$DIMTOFL
 70
     1
  9
$DIMTVP
 40
0.0
  9
$DIMTIX
 70
     0
  9
$DIMSOXD
 70
     0
  9
$DIMSAH
 70
     0
  9
$DIMBLK1
  1

  9
$DIMBLK2
  1

  9
$DIMSTYLE
  2
STANDARD
  9
$DIMCLRD
 70
     0
  9
$DIMCLRE
 70
     0
  9
$DIMCLRT
 70
     0
  9
$DIMTFAC
 40
1.0
  9
$DIMGAP
 40
0.625
  9
$LUNITS
 70
     2
  9
$LUPREC
 70
     4
  9
$SKETCHINC
 40
1.0
  9
$FILLETRAD
 40
10.0
  9
$AUNITS
 70
     0
  9
$AUPREC
 70
     0
  9
$MENU
  1
.
  9
$ELEVATION
 40
0.0
  9
$PELEVATION
 40
0.0
  9
$THICKNESS
 40
0.0
  9
$LIMCHECK
 70
     0
  9
$BLIPMODE
 70
     0
  9
$CHAMFERA
 40
10.0
  9
$CHAMFERB
 40
10.0
  9
$SKPOLY
 70
     0
  9
$TDCREATE
 40
2452928.559384
  9
$TDUPDATE
 40
2452928.559384
  9
$TDINDWG
 40
0.0
  9
$TDUSRTIMER
 40
0.0
  9
$USRTIMER
 70
     1
  9
$ANGBASE
 50
0.0
  9
$ANGDIR
 70
     0
  9
$PDMODE
 70
     0
  9
$PDSIZE
 40
0.0
  9
$PLINEWID
 40
0.0
  9
$COORDS
 70
     1
  9
$SPLFRAME
 70
     0
  9
$SPLINETYPE
 70
     6
  9
$SPLINESEGS
 70
     8
  9
$ATTDIA
 70
     0
  9
$ATTREQ
 70
     1
  9
$HANDLING
 70
     1
  9
$HANDSEED
  5
6
  9
$SURFTAB1
 70
     6
  9
$SURFTAB2
 70
     6
  9
$SURFTYPE
 70
     6
  9
$SURFU
 70
     6
  9
$SURFV
 70
     6
  9
$UCSNAME
  2

  9
$UCSORG
 10
0.0
 20
0.0
 30
0.0
  9
$UCSXDIR
 10
1.0
 20
0.0
 30
0.0
  9
$UCSYDIR
 10
0.0
 20
1.0
 30
0.0
  9
$PUCSNAME
  2

  9
$PUCSORG
 10
0.0
 20
0.0
 30
0.0
  9
$PUCSXDIR
 10
1.0
 20
0.0
 30
0.0
  9
$PUCSYDIR
 10
0.0
 20
1.0
 30
0.0
  9
$USERI1
 70
     0
  9
$USERI2
 70
     0
  9
$USERI3
 70
     0
  9
$USERI4
 70
     0
  9
$USERI5
 70
     0
  9
$USERR1
 40
0.0
  9
$USERR2
 40
0.0
  9
$USERR3
 40
0.0
  9
$USERR4
 40
0.0
  9
$USERR5
 40
0.0
  9
$WORLDVIEW
 70
     1
  9
$SHADEDGE
 70
     3
  9
$SHADEDIF
 70
    70
  9
$TILEMODE
 70
     1
  9
$MAXACTVP
 70
    48
  9
$PLIMCHECK
 70
     0
  9
$PEXTMIN
 10
1.000000E+020
 20
1.000000E+020
 30
1.000000E+020
  9
$PEXTMAX
 10
-1.000000E+020
 20
-1.000000E+020
 30
-1.000000E+020
  9
$PLIMMIN
 10
0.0
 20
0.0
  9
$PLIMMAX
 10
420.0
 20
297.0
  9
$UNITMODE
 70
     0
  9
$VISRETAIN
 70
     1
  9
$PLINEGEN
 70
     0
  9
$PSLTSCALE
 70
     1
  0
ENDSEC
  0
SECTION
  2
TABLES
  0
TABLE
  2
VPORT
 70
     2
  0
VPORT
  2
*ACTIVE
 70
     0
 10
0.0
 20
0.0
 11
1.0
 21
1.0
 12
320.25
 22
210.0
 13
0.0
 23
0.0
 14
1.0
 24
1.0
 15
0.0
 25
0.0
 16
0.0
 26
0.0
 36
1.0
 17
0.0
 27
0.0
 37
0.0
 40
420.0
 41
1.525
 42
50.0
 43
0.0
 44
0.0
 50
0.0
 51
0.0
 71
     0
 72
   100
 73
     1
 74
     1
 75
     0
 76
     0
 77
     0
 78
     0
  0
ENDTAB
  0
TABLE
  2
LTYPE
 70
     6
  0
LTYPE
  2
CONTINUOUS
 70
     0
  3
Solid line
 72
    65
 73
     0
 40
0.0
  0
LTYPE
  2
CENTER
 70
     0
  3
____ _ ____ _ ____ _ ____ _ ____ _ ____ _ ____
 72
    65
 73
     4
 40
0.6
 49
0.375
 49
-0.075
 49
0.075
 49
-0.075
  0
LTYPE
  2
HIDDEN
 70
     0
  3
- - - - - - - - - - - - - - - - - - - -
 72
    65
 73
     2
 40
0.2
 49
0.1
 49
-0.1
  0
LTYPE
  2
PHANTOM
 70
     0
  3
_____ _ _ _____ _ _ _____ _ _ _____
 72
    65
 73
     6
 40
0.8
 49
0.45
 49
-0.05
 49
0.1
 49
-0.05
 49
0.1
 49
-0.05
  0
LTYPE
  2
DOT
 70
     0
  3
. . . . . . . . . . . . . . . . . . . .
 72
    65
 73
     2
 40
0.2
 49
0.1
 49
-0.1
  0
LTYPE
  2
DASHED
 70
     0
  3
- - - - - - - - - - - - - - - - - - - -
 72
    65
 73
     2
 40
0.2
 49
0.1
 49
-0.1
  0
ENDTAB
  0
TABLE
  2
LAYER
 70
     5
  0
LAYER
  2
0
 70
     0
 62
     7
  6
CONTINUOUS
  0
LAYER
  2
DEFAULT_1
 70
     0
 62
     7
  6
CENTER
  0
LAYER
  2
DEFAULT_2
 70
     0
 62
     8
  6
HIDDEN
  0
LAYER
  2
DEFAULT_3
 70
     0
 62
     7
  6
PHANTOM
  0
LAYER
  2
ZEICHNUNGSBEMAßUNGEN
 70
     0
 62
     7
  6
CONTINUOUS
  0
ENDTAB
  0
TABLE
  2
STYLE
 70
     1
  0
STYLE
  2
STANDARD
 70
     0
 40
0.0
 41
0.8
 50
0.0
 71
     0
 42
0.2
  3
txt
  4

  0
ENDTAB
  0
TABLE
  2
VIEW
 70
     0
  0
ENDTAB
  0
TABLE
  2
UCS
 70
     0
  0
ENDTAB
  0
TABLE
  2
APPID
 70
     1
  0
APPID
  2
ACAD
 70
     0
  0
ENDTAB
  0
TABLE
  2
DIMSTYLE
 70
     1
  0
DIMSTYLE
  2
STANDARD
 70
     0
  3

  4

  5

  6

  7

 40
1.0
 41
0.18
 42
0.0625
 43
0.38
 44
0.18
 45
0.0
 46
0.0
 47
0.0
 48
0.0
140
0.18
141
0.09
142
0.0
143
25.4
144
1.0
145
0.0
146
1.0
147
0.09
 71
     0
 72
     0
 73
     1
 74
     1
 75
     0
 76
     0
 77
     0
 78
     0
170
     0
171
     2
172
     0
173
     0
174
     0
175
     0
176
     0
177
     0
178
     0
  0
ENDTAB
  0
ENDSEC
  0
SECTION
  2
BLOCKS
  0
BLOCK
  8
0
  2
$MODEL_SPACE
 70
     0
 10
0.0
 20
0.0
 30
0.0
  3
$MODEL_SPACE
  1

  0
ENDBLK
  5
216
  8
0
  0
BLOCK
 67
     1
  8
0
  2
$PAPER_SPACE
 70
     0
 10
0.0
 20
0.0
 30
0.0
  3
$PAPER_SPACE
  1

  0
ENDBLK
  5
218
 67
     1
  8
0
  0
BLOCK
  8
0
 62
     2
  2
*D0
 70
     1
 10
0.0
 20
0.0
 30
0.0
  3
*D0
  1

  0
TEXT
  5
21A
  8
ZEICHNUNGSBEMAßUNGEN
  6
CONTINUOUS
 62
     2
 10
530.909872
 20
346.424356
 30
0.0
 40
3.5
  1
10,5
 41
0.991071
 51
15.0
 72
     5
 11
540.159872
 21
346.424356
 31
0.0
  0
TEXT
  5
21B
  8
ZEICHNUNGSBEMAßUNGEN
  6
CONTINUOUS
 62
     2
 10
545.159872
 20
346.424356
 30
0.0
 40
3.5
  1
.413
 41
0.991071
 51
15.0
 72
     5
 11
554.409872
 21
346.424356
 31
0.0
  0
TEXT
  5
21C
  8
ZEICHNUNGSBEMAßUNGEN
  6
CONTINUOUS
 62
     2
 10
543.659872
 20
346.424356
 30
0.0
 40
3.5
  1
[
 41
1.285714
 51
15.0
 72
     5
 11
545.159872
 21
346.424356
 31
0.0
  0
TEXT
  5
21D
  8
ZEICHNUNGSBEMAßUNGEN
  6
CONTINUOUS
 62
     2
 10
554.409872
 20
346.424356
 30
0.0
 40
3.5
  1
]
 41
1.285714
 51
15.0
 72
     5
 11
555.909872
 21
346.424356
 31
0.0
  0
LINE
  5
21E
  8
ZEICHNUNGSBEMAßUNGEN
  6
CONTINUOUS
 62
     2
 10
537.549227
 20
334.410305
 30
0.0
 11
537.549227
 21
347.018489
 31
0.0
  0
LINE
  5
21F
  8
ZEICHNUNGSBEMAßUNGEN
  6
CONTINUOUS
 62
     2
 10
548.049227
 20
334.410305
 30
0.0
 11
548.049227
 21
347.018489
 31
0.0
  0
LINE
  5
220
  8
ZEICHNUNGSBEMAßUNGEN
  6
CONTINUOUS
 62
     2
 10
537.549227
 20
345.518489
 30
0.0
 11
542.799227
 21
345.518489
 31
0.0
  0
LINE
  5
221
  8
ZEICHNUNGSBEMAßUNGEN
  6
CONTINUOUS
 62
     2
 10
548.049227
 20
345.518489
 30
0.0
 11
542.799227
 21
345.518489
 31
0.0
  0
POLYLINE
  5
222
  8
ZEICHNUNGSBEMAßUNGEN
  6
CONTINUOUS
 62
     2
 66
     1
 10
0.0
 20
0.0
 30
0.0
  0
VERTEX
  5
223
  8
ZEICHNUNGSBEMAßUNGEN
  6
CONTINUOUS
 62
     2
 10
541.049227
 20
345.955989
 30
0.0
  0
VERTEX
  5
224
  8
ZEICHNUNGSBEMAßUNGEN
  6
CONTINUOUS
 62
     2
 10
537.549227
 20
345.518489
 30
0.0
  0
VERTEX
  5
225
  8
ZEICHNUNGSBEMAßUNGEN
  6
CONTINUOUS
 62
     2
 10
541.049227
 20
345.080989
 30
0.0
  0
VERTEX
  5
226
  8
ZEICHNUNGSBEMAßUNGEN
  6
CONTINUOUS
 62
     2
 10
541.049227
 20
345.955989
 30
0.0
  0
SEQEND
  5
227
  8
0
 62
     2
  0
POLYLINE
  5
228
  8
ZEICHNUNGSBEMAßUNGEN
  6
CONTINUOUS
 62
     2
 66
     1
 10
0.0
 20
0.0
 30
0.0
  0
VERTEX
  5
229
  8
ZEICHNUNGSBEMAßUNGEN
  6
CONTINUOUS
 62
     2
 10
544.549227
 20
345.080989
 30
0.0
  0
VERTEX
  5
22A
  8
ZEICHNUNGSBEMAßUNGEN
  6
CONTINUOUS
 62
     2
 10
548.049227
 20
345.518489
 30
0.0
  0
VERTEX
  5
22B
  8
ZEICHNUNGSBEMAßUNGEN
  6
CONTINUOUS
 62
     2
 10
544.549227
 20
345.955989
 30
0.0
  0
VERTEX
  5
22C
  8
ZEICHNUNGSBEMAßUNGEN
  6
CONTINUOUS
 62
     2
 10
544.549227
 20
345.080989
 30
0.0
  0
SEQEND
  5
22D
  8
0
 62
     2
  0
ENDBLK
  5
22E
  8
0
  0
BLOCK
  8
0
 62
     2
  2
*D1
 70
     1
 10
0.0
 20
0.0
 30
0.0
  3
*D1
  1

  0
TEXT
  5
230
  8
ZEICHNUNGSBEMAßUNGEN
  6
CONTINUOUS
 62
     2
 10
481.647959
 20
292.509365
 30
0.0
 40
3.5
  1
52,8301
 50
90.0
 41
0.869748
 51
15.0
 72
     5
 11
481.647959
 21
309.759365
 31
0.0
  0
TEXT
  5
231
  8
ZEICHNUNGSBEMAßUNGEN
  6
CONTINUOUS
 62
     2
 10
481.647959
 20
314.759365
 30
0.0
 40
3.5
  1
2.080
 50
90.0
 41
1.012987
 51
15.0
 72
     5
 11
481.647959
 21
327.759365
 31
0.0
  0
TEXT
  5
232
  8
ZEICHNUNGSBEMAßUNGEN
  6
CONTINUOUS
 62
     2
 10
481.647959
 20
313.259365
 30
0.0
 40
3.5
  1
[
 50
90.0
 41
1.285714
 51
15.0
 72
     5
 11
481.647959
 21
314.759365
 31
0.0
  0
TEXT
  5
233
  8
ZEICHNUNGSBEMAßUNGEN
  6
CONTINUOUS
 62
     2
 10
481.647959
 20
327.759365
 30
0.0
 40
3.5
  1
]
 50
90.0
 41
1.285714
 51
15.0
 72
     5
 11
481.647959
 21
329.259365
 31
0.0
  0
LINE
  5
234
  8
ZEICHNUNGSBEMAßUNGEN
  6
CONTINUOUS
 62
     2
 10
463.998671
 20
283.080178
 30
0.0
 11
484.053826
 21
283.080178
 31
0.0
  0
LINE
  5
235
  8
ZEICHNUNGSBEMAßUNGEN
  6
CONTINUOUS
 62
     2
 10
450.998671
 20
335.910305
 30
0.0
 11
484.053826
 21
335.910305
 31
0.0
  0
LINE
  5
236
  8
ZEICHNUNGSBEMAßUNGEN
  6
CONTINUOUS
 62
     2
 10
482.553826
 20
283.080178
 30
0.0
 11
482.553826
 21
309.495242
 31
0.0
  0
LINE
  5
237
  8
ZEICHNUNGSBEMAßUNGEN
  6
CONTINUOUS
 62
     2
 10
482.553826
 20
335.910305
 30
0.0
 11
482.553826
 21
309.495242
 31
0.0
  0
POLYLINE
  5
238
  8
ZEICHNUNGSBEMAßUNGEN
  6
CONTINUOUS
 62
     2
 66
     1
 10
0.0
 20
0.0
 30
0.0
  0
VERTEX
  5
239
  8
ZEICHNUNGSBEMAßUNGEN
  6
CONTINUOUS
 62
     2
 10
482.116326
 20
286.580178
 30
0.0
  0
VERTEX
  5
23A
  8
ZEICHNUNGSBEMAßUNGEN
  6
CONTINUOUS
 62
     2
 10
482.553826
 20
283.080178
 30
0.0
  0
VERTEX
  5
23B
  8
ZEICHNUNGSBEMAßUNGEN
  6
CONTINUOUS
 62
     2
 10
482.991326
 20
286.580178
 30
0.0
  0
VERTEX
  5
23C
  8
ZEICHNUNGSBEMAßUNGEN
  6
CONTINUOUS
 62
     2
 10
482.116326
 20
286.580178
 30
0.0
  0
SEQEND
  5
23D
  8
0
 62
     2
  0
POLYLINE
  5
23E
  8
ZEICHNUNGSBEMAßUNGEN
  6
CONTINUOUS
 62
     2
 66
     1
 10
0.0
 20
0.0
 30
0.0
  0
VERTEX
  5
23F
  8
ZEICHNUNGSBEMAßUNGEN
  6
CONTINUOUS
 62
     2
 10
482.991326
 20
332.410305
 30
0.0
  0
VERTEX
  5
240
  8
ZEICHNUNGSBEMAßUNGEN
  6
CONTINUOUS
 62
     2
 10
482.553826
 20
335.910305
 30
0.0
  0
VERTEX
  5
241
  8
ZEICHNUNGSBEMAßUNGEN
  6
CONTINUOUS
 62
     2
 10
482.116326
 20
332.410305
 30
0.0
  0
VERTEX
  5
242
  8
ZEICHNUNGSBEMAßUNGEN
  6
CONTINUOUS
 62
     2
 10
482.991326
 20
332.410305
 30
0.0
  0
SEQEND
  5
243
  8
0
 62
     2
  0
ENDBLK
  5
244
  8
0
  0
BLOCK
  8
0
 62
     2
  2
*D2
 70
     1
 10
0.0
 20
0.0
 30
0.0
  3
*D2
  1

  0
TEXT
  5
246
  8
ZEICHNUNGSBEMAßUNGEN
  6
CONTINUOUS
 62
     2
 10
527.661886
 20
306.577084
 30
0.0
 40
3.5
  1
27,3
 50
90.0
 41
0.902256
 51
15.0
 72
     5
 11
527.661886
 21
316.577084
 31
0.0
  0
TEXT
  5
247
  8
ZEICHNUNGSBEMAßUNGEN
  6
CONTINUOUS
 62
     2
 10
527.661886
 20
321.577084
 30
0.0
 40
3.5
  1
1.075
 50
90.0
 41
0.979592
 51
15.0
 72
     5
 11
527.661886
 21
333.577084
 31
0.0
  0
TEXT
  5
248
  8
ZEICHNUNGSBEMAßUNGEN
  6
CONTINUOUS
 62
     2
 10
527.661886
 20
320.077084
 30
0.0
 40
3.5
  1
[
 50
90.0
 41
1.285714
 51
15.0
 72
     5
 11
527.661886
 21
321.577084
 31
0.0
  0
TEXT
  5
249
  8
ZEICHNUNGSBEMAßUNGEN
  6
CONTINUOUS
 62
     2
 10
527.661886
 20
333.577084
 30
0.0
 40
3.5
  1
]
 50
90.0
 41
1.285714
 51
15.0
 72
     5
 11
527.661886
 21
335.077084
 31
0.0
  0
LINE
  5
24A
  8
ZEICHNUNGSBEMAßUNGEN
  6
CONTINUOUS
 62
     2
 10
538.049227
 20
306.610305
 30
0.0
 11
527.067753
 21
306.610305
 31
0.0
  0
LINE
  5
24B
  8
ZEICHNUNGSBEMAßUNGEN
  6
CONTINUOUS
 62
     2
 10
538.049227
 20
333.910305
 30
0.0
 11
527.067753
 21
333.910305
 31
0.0
  0
LINE
  5
24C
  8
ZEICHNUNGSBEMAßUNGEN
  6
CONTINUOUS
 62
     2
 10
528.567753
 20
306.610305
 30
0.0
 11
528.567753
 21
320.260305
 31
0.0
  0
LINE
  5
24D
  8
ZEICHNUNGSBEMAßUNGEN
  6
CONTINUOUS
 62
     2
 10
528.567753
 20
333.910305
 30
0.0
 11
528.567753
 21
320.260305
 31
0.0
  0
POLYLINE
  5
24E
  8
ZEICHNUNGSBEMAßUNGEN
  6
CONTINUOUS
 62
     2
 66
     1
 10
0.0
 20
0.0
 30
0.0
  0
VERTEX
  5
24F
  8
ZEICHNUNGSBEMAßUNGEN
  6
CONTINUOUS
 62
     2
 10
528.130253
 20
310.110305
 30
0.0
  0
VERTEX
  5
250
  8
ZEICHNUNGSBEMAßUNGEN
  6
CONTINUOUS
 62
     2
 10
528.567753
 20
306.610305
 30
0.0
  0
VERTEX
  5
251
  8
ZEICHNUNGSBEMAßUNGEN
  6
CONTINUOUS
 62
     2
 10
529.005253
 20
310.110305
 30
0.0
  0
VERTEX
  5
252
  8
ZEICHNUNGSBEMAßUNGEN
  6
CONTINUOUS
 62
     2
 10
528.130253
 20
310.110305
 30
0.0
  0
SEQEND
  5
253
  8
0
 62
     2
  0
POLYLINE
  5
254
  8
ZEICHNUNGSBEMAßUNGEN
  6
CONTINUOUS
 62
     2
 66
     1
 10
0.0
 20
0.0
 30
0.0
  0
VERTEX
  5
255
  8
ZEICHNUNGSBEMAßUNGEN
  6
CONTINUOUS
 62
     2
 10
529.005253
 20
330.410305
 30
0.0
  0
VERTEX
  5
256
  8
ZEICHNUNGSBEMAßUNGEN
  6
CONTINUOUS
 62
     2
 10
528.567753
 20
333.910305
 30
0.0
  0
VERTEX
  5
257
  8
ZEICHNUNGSBEMAßUNGEN
  6
CONTINUOUS
 62
     2
 10
528.130253
 20
330.410305
 30
0.0
  0
VERTEX
  5
258
  8
ZEICHNUNGSBEMAßUNGEN
  6
CONTINUOUS
 62
     2
 10
529.005253
 20
330.410305
 30
0.0
  0
SEQEND
  5
259
  8
0
 62
     2
  0
ENDBLK
  5
25A
  8
0
  0
BLOCK
  8
0
 62
     2
  2
*D3
 70
     1
 10
0.0
 20
0.0
 30
0.0
  3
*D3
  1

  0
TEXT
  5
25C
  8
ZEICHNUNGSBEMAßUNGEN
  6
CONTINUOUS
 62
     2
 10
241.12298
 20
352.233527
 30
0.0
 40
3.5
  1
430
 41
0.914286
 51
15.0
 72
     5
 11
249.12298
 21
352.233527
 31
0.0
  0
TEXT
  5
25D
  8
ZEICHNUNGSBEMAßUNGEN
  6
CONTINUOUS
 62
     2
 10
254.12298
 20
352.233527
 30
0.0
 40
3.5
  1
16.929
 41
0.918367
 51
15.0
 72
     5
 11
269.12298
 21
352.233527
 31
0.0
  0
TEXT
  5
25E
  8
ZEICHNUNGSBEMAßUNGEN
  6
CONTINUOUS
 62
     2
 10
252.62298
 20
352.233527
 30
0.0
 40
3.5
  1
[
 41
1.285714
 51
15.0
 72
     5
 11
254.12298
 21
352.233527
 31
0.0
  0
TEXT
  5
25F
  8
ZEICHNUNGSBEMAßUNGEN
  6
CONTINUOUS
 62
     2
 10
269.12298
 20
352.233527
 30
0.0
 40
3.5
  1
]
 41
1.285714
 51
15.0
 72
     5
 11
270.62298
 21
352.233527
 31
0.0
  0
LINE
  5
260
  8
ZEICHNUNGSBEMAßUNGEN
  6
CONTINUOUS
 62
     2
 10
467.498671
 20
334.410305
 30
0.0
 11
467.498671
 21
352.827661
 31
0.0
  0
LINE
  5
261
  8
ZEICHNUNGSBEMAßUNGEN
  6
CONTINUOUS
 62
     2
 10
37.498671
 20
334.410305
 30
0.0
 11
37.498671
 21
352.827661
 31
0.0
  0
LINE
  5
262
  8
ZEICHNUNGSBEMAßUNGEN
  6
CONTINUOUS
 62
     2
 10
467.498671
 20
351.327661
 30
0.0
 11
252.498671
 21
351.327661
 31
0.0
  0
LINE
  5
263
  8
ZEICHNUNGSBEMAßUNGEN
  6
CONTINUOUS
 62
     2
 10
37.498671
 20
351.327661
 30
0.0
 11
252.498671
 21
351.327661
 31
0.0
  0
POLYLINE
  5
264
  8
ZEICHNUNGSBEMAßUNGEN
  6
CONTINUOUS
 62
     2
 66
     1
 10
0.0
 20
0.0
 30
0.0
  0
VERTEX
  5
265
  8
ZEICHNUNGSBEMAßUNGEN
  6
CONTINUOUS
 62
     2
 10
463.998671
 20
350.890161
 30
0.0
  0
VERTEX
  5
266
  8
ZEICHNUNGSBEMAßUNGEN
  6
CONTINUOUS
 62
     2
 10
467.498671
 20
351.327661
 30
0.0
  0
VERTEX
  5
267
  8
ZEICHNUNGSBEMAßUNGEN
  6
CONTINUOUS
 62
     2
 10
463.998671
 20
351.765161
 30
0.0
  0
VERTEX
  5
268
  8
ZEICHNUNGSBEMAßUNGEN
  6
CONTINUOUS
 62
     2
 10
463.998671
 20
350.890161
 30
0.0
  0
SEQEND
  5
269
  8
0
 62
     2
  0
POLYLINE
  5
26A
  8
ZEICHNUNGSBEMAßUNGEN
  6
CONTINUOUS
 62
     2
 66
     1
 10
0.0
 20
0.0
 30
0.0
  0
VERTEX
  5
26B
  8
ZEICHNUNGSBEMAßUNGEN
  6
CONTINUOUS
 62
     2
 10
40.998671
 20
351.765161
 30
0.0
  0
VERTEX
  5
26C
  8
ZEICHNUNGSBEMAßUNGEN
  6
CONTINUOUS
 62
     2
 10
37.498671
 20
351.327661
 30
0.0
  0
VERTEX
  5
26D
  8
ZEICHNUNGSBEMAßUNGEN
  6
CONTINUOUS
 62
     2
 10
40.998671
 20
350.890161
 30
0.0
  0
VERTEX
  5
26E
  8
ZEICHNUNGSBEMAßUNGEN
  6
CONTINUOUS
 62
     2
 10
40.998671
 20
351.765161
 30
0.0
  0
SEQEND
  5
26F
  8
0
 62
     2
  0
ENDBLK
  5
270
  8
0
  0
BLOCK
  8
0
 62
     2
  2
*D4
 70
     1
 10
0.0
 20
0.0
 30
0.0
  3
*D4
  1

  0
TEXT
  5
272
  8
ZEICHNUNGSBEMAßUNGEN
  6
CONTINUOUS
 62
     2
 10
559.887248
 20
309.936749
 30
0.0
 40
3.5
  1
17
 50
90.0
 41
1.017857
 51
15.0
 72
     5
 11
559.887248
 21
314.686749
 31
0.0
  0
TEXT
  5
273
  8
ZEICHNUNGSBEMAßUNGEN
  6
CONTINUOUS
 62
     2
 10
559.887248
 20
319.686749
 30
0.0
 40
3.5
  1
.669
 50
90.0
 41
0.97619
 51
15.0
 72
     5
 11
559.887248
 21
329.936749
 31
0.0
  0
TEXT
  5
274
  8
ZEICHNUNGSBEMAßUNGEN
  6
CONTINUOUS
 62
     2
 10
559.887248
 20
318.186749
 30
0.0
 40
3.5
  1
[
 50
90.0
 41
1.285714
 51
15.0
 72
     5
 11
559.887248
 21
319.686749
 31
0.0
  0
TEXT
  5
275
  8
ZEICHNUNGSBEMAßUNGEN
  6
CONTINUOUS
 62
     2
 10
559.887248
 20
329.936749
 30
0.0
 40
3.5
  1
]
 50
90.0
 41
1.285714
 51
15.0
 72
     5
 11
559.887248
 21
331.436749
 31
0.0
  0
LINE
  5
276
  8
ZEICHNUNGSBEMAßUNGEN
  6
CONTINUOUS
 62
     2
 10
550.474227
 20
328.610305
 30
0.0
 11
555.062323
 21
328.610305
 31
0.0
  0
LINE
  5
277
  8
ZEICHNUNGSBEMAßUNGEN
  6
CONTINUOUS
 62
     2
 10
560.243831
 20
328.610305
 30
0.0
 11
562.293115
 21
328.610305
 31
0.0
  0
LINE
  5
278
  8
ZEICHNUNGSBEMAßUNGEN
  6
CONTINUOUS
 62
     2
 10
550.474227
 20
311.610305
 30
0.0
 11
554.730175
 21
311.610305
 31
0.0
  0
LINE
  5
279
  8
ZEICHNUNGSBEMAßUNGEN
  6
CONTINUOUS
 62
     2
 10
560.310261
 20
311.610305
 30
0.0
 11
562.293115
 21
311.610305
 31
0.0
  0
LINE
  5
27A
  8
ZEICHNUNGSBEMAßUNGEN
  6
CONTINUOUS
 62
     2
 10
560.793115
 20
328.610305
 30
0.0
 11
560.793115
 21
320.110305
 31
0.0
  0
LINE
  5
27B
  8
ZEICHNUNGSBEMAßUNGEN
  6
CONTINUOUS
 62
     2
 10
560.793115
 20
311.610305
 30
0.0
 11
560.793115
 21
320.110305
 31
0.0
  0
POLYLINE
  5
27C
  8
ZEICHNUNGSBEMAßUNGEN
  6
CONTINUOUS
 62
     2
 66
     1
 10
0.0
 20
0.0
 30
0.0
  0
VERTEX
  5
27D
  8
ZEICHNUNGSBEMAßUNGEN
  6
CONTINUOUS
 62
     2
 10
561.230615
 20
325.110305
 30
0.0
  0
VERTEX
  5
27E
  8
ZEICHNUNGSBEMAßUNGEN
  6
CONTINUOUS
 62
     2
 10
560.793115
 20
328.610305
 30
0.0
  0
VERTEX
  5
27F
  8
ZEICHNUNGSBEMAßUNGEN
  6
CONTINUOUS
 62
     2
 10
560.355615
 20
325.110305
 30
0.0
  0
VERTEX
  5
280
  8
ZEICHNUNGSBEMAßUNGEN
  6
CONTINUOUS
 62
     2
 10
561.230615
 20
325.110305
 30
0.0
  0
SEQEND
  5
281
  8
0
 62
     2
  0
POLYLINE
  5
282
  8
ZEICHNUNGSBEMAßUNGEN
  6
CONTINUOUS
 62
     2
 66
     1
 10
0.0
 20
0.0
 30
0.0
  0
VERTEX
  5
283
  8
ZEICHNUNGSBEMAßUNGEN
  6
CONTINUOUS
 62
     2
 10
560.355615
 20
315.110305
 30
0.0
  0
VERTEX
  5
284
  8
ZEICHNUNGSBEMAßUNGEN
  6
CONTINUOUS
 62
     2
 10
560.793115
 20
311.610305
 30
0.0
  0
VERTEX
  5
285
  8
ZEICHNUNGSBEMAßUNGEN
  6
CONTINUOUS
 62
     2
 10
561.230615
 20
315.110305
 30
0.0
  0
VERTEX
  5
286
  8
ZEICHNUNGSBEMAßUNGEN
  6
CONTINUOUS
 62
     2
 10
560.355615
 20
315.110305
 30
0.0
  0
SEQEND
  5
287
  8
0
 62
     2
  0
ENDBLK
  5
288
  8
0
  0
ENDSEC
  0
SECTION
  2
ENTITIES
  0
LINE
  5
289
  8
0
  6
CONTINUOUS
 62
     2
 10
456.988995
 20
12.673974
 30
0.0
 11
454.52948
 21
14.158287
 31
0.0
  0
LINE
  5
28A
  8
0
  6
CONTINUOUS
 62
     2
 10
454.674883
 20
14.982905
 30
0.0
 11
457.134398
 21
13.498593
 31
0.0
  0
LINE
  5
28B
  8
0
  6
CONTINUOUS
 62
     2
 10
476.430457
 20
13.498593
 30
0.0
 11
477.686906
 21
12.673974
 31
0.0
  0
LINE
  5
28C
  8
0
  6
CONTINUOUS
 62
     2
 10
479.583527
 20
12.673974
 30
0.0
 11
478.327079
 21
13.498593
 31
0.0
  0
LINE
  5
28D
  8
0
  6
CONTINUOUS
 62
     2
 10
486.793981
 20
13.910902
 30
0.0
 11
488.654325
 21
12.673974
 31
0.0
  0
LINE
  5
28E
  8
0
  6
CONTINUOUS
 62
     2
 10
486.59278
 20
12.673974
 30
0.0
 11
485.021025
 21
13.581054
 31
0.0
  0
LINE
  5
28F
  8
0
  6
CONTINUOUS
 62
     2
 10
493.960608
 20
14.790152
 30
0.0
 11
494.28501
 21
13.492545
 31
0.0
  0
LINE
  5
290
  8
0
  6
CONTINUOUS
 62
     2
 10
494.374518
 20
13.134512
 30
0.0
 11
494.489653
 21
12.673974
 31
0.0
  0
LINE
  5
291
  8
0
  6
CONTINUOUS
 62
     2
 10
495.406828
 20
14.982905
 30
0.0
 11
495.98406
 21
12.673974
 31
0.0
  0
LINE
  5
292
  8
0
  6
CONTINUOUS
 62
     2
 10
452.700982
 20
12.673974
 30
0.0
 11
453.108109
 21
14.982905
 31
0.0
  0
LINE
  5
293
  8
0
  6
CONTINUOUS
 62
     2
 10
454.52948
 20
14.158287
 30
0.0
 11
454.267756
 21
12.673974
 31
0.0
  0
LINE
  5
294
  8
0
  6
CONTINUOUS
 62
     2
 10
457.134398
 20
13.498593
 30
0.0
 11
457.396122
 21
14.982905
 31
0.0
  0
LINE
  5
295
  8
0
  6
CONTINUOUS
 62
     2
 10
458.962896
 20
14.982905
 30
0.0
 11
458.555769
 21
12.673974
 31
0.0
  0
LINE
  5
296
  8
0
  6
CONTINUOUS
 62
     2
 10
459.792696
 20
12.673974
 30
0.0
 11
460.199822
 21
14.982905
 31
0.0
  0
LINE
  5
297
  8
0
  6
CONTINUOUS
 62
     2
 10
461.596894
 20
14.488134
 30
0.0
 11
461.524192
 21
14.075826
 31
0.0
  0
LINE
  5
298
  8
0
  6
CONTINUOUS
 62
     2
 10
461.436952
 20
13.581054
 30
0.0
 11
461.36425
 21
13.168746
 31
0.0
  0
LINE
  5
299
  8
0
  6
CONTINUOUS
 62
     2
 10
463.668199
 20
14.075826
 30
0.0
 11
463.580958
 21
13.581054
 31
0.0
  0
LINE
  5
29A
  8
0
  6
CONTINUOUS
 62
     2
 10
464.322913
 20
14.982905
 30
0.0
 11
464.235671
 21
14.488134
 31
0.0
  0
LINE
  5
29B
  8
0
  6
CONTINUOUS
 62
     2
 10
464.003027
 20
13.168746
 30
0.0
 11
463.915786
 21
12.673974
 31
0.0
  0
LINE
  5
29C
  8
0
  6
CONTINUOUS
 62
     2
 10
464.882129
 20
13.477737
 30
0.0
 11
465.14753
 21
14.982905
 31
0.0
  0
LINE
  5
29D
  8
0
  6
CONTINUOUS
 62
     2
 10
466.631843
 20
14.982905
 30
0.0
 11
466.390042
 21
13.611584
 31
0.0
  0
LINE
  5
29E
  8
0
  6
CONTINUOUS
 62
     2
 10
468.190469
 20
13.5337
 30
0.0
 11
468.446002
 21
14.982905
 31
0.0
  0
LINE
  5
29F
  8
0
  6
CONTINUOUS
 62
     2
 10
469.930315
 20
14.982905
 30
0.0
 11
469.638585
 21
13.32842
 31
0.0
  0
LINE
  5
2A0
  8
0
  6
CONTINUOUS
 62
     2
 10
470.405766
 20
14.405672
 30
0.0
 11
470.507547
 21
14.982905
 31
0.0
  0
LINE
  5
2A1
  8
0
  6
CONTINUOUS
 62
     2
 10
471.254885
 20
12.673974
 30
0.0
 11
471.560231
 21
14.405672
 31
0.0
  0
LINE
  5
2A2
  8
0
  6
CONTINUOUS
 62
     2
 10
473.209467
 20
14.405672
 30
0.0
 11
472.904122
 21
12.673974
 31
0.0
  0
LINE
  5
2A3
  8
0
  6
CONTINUOUS
 62
     2
 10
474.465714
 20
14.982905
 30
0.0
 11
474.363932
 21
14.405672
 31
0.0
  0
LINE
  5
2A4
  8
0
  6
CONTINUOUS
 62
     2
 10
475.042946
 20
14.982905
 30
0.0
 11
474.635819
 21
12.673974
 31
0.0
  0
LINE
  5
2A5
  8
0
  6
CONTINUOUS
 62
     2
 10
476.285056
 20
12.673974
 30
0.0
 11
476.430457
 21
13.498593
 31
0.0
  0
LINE
  5
2A6
  8
0
  6
CONTINUOUS
 62
     2
 10
476.517699
 20
13.993363
 30
0.0
 11
476.619481
 21
14.570596
 31
0.0
  0
LINE
  5
2A7
  8
0
  6
CONTINUOUS
 62
     2
 10
480.243221
 20
12.673974
 30
0.0
 11
480.650348
 21
14.982905
 31
0.0
  0
LINE
  5
2A8
  8
0
  6
CONTINUOUS
 62
     2
 10
482.299584
 20
14.982905
 30
0.0
 11
481.892458
 21
12.673974
 31
0.0
  0
LINE
  5
2A9
  8
0
  6
CONTINUOUS
 62
     2
 10
483.211847
 20
12.673974
 30
0.0
 11
483.618973
 21
14.982905
 31
0.0
  0
LINE
  5
2AA
  8
0
  6
CONTINUOUS
 62
     2
 10
485.268209
 20
14.982905
 30
0.0
 11
485.079185
 21
13.910902
 31
0.0
  0
LINE
  5
2AB
  8
0
  6
CONTINUOUS
 62
     2
 10
485.021025
 20
13.581054
 30
0.0
 11
484.861082
 21
12.673974
 31
0.0
  0
LINE
  5
2AC
  8
0
  6
CONTINUOUS
 62
     2
 10
488.654325
 20
12.673974
 30
0.0
 11
486.59278
 21
12.673974
 31
0.0
  0
LINE
  5
2AD
  8
0
  6
CONTINUOUS
 62
     2
 10
484.861082
 20
12.673974
 30
0.0
 11
483.211847
 21
12.673974
 31
0.0
  0
LINE
  5
2AE
  8
0
  6
CONTINUOUS
 62
     2
 10
481.892458
 20
12.673974
 30
0.0
 11
480.243221
 21
12.673974
 31
0.0
  0
LINE
  5
2AF
  8
0
  6
CONTINUOUS
 62
     2
 10
472.904122
 20
12.673974
 30
0.0
 11
471.254885
 21
12.673974
 31
0.0
  0
LINE
  5
2B0
  8
0
  6
CONTINUOUS
 62
     2
 10
463.915786
 20
12.673974
 30
0.0
 11
459.792696
 21
12.673974
 31
0.0
  0
LINE
  5
2B1
  8
0
  6
CONTINUOUS
 62
     2
 10
458.555769
 20
12.673974
 30
0.0
 11
456.988995
 21
12.673974
 31
0.0
  0
LINE
  5
2B2
  8
0
  6
CONTINUOUS
 62
     2
 10
454.267756
 20
12.673974
 30
0.0
 11
452.700982
 21
12.673974
 31
0.0
  0
LINE
  5
2B3
  8
0
  6
CONTINUOUS
 62
     2
 10
474.635819
 20
12.673974
 30
0.0
 11
476.285056
 21
12.673974
 31
0.0
  0
LINE
  5
2B4
  8
0
  6
CONTINUOUS
 62
     2
 10
477.686906
 20
12.673974
 30
0.0
 11
479.583527
 21
12.673974
 31
0.0
  0
LINE
  5
2B5
  8
0
  6
CONTINUOUS
 62
     2
 10
490.765406
 20
12.673974
 30
0.0
 11
492.373475
 21
12.673974
 31
0.0
  0
LINE
  5
2B6
  8
0
  6
CONTINUOUS
 62
     2
 10
494.489653
 20
12.673974
 30
0.0
 11
495.98406
 21
12.673974
 31
0.0
  0
LINE
  5
2B7
  8
0
  6
CONTINUOUS
 62
     2
 10
499.735601
 20
12.673974
 30
0.0
 11
501.225563
 21
12.673974
 31
0.0
  0
LINE
  5
2B8
  8
0
  6
CONTINUOUS
 62
     2
 10
492.718879
 20
13.134512
 30
0.0
 11
494.374518
 21
13.134512
 31
0.0
  0
LINE
  5
2B9
  8
0
  6
CONTINUOUS
 62
     2
 10
461.36425
 20
13.168746
 30
0.0
 11
464.003027
 21
13.168746
 31
0.0
  0
LINE
  5
2BA
  8
0
  6
CONTINUOUS
 62
     2
 10
492.987403
 20
13.492545
 30
0.0
 11
494.28501
 21
13.492545
 31
0.0
  0
LINE
  5
2BB
  8
0
  6
CONTINUOUS
 62
     2
 10
499.28674
 20
13.508354
 30
0.0
 11
499.882724
 21
13.508354
 31
0.0
  0
LINE
  5
2BC
  8
0
  6
CONTINUOUS
 62
     2
 10
463.580958
 20
13.581054
 30
0.0
 11
461.436952
 21
13.581054
 31
0.0
  0
LINE
  5
2BD
  8
0
  6
CONTINUOUS
 62
     2
 10
499.324418
 20
13.722036
 30
0.0
 11
501.410365
 21
13.722036
 31
0.0
  0
LINE
  5
2BE
  8
0
  6
CONTINUOUS
 62
     2
 10
477.561486
 20
13.993363
 30
0.0
 11
476.517699
 21
13.993363
 31
0.0
  0
LINE
  5
2BF
  8
0
  6
CONTINUOUS
 62
     2
 10
461.524192
 20
14.075826
 30
0.0
 11
463.668199
 21
14.075826
 31
0.0
  0
LINE
  5
2C0
  8
0
  6
CONTINUOUS
 62
     2
 10
500.011453
 20
14.357744
 30
0.0
 11
501.522457
 21
14.357744
 31
0.0
  0
LINE
  5
2C1
  8
0
  6
CONTINUOUS
 62
     2
 10
474.363932
 20
14.405672
 30
0.0
 11
473.209467
 21
14.405672
 31
0.0
  0
LINE
  5
2C2
  8
0
  6
CONTINUOUS
 62
     2
 10
471.560231
 20
14.405672
 30
0.0
 11
470.405766
 21
14.405672
 31
0.0
  0
LINE
  5
2C3
  8
0
  6
CONTINUOUS
 62
     2
 10
464.235671
 20
14.488134
 30
0.0
 11
461.596894
 21
14.488134
 31
0.0
  0
LINE
  5
2C4
  8
0
  6
CONTINUOUS
 62
     2
 10
476.619481
 20
14.570596
 30
0.0
 11
477.853061
 21
14.570596
 31
0.0
  0
LINE
  5
2C5
  8
0
  6
CONTINUOUS
 62
     2
 10
478.094032
 20
14.982905
 30
0.0
 11
475.042946
 21
14.982905
 31
0.0
  0
LINE
  5
2C6
  8
0
  6
CONTINUOUS
 62
     2
 10
453.108109
 20
14.982905
 30
0.0
 11
454.674883
 21
14.982905
 31
0.0
  0
LINE
  5
2C7
  8
0
  6
CONTINUOUS
 62
     2
 10
457.396122
 20
14.982905
 30
0.0
 11
458.962896
 21
14.982905
 31
0.0
  0
LINE
  5
2C8
  8
0
  6
CONTINUOUS
 62
     2
 10
460.199822
 20
14.982905
 30
0.0
 11
464.322913
 21
14.982905
 31
0.0
  0
LINE
  5
2C9
  8
0
  6
CONTINUOUS
 62
     2
 10
465.14753
 20
14.982905
 30
0.0
 11
466.631843
 21
14.982905
 31
0.0
  0
LINE
  5
2CA
  8
0
  6
CONTINUOUS
 62
     2
 10
468.446002
 20
14.982905
 30
0.0
 11
469.930315
 21
14.982905
 31
0.0
  0
LINE
  5
2CB
  8
0
  6
CONTINUOUS
 62
     2
 10
470.507547
 20
14.982905
 30
0.0
 11
474.465714
 21
14.982905
 31
0.0
  0
LINE
  5
2CC
  8
0
  6
CONTINUOUS
 62
     2
 10
480.650348
 20
14.982905
 30
0.0
 11
482.299584
 21
14.982905
 31
0.0
  0
LINE
  5
2CD
  8
0
  6
CONTINUOUS
 62
     2
 10
483.618973
 20
14.982905
 30
0.0
 11
485.268209
 21
14.982905
 31
0.0
  0
LINE
  5
2CE
  8
0
  6
CONTINUOUS
 62
     2
 10
486.983004
 20
14.982905
 30
0.0
 11
489.061451
 21
14.982905
 31
0.0
  0
LINE
  5
2CF
  8
0
  6
CONTINUOUS
 62
     2
 10
492.497104
 20
14.982905
 30
0.0
 11
495.406828
 21
14.982905
 31
0.0
  0
LINE
  5
2D0
  8
0
  6
CONTINUOUS
 62
     2
 10
496.666489
 20
13.164223
 30
0.0
 11
496.910688
 21
14.549147
 31
0.0
  0
LINE
  5
2D1
  8
0
  6
CONTINUOUS
 62
     2
 10
498.212169
 20
13.480214
 30
0.0
 11
498.365571
 21
14.350204
 31
0.0
  0
LINE
  5
2D2
  8
0
  6
CONTINUOUS
 62
     2
 10
499.28674
 20
13.508354
 30
0.0
 11
499.324418
 21
13.722036
 31
0.0
  0
LINE
  5
2D3
  8
0
  6
CONTINUOUS
 62
     2
 10
499.735601
 20
12.673974
 30
0.0
 11
499.740403
 21
12.701208
 31
0.0
  0
LINE
  5
2D4
  8
0
  6
CONTINUOUS
 62
     2
 10
499.863978
 20
13.402036
 30
0.0
 11
499.882724
 21
13.508354
 31
0.0
  0
LINE
  5
2D5
  8
0
  6
CONTINUOUS
 62
     2
 10
501.225563
 20
12.673974
 30
0.0
 11
501.410365
 21
13.722036
 31
0.0
  0
LINE
  5
2D6
  8
0
  6
CONTINUOUS
 62
     2
 10
501.522457
 20
14.357744
 30
0.0
 11
501.547073
 21
14.497346
 31
0.0
  0
LINE
  5
2D7
  8
0
  6
CONTINUOUS
 62
     2
 10
490.765406
 20
12.673974
 30
0.0
 11
492.497104
 21
14.982905
 31
0.0
  0
LINE
  5
2D8
  8
0
  6
CONTINUOUS
 62
     2
 10
492.373475
 20
12.673974
 30
0.0
 11
492.718879
 21
13.134512
 31
0.0
  0
LINE
  5
2D9
  8
0
  6
CONTINUOUS
 62
     2
 10
492.987403
 20
13.492545
 30
0.0
 11
493.960608
 21
14.790152
 31
0.0
  0
LINE
  5
2DA
  8
0
  6
CONTINUOUS
 62
     2
 10
485.079185
 20
13.910902
 30
0.0
 11
486.983004
 21
14.982905
 31
0.0
  0
LINE
  5
2DB
  8
0
  6
CONTINUOUS
 62
     2
 10
489.061451
 20
14.982905
 30
0.0
 11
486.793981
 21
13.910902
 31
0.0
  0
ARC
  5
2DC
  8
0
  6
CONTINUOUS
 62
     2
 10
466.714878
 20
13.554307
 30
0.0
 40
0.329847
 50
169.999958
 51
257.387852
  0
ARC
  5
2DD
  8
0
  6
CONTINUOUS
 62
     2
 10
467.219038
 20
15.807523
 30
0.0
 40
2.638778
 50
257.387753
 51
286.262639
  0
ARC
  5
2DE
  8
0
  6
CONTINUOUS
 62
     2
 10
467.865633
 20
13.590977
 30
0.0
 40
0.329847
 50
286.26261
 51
349.999958
  0
ARC
  5
2DF
  8
0
  6
CONTINUOUS
 62
     2
 10
469.15133
 20
13.414336
 30
0.0
 40
0.49477
 50
284.461225
 51
350.000024
  0
ARC
  5
2E0
  8
0
  6
CONTINUOUS
 62
     2
 10
467.215606
 20
20.920154
 30
0.0
 40
8.24618
 50
256.220912
 51
284.461267
  0
ARC
  5
2E1
  8
0
  6
CONTINUOUS
 62
     2
 10
465.369383
 20
13.391821
 30
0.0
 40
0.49477
 50
170.000004
 51
256.220987
  0
ARC
  5
2E2
  8
0
  6
CONTINUOUS
 62
     2
 10
478.620596
 20
14.79774
 30
0.0
 40
1.295146
 50
270.81401
 51
287.332046
  0
ARC
  5
2E3
  8
0
  6
CONTINUOUS
 62
     2
 10
478.706001
 20
14.524074
 30
0.0
 40
1.008464
 50
287.332042
 51
306.995303
  0
ARC
  5
2E4
  8
0
  6
CONTINUOUS
 62
     2
 10
478.836803
 20
14.350464
 30
0.0
 40
0.791094
 50
306.995337
 51
331.199147
  0
ARC
  5
2E5
  8
0
  6
CONTINUOUS
 62
     2
 10
479.037393
 20
14.240186
 30
0.0
 40
0.562189
 50
331.19907
 51
28.800842
  0
ARC
  5
2E6
  8
0
  6
CONTINUOUS
 62
     2
 10
478.836803
 20
14.129906
 30
0.0
 40
0.791094
 50
28.800853
 51
53.004705
  0
ARC
  5
2E7
  8
0
  6
CONTINUOUS
 62
     2
 10
478.706001
 20
13.956297
 30
0.0
 40
1.008464
 50
53.004697
 51
72.667958
  0
ARC
  5
2E8
  8
0
  6
CONTINUOUS
 62
     2
 10
478.620596
 20
13.682631
 30
0.0
 40
1.295147
 50
72.667967
 51
88.263723
  0
ARC
  5
2E9
  8
0
  6
CONTINUOUS
 62
     2
 10
478.255785
 20
3.000809
 30
0.0
 40
11.983188
 50
88.067715
 51
90.773418
  0
ARC
  5
2EA
  8
0
  6
CONTINUOUS
 62
     2
 10
476.947435
 20
129.425409
 30
0.0
 40
115.935025
 50
270.681844
 51
270.836009
  0
ARC
  5
2EB
  8
0
  6
CONTINUOUS
 62
     2
 10
477.811326
 20
14.057982
 30
0.0
 40
0.514311
 50
74.211806
 51
85.345441
  0
ARC
  5
2EC
  8
0
  6
CONTINUOUS
 62
     2
 10
477.859865
 20
14.229649
 30
0.0
 40
0.335913
 50
49.806065
 51
74.211845
  0
ARC
  5
2ED
  8
0
  6
CONTINUOUS
 62
     2
 10
477.968379
 20
14.358085
 30
0.0
 40
0.167773
 50
340.193968
 51
49.806091
  0
ARC
  5
2EE
  8
0
  6
CONTINUOUS
 62
     2
 10
477.810185
 20
14.415057
 30
0.0
 40
0.335913
 50
315.788234
 51
340.194033
  0
ARC
  5
2EF
  8
0
  6
CONTINUOUS
 62
     2
 10
477.682315
 20
14.539455
 30
0.0
 40
0.51431
 50
298.863919
 51
315.788272
  0
ARC
  5
2F0
  8
0
  6
CONTINUOUS
 62
     2
 10
477.561486
 20
14.758664
 30
0.0
 40
0.764614
 50
285.00002
 51
298.863907
  0
ARC
  5
2F1
  8
0
  6
CONTINUOUS
 62
     2
 10
477.558832
 20
14.758666
 30
0.0
 40
0.765308
 50
270.198683
 51
285.191894
  0
ARC
  5
2F2
  8
0
  6
CONTINUOUS
 62
     2
 10
499.390758
 20
1.841989
 30
0.0
 40
13.140915
 50
81.659895
 51
99.802793
  0
ARC
  5
2F3
  8
0
  6
CONTINUOUS
 62
     2
 10
498.866799
 20
25.813052
 30
0.0
 40
13.140916
 50
261.461473
 51
273.811818
  0
ARC
  5
2F4
  8
0
  6
CONTINUOUS
 62
     2
 10
497.204153
 20
14.497401
 30
0.0
 40
0.297992
 50
99.802812
 51
170.000029
  0
ARC
  5
2F5
  8
0
  6
CONTINUOUS
 62
     2
 10
496.959954
 20
13.112477
 30
0.0
 40
0.297992
 50
170.000029
 51
261.461426
  0
ARC
  5
2F6
  8
0
  6
CONTINUOUS
 62
     2
 10
501.253608
 20
14.549092
 30
0.0
 40
0.297992
 50
350.000029
 51
81.659886
  0
ARC
  5
2F7
  8
0
  6
CONTINUOUS
 62
     2
 10
499.188972
 20
11.224644
 30
0.0
 40
3.417154
 50
80.208329
 51
99.781815
  0
ARC
  5
2F8
  8
0
  6
CONTINUOUS
 62
     2
 10
498.965035
 20
16.513612
 30
0.0
 40
3.417153
 50
261.530463
 51
281.193062
  0
ARC
  5
2F9
  8
0
  6
CONTINUOUS
 62
     2
 10
498.659037
 20
14.298459
 30
0.0
 40
0.297992
 50
99.7817
 51
170.000029
  0
ARC
  5
2FA
  8
0
  6
CONTINUOUS
 62
     2
 10
499.719436
 20
14.298367
 30
0.0
 40
0.297992
 50
11.493456
 51
80.208351
  0
ARC
  5
2FB
  8
0
  6
CONTINUOUS
 62
     2
 10
498.505634
 20
13.428468
 30
0.0
 40
0.297992
 50
170.000029
 51
261.530459
  0
ARC
  5
2FC
  8
0
  6
CONTINUOUS
 62
     2
 10
499.570512
 20
13.453782
 30
0.0
 40
0.297992
 50
281.193098
 51
350.000062
  0
LINE
  5
2FD
  8
0
  6
CONTINUOUS
 62
     7
 10
0.0
 20
0.0
 30
0.0
 11
594.0
 21
0.0
 31
0.0
  0
LINE
  5
2FE
  8
0
  6
CONTINUOUS
 62
     7
 10
594.0
 20
0.0
 30
0.0
 11
594.0
 21
420.0
 31
0.0
  0
LINE
  5
2FF
  8
0
  6
CONTINUOUS
 62
     7
 10
0.0
 20
420.0
 30
0.0
 11
594.0
 21
420.0
 31
0.0
  0
LINE
  5
300
  8
0
  6
CONTINUOUS
 62
     7
 10
0.0
 20
0.0
 30
0.0
 11
0.0
 21
420.0
 31
0.0
  0
LINE
  5
301
  8
0
  6
CONTINUOUS
 62
     7
 10
10.0
 20
410.0
 30
0.0
 11
584.0
 21
410.0
 31
0.0
  0
LINE
  5
302
  8
0
  6
CONTINUOUS
 62
     7
 10
10.0
 20
10.0
 30
0.0
 11
10.0
 21
410.0
 31
0.0
  0
LINE
  5
303
  8
0
  6
CONTINUOUS
 62
     7
 10
10.0
 20
10.0
 30
0.0
 11
584.0
 21
10.0
 31
0.0
  0
LINE
  5
304
  8
0
  6
CONTINUOUS
 62
     7
 10
584.0
 20
10.0
 30
0.0
 11
584.0
 21
410.0
 31
0.0
  0
LINE
  5
305
  8
0
  6
CONTINUOUS
 62
     7
 10
404.0
 20
0.0
 30
0.0
 11
404.0
 21
3.0
 31
0.0
  0
LINE
  5
306
  8
0
  6
CONTINUOUS
 62
     7
 10
214.0
 20
0.0
 30
0.0
 11
214.0
 21
3.0
 31
0.0
  0
LINE
  5
307
  8
0
  6
CONTINUOUS
 62
     7
 10
24.0
 20
0.0
 30
0.0
 11
24.0
 21
3.0
 31
0.0
  0
LINE
  5
308
  8
0
  6
CONTINUOUS
 62
     7
 10
591.0
 20
297.0
 30
0.0
 11
594.0
 21
297.0
 31
0.0
  0
TEXT
  5
309
  8
0
  6
CONTINUOUS
 62
     4
 10
504.25728
 20
12.727397
 30
0.0
 40
2.38394
  1
FL-9494 SCHAAN
 41
0.797909
 51
14.999997
 72
     5
 11
530.253575
 21
12.727397
 31
0.0
  0
LINE
  5
30A
  8
0
  6
CONTINUOUS
 62
     7
 10
59.581338
 20
296.31883
 30
0.0
 11
59.694445
 21
295.690163
 31
0.0
  0
POLYLINE
  5
30B
  8
0
  6
CONTINUOUS
 62
     7
 66
     1
 10
0.0
 20
0.0
 30
0.0
  0
VERTEX
  5
30C
  8
0
  6
CONTINUOUS
 62
     7
 10
59.694445
 20
295.690163
 30
0.0
  0
VERTEX
  5
30D
  8
0
  6
CONTINUOUS
 62
     7
 10
60.262603
 20
294.708528
 30
0.0
  0
VERTEX
  5
30E
  8
0
  6
CONTINUOUS
 62
     7
 10
61.14753
 20
293.929498
 30
0.0
  0
VERTEX
  5
30F
  8
0
  6
CONTINUOUS
 62
     7
 10
62.262603
 20
293.42933
 30
0.0
  0
VERTEX
  5
310
  8
0
  6
CONTINUOUS
 62
     7
 10
63.498671
 20
293.256983
 30
0.0
  0
SEQEND
  5
311
  8
0
 62
     7
  0
LINE
  5
312
  8
0
  6
CONTINUOUS
 62
     7
 10
367.581338
 20
296.31883
 30
0.0
 11
367.694445
 21
295.690163
 31
0.0
  0
POLYLINE
  5
313
  8
0
  6
CONTINUOUS
 62
     7
 66
     1
 10
0.0
 20
0.0
 30
0.0
  0
VERTEX
  5
314
  8
0
  6
CONTINUOUS
 62
     7
 10
367.694445
 20
295.690163
 30
0.0
  0
VERTEX
  5
315
  8
0
  6
CONTINUOUS
 62
     7
 10
368.262603
 20
294.708528
 30
0.0
  0
VERTEX
  5
316
  8
0
  6
CONTINUOUS
 62
     7
 10
369.14753
 20
293.929498
 30
0.0
  0
VERTEX
  5
317
  8
0
  6
CONTINUOUS
 62
     7
 10
370.262603
 20
293.42933
 30
0.0
  0
VERTEX
  5
318
  8
0
  6
CONTINUOUS
 62
     7
 10
371.498671
 20
293.256983
 30
0.0
  0
SEQEND
  5
319
  8
0
 62
     7
  0
POLYLINE
  5
31A
  8
0
  6
CONTINUOUS
 62
     7
 66
     1
 10
0.0
 20
0.0
 30
0.0
  0
VERTEX
  5
31B
  8
0
  6
CONTINUOUS
 62
     7
 10
465.498671
 20
284.812229
 30
0.0
  0
VERTEX
  5
31C
  8
0
  6
CONTINUOUS
 62
     7
 10
465.34643
 20
284.149402
 30
0.0
  0
VERTEX
  5
31D
  8
0
  6
CONTINUOUS
 62
     7
 10
464.912884
 20
283.587484
 30
0.0
  0
VERTEX
  5
31E
  8
0
  6
CONTINUOUS
 62
     7
 10
464.264038
 20
283.212023
 30
0.0
  0
SEQEND
  5
31F
  8
0
 62
     7
  0
LINE
  5
320
  8
0
  6
CONTINUOUS
 62
     7
 10
464.264038
 20
283.212023
 30
0.0
 11
463.58232
 21
283.094588
 31
0.0
  0
LINE
  5
321
  8
0
  6
CONTINUOUS
 62
     7
 10
463.58232
 20
283.094588
 30
0.0
 11
463.498671
 21
283.080178
 31
0.0
  0
LINE
  5
322
  8
0
  6
CONTINUOUS
 62
     7
 10
162.581338
 20
296.31883
 30
0.0
 11
162.694445
 21
295.690163
 31
0.0
  0
POLYLINE
  5
323
  8
0
  6
CONTINUOUS
 62
     7
 66
     1
 10
0.0
 20
0.0
 30
0.0
  0
VERTEX
  5
324
  8
0
  6
CONTINUOUS
 62
     7
 10
162.694445
 20
295.690163
 30
0.0
  0
VERTEX
  5
325
  8
0
  6
CONTINUOUS
 62
     7
 10
163.262603
 20
294.708528
 30
0.0
  0
VERTEX
  5
326
  8
0
  6
CONTINUOUS
 62
     7
 10
164.14753
 20
293.929498
 30
0.0
  0
VERTEX
  5
327
  8
0
  6
CONTINUOUS
 62
     7
 10
165.262603
 20
293.42933
 30
0.0
  0
VERTEX
  5
328
  8
0
  6
CONTINUOUS
 62
     7
 10
166.498671
 20
293.256983
 30
0.0
  0
SEQEND
  5
329
  8
0
 62
     7
  0
LINE
  5
32A
  8
0
  6
CONTINUOUS
 62
     7
 10
264.581338
 20
296.31883
 30
0.0
 11
264.694445
 21
295.690163
 31
0.0
  0
POLYLINE
  5
32B
  8
0
  6
CONTINUOUS
 62
     7
 66
     1
 10
0.0
 20
0.0
 30
0.0
  0
VERTEX
  5
32C
  8
0
  6
CONTINUOUS
 62
     7
 10
264.694445
 20
295.690163
 30
0.0
  0
VERTEX
  5
32D
  8
0
  6
CONTINUOUS
 62
     7
 10
265.262603
 20
294.708528
 30
0.0
  0
VERTEX
  5
32E
  8
0
  6
CONTINUOUS
 62
     7
 10
266.14753
 20
293.929498
 30
0.0
  0
VERTEX
  5
32F
  8
0
  6
CONTINUOUS
 62
     7
 10
267.262603
 20
293.42933
 30
0.0
  0
VERTEX
  5
330
  8
0
  6
CONTINUOUS
 62
     7
 10
268.498671
 20
293.256983
 30
0.0
  0
SEQEND
  5
331
  8
0
 62
     7
  0
LINE
  5
332
  8
0
  6
CONTINUOUS
 62
     7
 10
41.498671
 20
283.080178
 30
0.0
 11
41.415021
 21
283.094588
 31
0.0
  0
LINE
  5
333
  8
0
  6
CONTINUOUS
 62
     7
 10
41.415021
 20
283.094588
 30
0.0
 11
40.733304
 21
283.212023
 31
0.0
  0
POLYLINE
  5
334
  8
0
  6
CONTINUOUS
 62
     7
 66
     1
 10
0.0
 20
0.0
 30
0.0
  0
VERTEX
  5
335
  8
0
  6
CONTINUOUS
 62
     7
 10
40.733304
 20
283.212023
 30
0.0
  0
VERTEX
  5
336
  8
0
  6
CONTINUOUS
 62
     7
 10
40.084457
 20
283.587484
 30
0.0
  0
VERTEX
  5
337
  8
0
  6
CONTINUOUS
 62
     7
 10
39.650912
 20
284.149402
 30
0.0
  0
VERTEX
  5
338
  8
0
  6
CONTINUOUS
 62
     7
 10
39.498671
 20
284.812229
 30
0.0
  0
SEQEND
  5
339
  8
0
 62
     7
  0
LINE
  5
33A
  8
0
  6
CONTINUOUS
 62
     7
 10
441.498671
 20
293.256983
 30
0.0
 11
371.498671
 21
293.256983
 31
0.0
  0
POLYLINE
  5
33B
  8
0
  6
CONTINUOUS
 62
     7
 66
     1
 10
0.0
 20
0.0
 30
0.0
  0
VERTEX
  5
33C
  8
0
  6
CONTINUOUS
 62
     7
 10
441.498671
 20
293.256983
 30
0.0
  0
VERTEX
  5
33D
  8
0
  6
CONTINUOUS
 62
     7
 10
442.734739
 20
293.42933
 30
0.0
  0
VERTEX
  5
33E
  8
0
  6
CONTINUOUS
 62
     7
 10
443.849812
 20
293.929498
 30
0.0
  0
VERTEX
  5
33F
  8
0
  6
CONTINUOUS
 62
     7
 10
444.734739
 20
294.708528
 30
0.0
  0
VERTEX
  5
340
  8
0
  6
CONTINUOUS
 62
     7
 10
445.302897
 20
295.690163
 30
0.0
  0
SEQEND
  5
341
  8
0
 62
     7
  0
LINE
  5
342
  8
0
  6
CONTINUOUS
 62
     7
 10
445.302897
 20
295.690163
 30
0.0
 11
445.416003
 21
296.31883
 31
0.0
  0
LINE
  5
343
  8
0
  6
CONTINUOUS
 62
     7
 10
41.498671
 20
283.080178
 30
0.0
 11
463.498671
 21
283.080178
 31
0.0
  0
LINE
  5
344
  8
0
  6
CONTINUOUS
 62
     7
 10
133.498671
 20
293.256983
 30
0.0
 11
63.498671
 21
293.256983
 31
0.0
  0
POLYLINE
  5
345
  8
0
  6
CONTINUOUS
 62
     7
 66
     1
 10
0.0
 20
0.0
 30
0.0
  0
VERTEX
  5
346
  8
0
  6
CONTINUOUS
 62
     7
 10
133.498671
 20
293.256983
 30
0.0
  0
VERTEX
  5
347
  8
0
  6
CONTINUOUS
 62
     7
 10
134.734739
 20
293.42933
 30
0.0
  0
VERTEX
  5
348
  8
0
  6
CONTINUOUS
 62
     7
 10
135.849812
 20
293.929498
 30
0.0
  0
VERTEX
  5
349
  8
0
  6
CONTINUOUS
 62
     7
 10
136.734739
 20
294.708528
 30
0.0
  0
VERTEX
  5
34A
  8
0
  6
CONTINUOUS
 62
     7
 10
137.302897
 20
295.690163
 30
0.0
  0
SEQEND
  5
34B
  8
0
 62
     7
  0
LINE
  5
34C
  8
0
  6
CONTINUOUS
 62
     7
 10
137.302897
 20
295.690163
 30
0.0
 11
137.416003
 21
296.31883
 31
0.0
  0
POLYLINE
  5
34D
  8
0
  6
CONTINUOUS
 62
     7
 66
     1
 10
0.0
 20
0.0
 30
0.0
  0
VERTEX
  5
34E
  8
0
  6
CONTINUOUS
 62
     7
 10
236.498671
 20
293.256983
 30
0.0
  0
VERTEX
  5
34F
  8
0
  6
CONTINUOUS
 62
     7
 10
237.734739
 20
293.42933
 30
0.0
  0
VERTEX
  5
350
  8
0
  6
CONTINUOUS
 62
     7
 10
238.849812
 20
293.929498
 30
0.0
  0
VERTEX
  5
351
  8
0
  6
CONTINUOUS
 62
     7
 10
239.734739
 20
294.708528
 30
0.0
  0
VERTEX
  5
352
  8
0
  6
CONTINUOUS
 62
     7
 10
240.302897
 20
295.690163
 30
0.0
  0
SEQEND
  5
353
  8
0
 62
     7
  0
LINE
  5
354
  8
0
  6
CONTINUOUS
 62
     7
 10
240.302897
 20
295.690163
 30
0.0
 11
240.416003
 21
296.31883
 31
0.0
  0
LINE
  5
355
  8
0
  6
CONTINUOUS
 62
     7
 10
236.498671
 20
293.256983
 30
0.0
 11
166.498671
 21
293.256983
 31
0.0
  0
LINE
  5
356
  8
0
  6
CONTINUOUS
 62
     7
 10
338.498671
 20
293.256983
 30
0.0
 11
268.498671
 21
293.256983
 31
0.0
  0
POLYLINE
  5
357
  8
0
  6
CONTINUOUS
 62
     7
 66
     1
 10
0.0
 20
0.0
 30
0.0
  0
VERTEX
  5
358
  8
0
  6
CONTINUOUS
 62
     7
 10
338.498671
 20
293.256983
 30
0.0
  0
VERTEX
  5
359
  8
0
  6
CONTINUOUS
 62
     7
 10
339.734739
 20
293.42933
 30
0.0
  0
VERTEX
  5
35A
  8
0
  6
CONTINUOUS
 62
     7
 10
340.849812
 20
293.929498
 30
0.0
  0
VERTEX
  5
35B
  8
0
  6
CONTINUOUS
 62
     7
 10
341.734739
 20
294.708528
 30
0.0
  0
VERTEX
  5
35C
  8
0
  6
CONTINUOUS
 62
     7
 10
342.302897
 20
295.690163
 30
0.0
  0
SEQEND
  5
35D
  8
0
 62
     7
  0
LINE
  5
35E
  8
0
  6
CONTINUOUS
 62
     7
 10
342.302897
 20
295.690163
 30
0.0
 11
342.416003
 21
296.31883
 31
0.0
  0
LINE
  5
35F
  8
0
  6
CONTINUOUS
 62
     9
 10
268.498671
 20
292.782626
 30
0.0
 11
268.498671
 21
293.256983
 31
0.0
  0
LINE
  5
360
  8
0
  6
CONTINUOUS
 62
     9
 10
338.498671
 20
292.782626
 30
0.0
 11
338.498671
 21
293.256983
 31
0.0
  0
LINE
  5
361
  8
0
  6
CONTINUOUS
 62
     9
 10
236.498671
 20
292.782626
 30
0.0
 11
236.498671
 21
293.256983
 31
0.0
  0
LINE
  5
362
  8
0
  6
CONTINUOUS
 62
     9
 10
166.498671
 20
292.782626
 30
0.0
 11
166.498671
 21
293.256983
 31
0.0
  0
LINE
  5
363
  8
0
  6
CONTINUOUS
 62
     9
 10
133.498671
 20
292.782626
 30
0.0
 11
133.498671
 21
293.256983
 31
0.0
  0
LINE
  5
364
  8
0
  6
CONTINUOUS
 62
     9
 10
63.498671
 20
292.782626
 30
0.0
 11
63.498671
 21
293.256983
 31
0.0
  0
LINE
  5
365
  8
0
  6
CONTINUOUS
 62
     9
 10
41.498671
 20
283.080178
 30
0.0
 11
41.498671
 21
283.580178
 31
0.0
  0
LINE
  5
366
  8
0
  6
CONTINUOUS
 62
     9
 10
371.498671
 20
292.782626
 30
0.0
 11
371.498671
 21
293.256983
 31
0.0
  0
LINE
  5
367
  8
0
  6
CONTINUOUS
 62
     9
 10
441.498671
 20
292.782626
 30
0.0
 11
441.498671
 21
293.256983
 31
0.0
  0
LINE
  5
368
  8
0
  6
CONTINUOUS
 62
     9
 10
463.498671
 20
283.080178
 30
0.0
 11
463.498671
 21
283.580178
 31
0.0
  0
LINE
  5
369
  8
0
  6
CONTINUOUS
 62
     3
 10
137.498671
 20
296.303957
 30
0.0
 11
137.455999
 21
296.541135
 31
0.0
  0
LINE
  5
36A
  8
0
  6
CONTINUOUS
 62
     3
 10
137.455999
 20
296.541135
 30
0.0
 11
137.416003
 21
296.763441
 31
0.0
  0
POLYLINE
  5
36B
  8
0
  6
CONTINUOUS
 62
     3
 66
     1
 10
0.0
 20
0.0
 30
0.0
  0
VERTEX
  5
36C
  8
0
  6
CONTINUOUS
 62
     3
 10
137.416003
 20
296.763441
 30
0.0
  0
VERTEX
  5
36D
  8
0
  6
CONTINUOUS
 62
     3
 10
137.302897
 20
297.392108
 30
0.0
  0
VERTEX
  5
36E
  8
0
  6
CONTINUOUS
 62
     3
 10
136.734739
 20
298.373743
 30
0.0
  0
VERTEX
  5
36F
  8
0
  6
CONTINUOUS
 62
     3
 10
135.849812
 20
299.152773
 30
0.0
  0
VERTEX
  5
370
  8
0
  6
CONTINUOUS
 62
     3
 10
134.734739
 20
299.652941
 30
0.0
  0
VERTEX
  5
371
  8
0
  6
CONTINUOUS
 62
     3
 10
133.498671
 20
299.825287
 30
0.0
  0
SEQEND
  5
372
  8
0
 62
     3
  0
LINE
  5
373
  8
0
  6
CONTINUOUS
 62
     3
 10
54.498671
 20
335.910305
 30
0.0
 11
450.498671
 21
335.910305
 31
0.0
  0
LINE
  5
374
  8
0
  6
CONTINUOUS
 62
     3
 10
450.498671
 20
333.910305
 30
0.0
 11
450.498671
 21
335.324519
 31
0.0
  0
LINE
  5
375
  8
0
  6
CONTINUOUS
 62
     3
 10
450.498671
 20
335.324519
 30
0.0
 11
450.498671
 21
335.910305
 31
0.0
  0
LINE
  5
376
  8
0
  6
CONTINUOUS
 62
     3
 10
54.498671
 20
333.910305
 30
0.0
 11
54.498671
 21
335.324519
 31
0.0
  0
LINE
  5
377
  8
0
  6
CONTINUOUS
 62
     3
 10
54.498671
 20
335.324519
 30
0.0
 11
54.498671
 21
335.910305
 31
0.0
  0
LINE
  5
378
  8
0
  6
CONTINUOUS
 62
     3
 10
465.498671
 20
333.910305
 30
0.0
 11
450.498671
 21
333.910305
 31
0.0
  0
LINE
  5
379
  8
0
  6
CONTINUOUS
 62
     3
 10
39.498671
 20
333.910305
 30
0.0
 11
54.498671
 21
333.910305
 31
0.0
  0
LINE
  5
37A
  8
0
  6
CONTINUOUS
 62
     3
 10
268.498671
 20
299.825287
 30
0.0
 11
338.498671
 21
299.825287
 31
0.0
  0
POLYLINE
  5
37B
  8
0
  6
CONTINUOUS
 62
     3
 66
     1
 10
0.0
 20
0.0
 30
0.0
  0
VERTEX
  5
37C
  8
0
  6
CONTINUOUS
 62
     3
 10
268.498671
 20
299.825287
 30
0.0
  0
VERTEX
  5
37D
  8
0
  6
CONTINUOUS
 62
     3
 10
267.262603
 20
299.652941
 30
0.0
  0
VERTEX
  5
37E
  8
0
  6
CONTINUOUS
 62
     3
 10
266.14753
 20
299.152773
 30
0.0
  0
VERTEX
  5
37F
  8
0
  6
CONTINUOUS
 62
     3
 10
265.262603
 20
298.373743
 30
0.0
  0
VERTEX
  5
380
  8
0
  6
CONTINUOUS
 62
     3
 10
264.694445
 20
297.392108
 30
0.0
  0
VERTEX
  5
381
  8
0
  6
CONTINUOUS
 62
     3
 10
264.581338
 20
296.763441
 30
0.0
  0
SEQEND
  5
382
  8
0
 62
     3
  0
LINE
  5
383
  8
0
  6
CONTINUOUS
 62
     3
 10
264.581338
 20
296.763441
 30
0.0
 11
264.541343
 21
296.541135
 31
0.0
  0
LINE
  5
384
  8
0
  6
CONTINUOUS
 62
     3
 10
264.541343
 20
296.541135
 30
0.0
 11
264.498671
 21
296.303957
 31
0.0
  0
LINE
  5
385
  8
0
  6
CONTINUOUS
 62
     3
 10
166.498671
 20
299.825287
 30
0.0
 11
236.498671
 21
299.825287
 31
0.0
  0
POLYLINE
  5
386
  8
0
  6
CONTINUOUS
 62
     3
 66
     1
 10
0.0
 20
0.0
 30
0.0
  0
VERTEX
  5
387
  8
0
  6
CONTINUOUS
 62
     3
 10
166.498671
 20
299.825287
 30
0.0
  0
VERTEX
  5
388
  8
0
  6
CONTINUOUS
 62
     3
 10
165.262603
 20
299.652941
 30
0.0
  0
VERTEX
  5
389
  8
0
  6
CONTINUOUS
 62
     3
 10
164.14753
 20
299.152773
 30
0.0
  0
VERTEX
  5
38A
  8
0
  6
CONTINUOUS
 62
     3
 10
163.262603
 20
298.373743
 30
0.0
  0
VERTEX
  5
38B
  8
0
  6
CONTINUOUS
 62
     3
 10
162.694445
 20
297.392108
 30
0.0
  0
VERTEX
  5
38C
  8
0
  6
CONTINUOUS
 62
     3
 10
162.581338
 20
296.763441
 30
0.0
  0
SEQEND
  5
38D
  8
0
 62
     3
  0
LINE
  5
38E
  8
0
  6
CONTINUOUS
 62
     3
 10
162.581338
 20
296.763441
 30
0.0
 11
162.541343
 21
296.541135
 31
0.0
  0
LINE
  5
38F
  8
0
  6
CONTINUOUS
 62
     3
 10
162.541343
 20
296.541135
 30
0.0
 11
162.498671
 21
296.303957
 31
0.0
  0
LINE
  5
390
  8
0
  6
CONTINUOUS
 62
     3
 10
371.498671
 20
299.825287
 30
0.0
 11
441.498671
 21
299.825287
 31
0.0
  0
POLYLINE
  5
391
  8
0
  6
CONTINUOUS
 62
     3
 66
     1
 10
0.0
 20
0.0
 30
0.0
  0
VERTEX
  5
392
  8
0
  6
CONTINUOUS
 62
     3
 10
371.498671
 20
299.825287
 30
0.0
  0
VERTEX
  5
393
  8
0
  6
CONTINUOUS
 62
     3
 10
370.262603
 20
299.652941
 30
0.0
  0
VERTEX
  5
394
  8
0
  6
CONTINUOUS
 62
     3
 10
369.14753
 20
299.152773
 30
0.0
  0
VERTEX
  5
395
  8
0
  6
CONTINUOUS
 62
     3
 10
368.262603
 20
298.373743
 30
0.0
  0
VERTEX
  5
396
  8
0
  6
CONTINUOUS
 62
     3
 10
367.694445
 20
297.392108
 30
0.0
  0
VERTEX
  5
397
  8
0
  6
CONTINUOUS
 62
     3
 10
367.581338
 20
296.763441
 30
0.0
  0
SEQEND
  5
398
  8
0
 62
     3
  0
LINE
  5
399
  8
0
  6
CONTINUOUS
 62
     3
 10
367.581338
 20
296.763441
 30
0.0
 11
367.541343
 21
296.541135
 31
0.0
  0
LINE
  5
39A
  8
0
  6
CONTINUOUS
 62
     3
 10
367.541343
 20
296.541135
 30
0.0
 11
367.498671
 21
296.303957
 31
0.0
  0
POLYLINE
  5
39B
  8
0
  6
CONTINUOUS
 62
     3
 66
     1
 10
0.0
 20
0.0
 30
0.0
  0
VERTEX
  5
39C
  8
0
  6
CONTINUOUS
 62
     3
 10
63.498671
 20
299.825287
 30
0.0
  0
VERTEX
  5
39D
  8
0
  6
CONTINUOUS
 62
     3
 10
62.262603
 20
299.652941
 30
0.0
  0
VERTEX
  5
39E
  8
0
  6
CONTINUOUS
 62
     3
 10
61.14753
 20
299.152773
 30
0.0
  0
VERTEX
  5
39F
  8
0
  6
CONTINUOUS
 62
     3
 10
60.262603
 20
298.373743
 30
0.0
  0
VERTEX
  5
3A0
  8
0
  6
CONTINUOUS
 62
     3
 10
59.694445
 20
297.392108
 30
0.0
  0
VERTEX
  5
3A1
  8
0
  6
CONTINUOUS
 62
     3
 10
59.581338
 20
296.763441
 30
0.0
  0
SEQEND
  5
3A2
  8
0
 62
     3
  0
LINE
  5
3A3
  8
0
  6
CONTINUOUS
 62
     3
 10
59.581338
 20
296.763441
 30
0.0
 11
59.541343
 21
296.541135
 31
0.0
  0
LINE
  5
3A4
  8
0
  6
CONTINUOUS
 62
     3
 10
59.541343
 20
296.541135
 30
0.0
 11
59.498671
 21
296.303957
 31
0.0
  0
LINE
  5
3A5
  8
0
  6
CONTINUOUS
 62
     3
 10
63.498671
 20
299.825287
 30
0.0
 11
133.498671
 21
299.825287
 31
0.0
  0
LINE
  5
3A6
  8
0
  6
CONTINUOUS
 62
     3
 10
445.498671
 20
296.303957
 30
0.0
 11
445.455999
 21
296.541135
 31
0.0
  0
LINE
  5
3A7
  8
0
  6
CONTINUOUS
 62
     3
 10
445.455999
 20
296.541135
 30
0.0
 11
445.416003
 21
296.763441
 31
0.0
  0
POLYLINE
  5
3A8
  8
0
  6
CONTINUOUS
 62
     3
 66
     1
 10
0.0
 20
0.0
 30
0.0
  0
VERTEX
  5
3A9
  8
0
  6
CONTINUOUS
 62
     3
 10
445.416003
 20
296.763441
 30
0.0
  0
VERTEX
  5
3AA
  8
0
  6
CONTINUOUS
 62
     3
 10
445.302897
 20
297.392108
 30
0.0
  0
VERTEX
  5
3AB
  8
0
  6
CONTINUOUS
 62
     3
 10
444.734739
 20
298.373743
 30
0.0
  0
VERTEX
  5
3AC
  8
0
  6
CONTINUOUS
 62
     3
 10
443.849812
 20
299.152773
 30
0.0
  0
VERTEX
  5
3AD
  8
0
  6
CONTINUOUS
 62
     3
 10
442.734739
 20
299.652941
 30
0.0
  0
VERTEX
  5
3AE
  8
0
  6
CONTINUOUS
 62
     3
 10
441.498671
 20
299.825287
 30
0.0
  0
SEQEND
  5
3AF
  8
0
 62
     3
  0
LINE
  5
3B0
  8
0
  6
CONTINUOUS
 62
     3
 10
37.498671
 20
333.910305
 30
0.0
 11
37.498671
 21
331.660305
 31
0.0
  0
LINE
  5
3B1
  8
0
  6
CONTINUOUS
 62
     3
 10
37.498671
 20
331.660305
 30
0.0
 11
37.498671
 21
325.560305
 31
0.0
  0
LINE
  5
3B2
  8
0
  6
CONTINUOUS
 62
     3
 10
37.498671
 20
325.560305
 30
0.0
 11
37.498671
 21
314.660305
 31
0.0
  0
LINE
  5
3B3
  8
0
  6
CONTINUOUS
 62
     3
 10
37.498671
 20
314.660305
 30
0.0
 11
37.498671
 21
308.560305
 31
0.0
  0
LINE
  5
3B4
  8
0
  6
CONTINUOUS
 62
     3
 10
37.498671
 20
308.560305
 30
0.0
 11
37.498671
 21
306.610305
 31
0.0
  0
LINE
  5
3B5
  8
0
  6
CONTINUOUS
 62
     3
 10
467.498671
 20
333.910305
 30
0.0
 11
467.498671
 21
331.660305
 31
0.0
  0
LINE
  5
3B6
  8
0
  6
CONTINUOUS
 62
     3
 10
467.498671
 20
331.660305
 30
0.0
 11
467.498671
 21
325.560305
 31
0.0
  0
LINE
  5
3B7
  8
0
  6
CONTINUOUS
 62
     3
 10
467.498671
 20
325.560305
 30
0.0
 11
467.498671
 21
314.660305
 31
0.0
  0
LINE
  5
3B8
  8
0
  6
CONTINUOUS
 62
     3
 10
467.498671
 20
314.660305
 30
0.0
 11
467.498671
 21
308.560305
 31
0.0
  0
LINE
  5
3B9
  8
0
  6
CONTINUOUS
 62
     3
 10
467.498671
 20
308.560305
 30
0.0
 11
467.498671
 21
306.610305
 31
0.0
  0
LINE
  5
3BA
  8
0
  6
CONTINUOUS
 62
     3
 10
240.498671
 20
296.303957
 30
0.0
 11
240.455999
 21
296.541135
 31
0.0
  0
LINE
  5
3BB
  8
0
  6
CONTINUOUS
 62
     3
 10
240.455999
 20
296.541135
 30
0.0
 11
240.416003
 21
296.763441
 31
0.0
  0
POLYLINE
  5
3BC
  8
0
  6
CONTINUOUS
 62
     3
 66
     1
 10
0.0
 20
0.0
 30
0.0
  0
VERTEX
  5
3BD
  8
0
  6
CONTINUOUS
 62
     3
 10
240.416003
 20
296.763441
 30
0.0
  0
VERTEX
  5
3BE
  8
0
  6
CONTINUOUS
 62
     3
 10
240.302897
 20
297.392108
 30
0.0
  0
VERTEX
  5
3BF
  8
0
  6
CONTINUOUS
 62
     3
 10
239.734739
 20
298.373743
 30
0.0
  0
VERTEX
  5
3C0
  8
0
  6
CONTINUOUS
 62
     3
 10
238.849812
 20
299.152773
 30
0.0
  0
VERTEX
  5
3C1
  8
0
  6
CONTINUOUS
 62
     3
 10
237.734739
 20
299.652941
 30
0.0
  0
VERTEX
  5
3C2
  8
0
  6
CONTINUOUS
 62
     3
 10
236.498671
 20
299.825287
 30
0.0
  0
SEQEND
  5
3C3
  8
0
 62
     3
  0
LINE
  5
3C4
  8
0
  6
CONTINUOUS
 62
     3
 10
342.498671
 20
296.303957
 30
0.0
 11
342.455999
 21
296.541135
 31
0.0
  0
LINE
  5
3C5
  8
0
  6
CONTINUOUS
 62
     3
 10
342.455999
 20
296.541135
 30
0.0
 11
342.416003
 21
296.763441
 31
0.0
  0
POLYLINE
  5
3C6
  8
0
  6
CONTINUOUS
 62
     3
 66
     1
 10
0.0
 20
0.0
 30
0.0
  0
VERTEX
  5
3C7
  8
0
  6
CONTINUOUS
 62
     3
 10
342.416003
 20
296.763441
 30
0.0
  0
VERTEX
  5
3C8
  8
0
  6
CONTINUOUS
 62
     3
 10
342.302897
 20
297.392108
 30
0.0
  0
VERTEX
  5
3C9
  8
0
  6
CONTINUOUS
 62
     3
 10
341.734739
 20
298.373743
 30
0.0
  0
VERTEX
  5
3CA
  8
0
  6
CONTINUOUS
 62
     3
 10
340.849812
 20
299.152773
 30
0.0
  0
VERTEX
  5
3CB
  8
0
  6
CONTINUOUS
 62
     3
 10
339.734739
 20
299.652941
 30
0.0
  0
VERTEX
  5
3CC
  8
0
  6
CONTINUOUS
 62
     3
 10
338.498671
 20
299.825287
 30
0.0
  0
SEQEND
  5
3CD
  8
0
 62
     3
  0
LINE
  5
3CE
  8
0
  6
CONTINUOUS
 62
     3
 10
467.498671
 20
306.610305
 30
0.0
 11
467.498671
 21
308.560305
 31
0.0
  0
LINE
  5
3CF
  8
0
  6
CONTINUOUS
 62
     3
 10
467.498671
 20
308.560305
 30
0.0
 11
467.498671
 21
314.660305
 31
0.0
  0
LINE
  5
3D0
  8
0
  6
CONTINUOUS
 62
     3
 10
467.498671
 20
314.660305
 30
0.0
 11
467.498671
 21
325.560305
 31
0.0
  0
LINE
  5
3D1
  8
0
  6
CONTINUOUS
 62
     3
 10
467.498671
 20
325.560305
 30
0.0
 11
467.498671
 21
331.660305
 31
0.0
  0
LINE
  5
3D2
  8
0
  6
CONTINUOUS
 62
     3
 10
467.498671
 20
331.660305
 30
0.0
 11
467.498671
 21
333.910305
 31
0.0
  0
LINE
  5
3D3
  8
0
  6
CONTINUOUS
 62
     3
 10
37.498671
 20
333.910305
 30
0.0
 11
38.732248
 21
333.910305
 31
0.0
  0
LINE
  5
3D4
  8
0
  6
CONTINUOUS
 62
     3
 10
38.732248
 20
333.910305
 30
0.0
 11
39.498671
 21
333.910305
 31
0.0
  0
LINE
  5
3D5
  8
0
  6
CONTINUOUS
 62
     3
 10
37.498671
 20
306.610305
 30
0.0
 11
38.732248
 21
306.610305
 31
0.0
  0
LINE
  5
3D6
  8
0
  6
CONTINUOUS
 62
     3
 10
38.732248
 20
306.610305
 30
0.0
 11
39.498671
 21
306.610305
 31
0.0
  0
LINE
  5
3D7
  8
0
  6
CONTINUOUS
 62
     3
 10
37.498671
 20
306.610305
 30
0.0
 11
37.498671
 21
308.560305
 31
0.0
  0
LINE
  5
3D8
  8
0
  6
CONTINUOUS
 62
     3
 10
37.498671
 20
308.560305
 30
0.0
 11
37.498671
 21
314.660305
 31
0.0
  0
LINE
  5
3D9
  8
0
  6
CONTINUOUS
 62
     3
 10
37.498671
 20
314.660305
 30
0.0
 11
37.498671
 21
325.560305
 31
0.0
  0
LINE
  5
3DA
  8
0
  6
CONTINUOUS
 62
     3
 10
37.498671
 20
325.560305
 30
0.0
 11
37.498671
 21
331.660305
 31
0.0
  0
LINE
  5
3DB
  8
0
  6
CONTINUOUS
 62
     3
 10
37.498671
 20
331.660305
 30
0.0
 11
37.498671
 21
333.910305
 31
0.0
  0
LINE
  5
3DC
  8
0
  6
CONTINUOUS
 62
     3
 10
39.498671
 20
301.961591
 30
0.0
 11
39.498671
 21
302.910305
 31
0.0
  0
LINE
  5
3DD
  8
0
  6
CONTINUOUS
 62
     3
 10
465.498671
 20
301.961591
 30
0.0
 11
465.498671
 21
302.910305
 31
0.0
  0
LINE
  5
3DE
  8
0
  6
CONTINUOUS
 62
     3
 10
39.498671
 20
289.859019
 30
0.0
 11
39.498671
 21
301.961591
 31
0.0
  0
LINE
  5
3DF
  8
0
  6
CONTINUOUS
 62
     3
 10
465.498671
 20
289.859019
 30
0.0
 11
465.498671
 21
301.961591
 31
0.0
  0
LINE
  5
3E0
  8
0
  6
CONTINUOUS
 62
     3
 10
465.498671
 20
306.610305
 30
0.0
 11
466.912884
 21
306.610305
 31
0.0
  0
LINE
  5
3E1
  8
0
  6
CONTINUOUS
 62
     3
 10
466.912884
 20
306.610305
 30
0.0
 11
467.498671
 21
306.610305
 31
0.0
  0
LINE
  5
3E2
  8
0
  6
CONTINUOUS
 62
     3
 10
465.498671
 20
333.910305
 30
0.0
 11
466.912884
 21
333.910305
 31
0.0
  0
LINE
  5
3E3
  8
0
  6
CONTINUOUS
 62
     3
 10
466.912884
 20
333.910305
 30
0.0
 11
467.345992
 21
333.910305
 31
0.0
  0
LINE
  5
3E4
  8
0
  6
CONTINUOUS
 62
     3
 10
467.345992
 20
333.910305
 30
0.0
 11
467.498671
 21
333.910305
 31
0.0
  0
LINE
  5
3E5
  8
0
  6
CONTINUOUS
 62
     3
 10
39.498671
 20
302.910305
 30
0.0
 11
39.498671
 21
306.610305
 31
0.0
  0
LINE
  5
3E6
  8
0
  6
CONTINUOUS
 62
     3
 10
39.498671
 20
287.910305
 30
0.0
 11
39.498671
 21
289.859019
 31
0.0
  0
LINE
  5
3E7
  8
0
  6
CONTINUOUS
 62
     3
 10
465.498671
 20
302.910305
 30
0.0
 11
465.498671
 21
306.610305
 31
0.0
  0
LINE
  5
3E8
  8
0
  6
CONTINUOUS
 62
     3
 10
465.498671
 20
287.910305
 30
0.0
 11
465.498671
 21
289.859019
 31
0.0
  0
LINE
  5
3E9
  8
0
  6
CONTINUOUS
 62
     3
 10
39.498671
 20
285.312229
 30
0.0
 11
39.498671
 21
287.910305
 31
0.0
  0
LINE
  5
3EA
  8
0
  6
CONTINUOUS
 62
     3
 10
465.498671
 20
285.312229
 30
0.0
 11
465.498671
 21
287.910305
 31
0.0
  0
POLYLINE
  5
3EB
  8
0
  6
CONTINUOUS
 62
     3
 66
     1
 10
0.0
 20
0.0
 30
0.0
  0
VERTEX
  5
3EC
  8
0
  6
CONTINUOUS
 62
     3
 10
162.498671
 20
296.303957
 30
0.0
  0
VERTEX
  5
3ED
  8
0
  6
CONTINUOUS
 62
     3
 10
162.694445
 20
295.215806
 30
0.0
  0
VERTEX
  5
3EE
  8
0
  6
CONTINUOUS
 62
     3
 10
163.262603
 20
294.234171
 30
0.0
  0
VERTEX
  5
3EF
  8
0
  6
CONTINUOUS
 62
     3
 10
164.14753
 20
293.455141
 30
0.0
  0
VERTEX
  5
3F0
  8
0
  6
CONTINUOUS
 62
     3
 10
165.262603
 20
292.954973
 30
0.0
  0
VERTEX
  5
3F1
  8
0
  6
CONTINUOUS
 62
     3
 10
166.433792
 20
292.791673
 30
0.0
  0
SEQEND
  5
3F2
  8
0
 62
     3
  0
LINE
  5
3F3
  8
0
  6
CONTINUOUS
 62
     3
 10
166.433792
 20
292.791673
 30
0.0
 11
166.498671
 21
292.782626
 31
0.0
  0
LINE
  5
3F4
  8
0
  6
CONTINUOUS
 62
     3
 10
441.498671
 20
292.782626
 30
0.0
 11
371.498671
 21
292.782626
 31
0.0
  0
LINE
  5
3F5
  8
0
  6
CONTINUOUS
 62
     9
 10
39.498671
 20
289.859019
 30
0.0
 11
465.498671
 21
289.859019
 31
0.0
  0
LINE
  5
3F6
  8
0
  6
CONTINUOUS
 62
     3
 10
133.498671
 20
292.782626
 30
0.0
 11
63.498671
 21
292.782626
 31
0.0
  0
LINE
  5
3F7
  8
0
  6
CONTINUOUS
 62
     3
 10
133.498671
 20
292.782626
 30
0.0
 11
133.56355
 21
292.791673
 31
0.0
  0
POLYLINE
  5
3F8
  8
0
  6
CONTINUOUS
 62
     3
 66
     1
 10
0.0
 20
0.0
 30
0.0
  0
VERTEX
  5
3F9
  8
0
  6
CONTINUOUS
 62
     3
 10
133.56355
 20
292.791673
 30
0.0
  0
VERTEX
  5
3FA
  8
0
  6
CONTINUOUS
 62
     3
 10
134.734739
 20
292.954973
 30
0.0
  0
VERTEX
  5
3FB
  8
0
  6
CONTINUOUS
 62
     3
 10
135.849812
 20
293.455141
 30
0.0
  0
VERTEX
  5
3FC
  8
0
  6
CONTINUOUS
 62
     3
 10
136.734739
 20
294.234171
 30
0.0
  0
VERTEX
  5
3FD
  8
0
  6
CONTINUOUS
 62
     3
 10
137.302897
 20
295.215806
 30
0.0
  0
VERTEX
  5
3FE
  8
0
  6
CONTINUOUS
 62
     3
 10
137.498671
 20
296.303957
 30
0.0
  0
SEQEND
  5
3FF
  8
0
 62
     3
  0
POLYLINE
  5
400
  8
0
  6
CONTINUOUS
 62
     3
 66
     1
 10
0.0
 20
0.0
 30
0.0
  0
VERTEX
  5
401
  8
0
  6
CONTINUOUS
 62
     3
 10
264.498671
 20
296.303957
 30
0.0
  0
VERTEX
  5
402
  8
0
  6
CONTINUOUS
 62
     3
 10
264.694445
 20
295.215806
 30
0.0
  0
VERTEX
  5
403
  8
0
  6
CONTINUOUS
 62
     3
 10
265.262603
 20
294.234171
 30
0.0
  0
VERTEX
  5
404
  8
0
  6
CONTINUOUS
 62
     3
 10
266.14753
 20
293.455141
 30
0.0
  0
VERTEX
  5
405
  8
0
  6
CONTINUOUS
 62
     3
 10
267.262603
 20
292.954973
 30
0.0
  0
VERTEX
  5
406
  8
0
  6
CONTINUOUS
 62
     3
 10
268.433792
 20
292.791673
 30
0.0
  0
SEQEND
  5
407
  8
0
 62
     3
  0
LINE
  5
408
  8
0
  6
CONTINUOUS
 62
     3
 10
268.433792
 20
292.791673
 30
0.0
 11
268.498671
 21
292.782626
 31
0.0
  0
POLYLINE
  5
409
  8
0
  6
CONTINUOUS
 62
     3
 66
     1
 10
0.0
 20
0.0
 30
0.0
  0
VERTEX
  5
40A
  8
0
  6
CONTINUOUS
 62
     3
 10
367.498671
 20
296.303957
 30
0.0
  0
VERTEX
  5
40B
  8
0
  6
CONTINUOUS
 62
     3
 10
367.694445
 20
295.215806
 30
0.0
  0
VERTEX
  5
40C
  8
0
  6
CONTINUOUS
 62
     3
 10
368.262603
 20
294.234171
 30
0.0
  0
VERTEX
  5
40D
  8
0
  6
CONTINUOUS
 62
     3
 10
369.14753
 20
293.455141
 30
0.0
  0
VERTEX
  5
40E
  8
0
  6
CONTINUOUS
 62
     3
 10
370.262603
 20
292.954973
 30
0.0
  0
VERTEX
  5
40F
  8
0
  6
CONTINUOUS
 62
     3
 10
371.433792
 20
292.791673
 30
0.0
  0
SEQEND
  5
410
  8
0
 62
     3
  0
LINE
  5
411
  8
0
  6
CONTINUOUS
 62
     3
 10
371.433792
 20
292.791673
 30
0.0
 11
371.498671
 21
292.782626
 31
0.0
  0
LINE
  5
412
  8
0
  6
CONTINUOUS
 62
     9
 10
39.498671
 20
287.910305
 30
0.0
 11
465.498671
 21
287.910305
 31
0.0
  0
LINE
  5
413
  8
0
  6
CONTINUOUS
 62
     3
 10
41.498671
 20
283.580178
 30
0.0
 11
463.498671
 21
283.580178
 31
0.0
  0
POLYLINE
  5
414
  8
0
  6
CONTINUOUS
 62
     3
 66
     1
 10
0.0
 20
0.0
 30
0.0
  0
VERTEX
  5
415
  8
0
  6
CONTINUOUS
 62
     3
 10
59.498671
 20
296.303957
 30
0.0
  0
VERTEX
  5
416
  8
0
  6
CONTINUOUS
 62
     3
 10
59.694445
 20
295.215806
 30
0.0
  0
VERTEX
  5
417
  8
0
  6
CONTINUOUS
 62
     3
 10
60.262603
 20
294.234171
 30
0.0
  0
VERTEX
  5
418
  8
0
  6
CONTINUOUS
 62
     3
 10
61.14753
 20
293.455141
 30
0.0
  0
VERTEX
  5
419
  8
0
  6
CONTINUOUS
 62
     3
 10
62.262603
 20
292.954973
 30
0.0
  0
VERTEX
  5
41A
  8
0
  6
CONTINUOUS
 62
     3
 10
63.433792
 20
292.791673
 30
0.0
  0
SEQEND
  5
41B
  8
0
 62
     3
  0
LINE
  5
41C
  8
0
  6
CONTINUOUS
 62
     3
 10
63.433792
 20
292.791673
 30
0.0
 11
63.498671
 21
292.782626
 31
0.0
  0
LINE
  5
41D
  8
0
  6
CONTINUOUS
 62
     3
 10
338.498671
 20
292.782626
 30
0.0
 11
268.498671
 21
292.782626
 31
0.0
  0
LINE
  5
41E
  8
0
  6
CONTINUOUS
 62
     3
 10
338.498671
 20
292.782626
 30
0.0
 11
338.56355
 21
292.791673
 31
0.0
  0
POLYLINE
  5
41F
  8
0
  6
CONTINUOUS
 62
     3
 66
     1
 10
0.0
 20
0.0
 30
0.0
  0
VERTEX
  5
420
  8
0
  6
CONTINUOUS
 62
     3
 10
338.56355
 20
292.791673
 30
0.0
  0
VERTEX
  5
421
  8
0
  6
CONTINUOUS
 62
     3
 10
339.734739
 20
292.954973
 30
0.0
  0
VERTEX
  5
422
  8
0
  6
CONTINUOUS
 62
     3
 10
340.849812
 20
293.455141
 30
0.0
  0
VERTEX
  5
423
  8
0
  6
CONTINUOUS
 62
     3
 10
341.734739
 20
294.234171
 30
0.0
  0
VERTEX
  5
424
  8
0
  6
CONTINUOUS
 62
     3
 10
342.302897
 20
295.215806
 30
0.0
  0
VERTEX
  5
425
  8
0
  6
CONTINUOUS
 62
     3
 10
342.498671
 20
296.303957
 30
0.0
  0
SEQEND
  5
426
  8
0
 62
     3
  0
LINE
  5
427
  8
0
  6
CONTINUOUS
 62
     3
 10
236.498671
 20
292.782626
 30
0.0
 11
236.56355
 21
292.791673
 31
0.0
  0
POLYLINE
  5
428
  8
0
  6
CONTINUOUS
 62
     3
 66
     1
 10
0.0
 20
0.0
 30
0.0
  0
VERTEX
  5
429
  8
0
  6
CONTINUOUS
 62
     3
 10
236.56355
 20
292.791673
 30
0.0
  0
VERTEX
  5
42A
  8
0
  6
CONTINUOUS
 62
     3
 10
237.734739
 20
292.954973
 30
0.0
  0
VERTEX
  5
42B
  8
0
  6
CONTINUOUS
 62
     3
 10
238.849812
 20
293.455141
 30
0.0
  0
VERTEX
  5
42C
  8
0
  6
CONTINUOUS
 62
     3
 10
239.734739
 20
294.234171
 30
0.0
  0
VERTEX
  5
42D
  8
0
  6
CONTINUOUS
 62
     3
 10
240.302897
 20
295.215806
 30
0.0
  0
VERTEX
  5
42E
  8
0
  6
CONTINUOUS
 62
     3
 10
240.498671
 20
296.303957
 30
0.0
  0
SEQEND
  5
42F
  8
0
 62
     3
  0
LINE
  5
430
  8
0
  6
CONTINUOUS
 62
     9
 10
39.498671
 20
302.910305
 30
0.0
 11
465.498671
 21
302.910305
 31
0.0
  0
LINE
  5
431
  8
0
  6
CONTINUOUS
 62
     9
 10
39.498671
 20
333.910305
 30
0.0
 11
39.498671
 21
306.610305
 31
0.0
  0
LINE
  5
432
  8
0
  6
CONTINUOUS
 62
     9
 10
465.498671
 20
333.910305
 30
0.0
 11
465.498671
 21
306.610305
 31
0.0
  0
POLYLINE
  5
433
  8
0
  6
CONTINUOUS
 62
     3
 66
     1
 10
0.0
 20
0.0
 30
0.0
  0
VERTEX
  5
434
  8
0
  6
CONTINUOUS
 62
     3
 10
463.498671
 20
283.580178
 30
0.0
  0
VERTEX
  5
435
  8
0
  6
CONTINUOUS
 62
     3
 10
464.264038
 20
283.712023
 30
0.0
  0
VERTEX
  5
436
  8
0
  6
CONTINUOUS
 62
     3
 10
464.912884
 20
284.087484
 30
0.0
  0
SEQEND
  5
437
  8
0
 62
     3
  0
POLYLINE
  5
438
  8
0
  6
CONTINUOUS
 62
     3
 66
     1
 10
0.0
 20
0.0
 30
0.0
  0
VERTEX
  5
439
  8
0
  6
CONTINUOUS
 62
     3
 10
464.912884
 20
284.087484
 30
0.0
  0
VERTEX
  5
43A
  8
0
  6
CONTINUOUS
 62
     3
 10
465.34643
 20
284.649402
 30
0.0
  0
VERTEX
  5
43B
  8
0
  6
CONTINUOUS
 62
     3
 10
465.389584
 20
284.837284
 30
0.0
  0
SEQEND
  5
43C
  8
0
 62
     3
  0
LINE
  5
43D
  8
0
  6
CONTINUOUS
 62
     3
 10
465.389584
 20
284.837284
 30
0.0
 11
465.498671
 21
285.312229
 31
0.0
  0
LINE
  5
43E
  8
0
  6
CONTINUOUS
 62
     3
 10
236.498671
 20
292.782626
 30
0.0
 11
166.498671
 21
292.782626
 31
0.0
  0
LINE
  5
43F
  8
0
  6
CONTINUOUS
 62
     3
 10
39.498671
 20
285.312229
 30
0.0
 11
39.650912
 21
284.649402
 31
0.0
  0
LINE
  5
440
  8
0
  6
CONTINUOUS
 62
     3
 10
39.650912
 20
284.649402
 30
0.0
 11
40.084457
 21
284.087484
 31
0.0
  0
POLYLINE
  5
441
  8
0
  6
CONTINUOUS
 62
     3
 66
     1
 10
0.0
 20
0.0
 30
0.0
  0
VERTEX
  5
442
  8
0
  6
CONTINUOUS
 62
     3
 10
40.084457
 20
284.087484
 30
0.0
  0
VERTEX
  5
443
  8
0
  6
CONTINUOUS
 62
     3
 10
40.733304
 20
283.712023
 30
0.0
  0
VERTEX
  5
444
  8
0
  6
CONTINUOUS
 62
     3
 10
41.498671
 20
283.580178
 30
0.0
  0
SEQEND
  5
445
  8
0
 62
     3
  0
LINE
  5
446
  8
0
  6
CONTINUOUS
 62
     3
 10
441.498671
 20
292.782626
 30
0.0
 11
441.56355
 21
292.791673
 31
0.0
  0
POLYLINE
  5
447
  8
0
  6
CONTINUOUS
 62
     3
 66
     1
 10
0.0
 20
0.0
 30
0.0
  0
VERTEX
  5
448
  8
0
  6
CONTINUOUS
 62
     3
 10
441.56355
 20
292.791673
 30
0.0
  0
VERTEX
  5
449
  8
0
  6
CONTINUOUS
 62
     3
 10
442.734739
 20
292.954973
 30
0.0
  0
VERTEX
  5
44A
  8
0
  6
CONTINUOUS
 62
     3
 10
443.849812
 20
293.455141
 30
0.0
  0
VERTEX
  5
44B
  8
0
  6
CONTINUOUS
 62
     3
 10
444.734739
 20
294.234171
 30
0.0
  0
VERTEX
  5
44C
  8
0
  6
CONTINUOUS
 62
     3
 10
445.302897
 20
295.215806
 30
0.0
  0
VERTEX
  5
44D
  8
0
  6
CONTINUOUS
 62
     3
 10
445.498671
 20
296.303957
 30
0.0
  0
SEQEND
  5
44E
  8
0
 62
     3
  0
LINE
  5
44F
  8
0
  6
CONTINUOUS
 62
     9
 10
54.498671
 20
333.910305
 30
0.0
 11
450.498671
 21
333.910305
 31
0.0
  0
LINE
  5
450
  8
0
  6
CONTINUOUS
 62
     9
 10
39.498671
 20
301.961591
 30
0.0
 11
465.498671
 21
301.961591
 31
0.0
  0
LINE
  5
451
  8
0
  6
CONTINUOUS
 62
     7
 10
538.049227
 20
330.910305
 30
0.0
 11
538.549227
 21
330.910305
 31
0.0
  0
ARC
  5
452
  8
0
  6
CONTINUOUS
 62
     7
 10
546.049227
 20
333.910305
 30
0.0
 40
1.0
 50
0.0
 51
33.769775
  0
ARC
  5
453
  8
0
  6
CONTINUOUS
 62
     7
 10
546.049227
 20
333.910305
 30
0.0
 40
1.0
 50
33.769775
 51
90.0
  0
ARC
  5
454
  8
0
  6
CONTINUOUS
 62
     7
 10
540.049227
 20
333.910305
 30
0.0
 40
1.0
 50
90.0
 51
180.0
  0
LINE
  5
455
  8
0
  6
CONTINUOUS
 62
     7
 10
546.049227
 20
334.910305
 30
0.0
 11
540.049227
 21
334.910305
 31
0.0
  0
LINE
  5
456
  8
0
  6
CONTINUOUS
 62
     7
 10
547.049227
 20
302.910305
 30
0.0
 11
547.049227
 21
306.610305
 31
0.0
  0
LINE
  5
457
  8
0
  6
CONTINUOUS
 62
     7
 10
541.951151
 20
284.812229
 30
0.0
 11
540.451151
 21
287.410305
 31
0.0
  0
LINE
  5
458
  8
0
  6
CONTINUOUS
 62
     7
 10
542.951151
 20
283.080178
 30
0.0
 11
541.951151
 21
284.812229
 31
0.0
  0
LINE
  5
459
  8
0
  6
CONTINUOUS
 62
     7
 10
538.049227
 20
333.910305
 30
0.0
 11
537.549227
 21
333.910305
 31
0.0
  0
LINE
  5
45A
  8
0
  6
CONTINUOUS
 62
     7
 10
542.951151
 20
283.080178
 30
0.0
 11
543.817176
 21
283.580178
 31
0.0
  0
LINE
  5
45B
  8
0
  6
CONTINUOUS
 62
     7
 10
537.549227
 20
333.910305
 30
0.0
 11
537.549227
 21
306.610305
 31
0.0
  0
ARC
  5
45C
  8
0
  6
CONTINUOUS
 62
     7
 10
543.049227
 20
288.910305
 30
0.0
 40
3.0
 50
151.682509
 51
210.0
  0
LINE
  5
45D
  8
0
  6
CONTINUOUS
 62
     7
 10
538.549227
 20
306.610305
 30
0.0
 11
537.549227
 21
306.610305
 31
0.0
  0
LINE
  5
45E
  8
0
  6
CONTINUOUS
 62
     7
 10
540.408229
 20
290.333376
 30
0.0
 11
546.929559
 21
302.435948
 31
0.0
  0
ARC
  5
45F
  8
0
  6
CONTINUOUS
 62
     7
 10
546.049227
 20
302.910305
 30
0.0
 40
1.0
 50
331.682509
 51
0.0
  0
LINE
  5
460
  8
0
  6
CONTINUOUS
 62
     9
 10
546.049227
 20
335.910305
 30
0.0
 11
546.049227
 21
334.910305
 31
0.0
  0
LINE
  5
461
  8
0
  6
CONTINUOUS
 62
     9
 10
540.049227
 20
335.910305
 30
0.0
 11
540.049227
 21
334.910305
 31
0.0
  0
LINE
  5
462
  8
0
  6
CONTINUOUS
 62
     9
 10
541.317176
 20
287.910305
 30
0.0
 11
540.451151
 21
287.410305
 31
0.0
  0
LINE
  5
463
  8
0
  6
CONTINUOUS
 62
     9
 10
548.049227
 20
302.910305
 30
0.0
 11
547.049227
 21
302.910305
 31
0.0
  0
LINE
  5
464
  8
0
  6
CONTINUOUS
 62
     9
 10
538.049227
 20
333.910305
 30
0.0
 11
538.549227
 21
333.910305
 31
0.0
  0
LINE
  5
465
  8
0
  6
CONTINUOUS
 62
     9
 10
541.951151
 20
284.812229
 30
0.0
 11
542.817176
 21
285.312229
 31
0.0
  0
LINE
  5
466
  8
0
  6
CONTINUOUS
 62
     9
 10
541.288562
 20
289.859019
 30
0.0
 11
540.408229
 21
290.333376
 31
0.0
  0
LINE
  5
467
  8
0
  6
CONTINUOUS
 62
     9
 10
547.809892
 20
301.961591
 30
0.0
 11
546.929559
 21
302.435948
 31
0.0
  0
LINE
  5
468
  8
0
  6
CONTINUOUS
 62
     3
 10
538.049227
 20
333.910305
 30
0.0
 11
538.049227
 21
330.910305
 31
0.0
  0
ARC
  5
469
  8
0
  6
CONTINUOUS
 62
     3
 10
540.049227
 20
333.910305
 30
0.0
 40
2.0
 50
90.0
 51
177.066656
  0
ARC
  5
46A
  8
0
  6
CONTINUOUS
 62
     3
 10
540.049227
 20
333.910305
 30
0.0
 40
2.0
 50
177.066656
 51
180.0
  0
LINE
  5
46B
  8
0
  6
CONTINUOUS
 62
     3
 10
546.049227
 20
335.910305
 30
0.0
 11
540.049227
 21
335.910305
 31
0.0
  0
ARC
  5
46C
  8
0
  6
CONTINUOUS
 62
     3
 10
546.049227
 20
333.910305
 30
0.0
 40
2.0
 50
0.0
 51
5.822289
  0
ARC
  5
46D
  8
0
  6
CONTINUOUS
 62
     3
 10
546.049227
 20
333.910305
 30
0.0
 40
2.0
 50
5.822289
 51
90.0
  0
LINE
  5
46E
  8
0
  6
CONTINUOUS
 62
     3
 10
548.049227
 20
333.910305
 30
0.0
 11
548.049227
 21
306.610305
 31
0.0
  0
LINE
  5
46F
  8
0
  6
CONTINUOUS
 62
     3
 10
546.049227
 20
333.910305
 30
0.0
 11
547.46344
 21
333.910305
 31
0.0
  0
LINE
  5
470
  8
0
  6
CONTINUOUS
 62
     3
 10
547.46344
 20
333.910305
 30
0.0
 11
548.049227
 21
333.910305
 31
0.0
  0
LINE
  5
471
  8
0
  6
CONTINUOUS
 62
     3
 10
546.049227
 20
306.610305
 30
0.0
 11
547.46344
 21
306.610305
 31
0.0
  0
LINE
  5
472
  8
0
  6
CONTINUOUS
 62
     3
 10
547.46344
 20
306.610305
 30
0.0
 11
548.049227
 21
306.610305
 31
0.0
  0
LINE
  5
473
  8
0
  6
CONTINUOUS
 62
     3
 10
548.049227
 20
302.910305
 30
0.0
 11
548.049227
 21
306.610305
 31
0.0
  0
LINE
  5
474
  8
0
  6
CONTINUOUS
 62
     3
 10
538.549227
 20
333.910305
 30
0.0
 11
538.549227
 21
306.610305
 31
0.0
  0
LINE
  5
475
  8
0
  6
CONTINUOUS
 62
     3
 10
542.817176
 20
285.312229
 30
0.0
 11
541.317176
 21
287.910305
 31
0.0
  0
ARC
  5
476
  8
0
  6
CONTINUOUS
 62
     3
 10
542.549227
 20
311.610305
 30
0.0
 40
1.35
 50
244.010033
 51
270.0
  0
ARC
  5
477
  8
0
  6
CONTINUOUS
 62
     3
 10
542.549227
 20
311.610305
 30
0.0
 40
1.35
 50
90.0
 51
115.989967
  0
ARC
  5
478
  8
0
  6
CONTINUOUS
 62
     3
 10
542.549227
 20
328.610305
 30
0.0
 40
1.35
 50
244.010033
 51
270.0
  0
ARC
  5
479
  8
0
  6
CONTINUOUS
 62
     3
 10
542.549227
 20
328.610305
 30
0.0
 40
1.35
 50
90.0
 51
115.989967
  0
LINE
  5
47A
  8
0
  6
CONTINUOUS
 62
     3
 10
542.817176
 20
285.312229
 30
0.0
 11
543.817176
 21
283.580178
 31
0.0
  0
ARC
  5
47B
  8
0
  6
CONTINUOUS
 62
     3
 10
542.549227
 20
328.610305
 30
0.0
 40
1.35
 50
90.0
 51
270.0
  0
ARC
  5
47C
  8
0
  6
CONTINUOUS
 62
     3
 10
542.549227
 20
328.610305
 30
0.0
 40
1.35
 50
270.0
 51
90.0
  0
ARC
  5
47D
  8
0
  6
CONTINUOUS
 62
     3
 10
543.049227
 20
288.910305
 30
0.0
 40
2.0
 50
151.682509
 51
210.0
  0
ARC
  5
47E
  8
0
  6
CONTINUOUS
 62
     3
 10
542.549227
 20
311.610305
 30
0.0
 40
1.35
 50
90.0
 51
270.0
  0
ARC
  5
47F
  8
0
  6
CONTINUOUS
 62
     3
 10
542.549227
 20
311.610305
 30
0.0
 40
1.35
 50
270.0
 51
90.0
  0
LINE
  5
480
  8
0
  6
CONTINUOUS
 62
     3
 10
538.549227
 20
333.910305
 30
0.0
 11
546.049227
 21
333.910305
 31
0.0
  0
LINE
  5
481
  8
0
  6
CONTINUOUS
 62
     3
 10
538.549227
 20
306.610305
 30
0.0
 11
546.049227
 21
306.610305
 31
0.0
  0
LINE
  5
482
  8
0
  6
CONTINUOUS
 62
     3
 10
541.288562
 20
289.859019
 30
0.0
 11
547.809892
 21
301.961591
 31
0.0
  0
ARC
  5
483
  8
0
  6
CONTINUOUS
 62
     3
 10
546.049227
 20
302.910305
 30
0.0
 40
2.0
 50
331.682509
 51
0.0
  0
ARC
  5
484
  8
0
  6
CONTINUOUS
 62
     9
 10
542.549227
 20
328.610305
 30
0.0
 40
3.05
 50
90.0
 51
270.0
  0
ARC
  5
485
  8
0
  6
CONTINUOUS
 62
     9
 10
542.549227
 20
328.610305
 30
0.0
 40
3.05
 50
270.0
 51
90.0
  0
ARC
  5
486
  8
0
  6
CONTINUOUS
 62
     9
 10
542.549227
 20
311.610305
 30
0.0
 40
3.05
 50
90.0
 51
270.0
  0
ARC
  5
487
  8
0
  6
CONTINUOUS
 62
     9
 10
542.549227
 20
311.610305
 30
0.0
 40
3.05
 50
270.0
 51
90.0
  0
LINE
  5
488
  8
0
  6
CONTINUOUS
 62
     9
 10
546.049227
 20
333.910305
 30
0.0
 11
546.049227
 21
306.610305
 31
0.0
  0
LINE
  5
489
  8
0
  6
CONTINUOUS
 62
     7
 10
39.498671
 20
210.831282
 30
0.0
 11
39.498671
 21
210.682191
 31
0.0
  0
LINE
  5
48A
  8
0
  6
CONTINUOUS
 62
     7
 10
39.498671
 20
210.682191
 30
0.0
 11
39.498671
 21
210.473188
 31
0.0
  0
LINE
  5
48B
  8
0
  6
CONTINUOUS
 62
     7
 10
465.498671
 20
210.831282
 30
0.0
 11
465.498671
 21
210.682191
 31
0.0
  0
LINE
  5
48C
  8
0
  6
CONTINUOUS
 62
     7
 10
465.498671
 20
210.682191
 30
0.0
 11
465.498671
 21
210.473188
 31
0.0
  0
LINE
  5
48D
  8
0
  6
CONTINUOUS
 62
     7
 10
465.498671
 20
210.832191
 30
0.0
 11
450.498671
 21
210.832191
 31
0.0
  0
LINE
  5
48E
  8
0
  6
CONTINUOUS
 62
     7
 10
54.498671
 20
210.832191
 30
0.0
 11
39.498671
 21
210.832191
 31
0.0
  0
ARC
  5
48F
  8
0
  6
CONTINUOUS
 62
     7
 10
39.198671
 20
205.282191
 30
0.0
 40
0.7
 50
90.0
 51
150.0
  0
LINE
  5
490
  8
0
  6
CONTINUOUS
 62
     7
 10
466.498671
 20
204.832191
 30
0.0
 11
466.498671
 21
213.332191
 31
0.0
  0
LINE
  5
491
  8
0
  6
CONTINUOUS
 62
     7
 10
39.198671
 20
210.682191
 30
0.0
 11
39.198671
 21
209.231526
 31
0.0
  0
LINE
  5
492
  8
0
  6
CONTINUOUS
 62
     7
 10
39.198671
 20
209.231526
 30
0.0
 11
39.198671
 21
208.332191
 31
0.0
  0
LINE
  5
493
  8
0
  6
CONTINUOUS
 62
     7
 10
467.498671
 20
213.332191
 30
0.0
 11
466.498671
 21
213.332191
 31
0.0
  0
ARC
  5
494
  8
0
  6
CONTINUOUS
 62
     7
 10
39.198671
 20
211.382191
 30
0.0
 40
0.7
 50
180.0
 51
270.0
  0
LINE
  5
495
  8
0
  6
CONTINUOUS
 62
     7
 10
465.798671
 20
208.332191
 30
0.0
 11
465.798671
 21
207.432856
 31
0.0
  0
LINE
  5
496
  8
0
  6
CONTINUOUS
 62
     7
 10
465.798671
 20
207.432856
 30
0.0
 11
465.798671
 21
205.982191
 31
0.0
  0
LINE
  5
497
  8
0
  6
CONTINUOUS
 62
     7
 10
465.798671
 20
210.682191
 30
0.0
 11
465.798671
 21
209.231526
 31
0.0
  0
LINE
  5
498
  8
0
  6
CONTINUOUS
 62
     7
 10
465.798671
 20
209.231526
 30
0.0
 11
465.798671
 21
208.332191
 31
0.0
  0
ARC
  5
499
  8
0
  6
CONTINUOUS
 62
     7
 10
465.798671
 20
211.382191
 30
0.0
 40
0.7
 50
270.0
 51
0.0
  0
ARC
  5
49A
  8
0
  6
CONTINUOUS
 62
     7
 10
465.798671
 20
205.282191
 30
0.0
 40
0.7
 50
30.0
 51
90.0
  0
LINE
  5
49B
  8
0
  6
CONTINUOUS
 62
     7
 10
39.198671
 20
208.332191
 30
0.0
 11
39.198671
 21
207.432856
 31
0.0
  0
LINE
  5
49C
  8
0
  6
CONTINUOUS
 62
     7
 10
39.198671
 20
207.432856
 30
0.0
 11
39.198671
 21
205.982191
 31
0.0
  0
LINE
  5
49D
  8
0
  6
CONTINUOUS
 62
     7
 10
37.498671
 20
212.332191
 30
0.0
 11
38.498671
 21
212.332191
 31
0.0
  0
LINE
  5
49E
  8
0
  6
CONTINUOUS
 62
     7
 10
38.498671
 20
212.332191
 30
0.0
 11
38.498671
 21
204.832191
 31
0.0
  0
LINE
  5
49F
  8
0
  6
CONTINUOUS
 62
     7
 10
39.498671
 20
203.951858
 30
0.0
 11
39.498671
 21
203.832191
 31
0.0
  0
LINE
  5
4A0
  8
0
  6
CONTINUOUS
 62
     7
 10
465.498671
 20
203.951858
 30
0.0
 11
465.498671
 21
203.832191
 31
0.0
  0
LINE
  5
4A1
  8
0
  6
CONTINUOUS
 62
     7
 10
39.498671
 20
210.473188
 30
0.0
 11
39.498671
 21
209.681014
 31
0.0
  0
LINE
  5
4A2
  8
0
  6
CONTINUOUS
 62
     7
 10
39.498671
 20
209.681014
 30
0.0
 11
39.498671
 21
208.332191
 31
0.0
  0
LINE
  5
4A3
  8
0
  6
CONTINUOUS
 62
     7
 10
39.498671
 20
208.332191
 30
0.0
 11
39.498671
 21
206.983367
 31
0.0
  0
LINE
  5
4A4
  8
0
  6
CONTINUOUS
 62
     7
 10
39.498671
 20
206.983367
 30
0.0
 11
39.498671
 21
205.982191
 31
0.0
  0
LINE
  5
4A5
  8
0
  6
CONTINUOUS
 62
     7
 10
39.498671
 20
205.982191
 30
0.0
 11
39.498671
 21
203.951858
 31
0.0
  0
LINE
  5
4A6
  8
0
  6
CONTINUOUS
 62
     7
 10
465.498671
 20
203.832191
 30
0.0
 11
465.498671
 21
203.951858
 31
0.0
  0
LINE
  5
4A7
  8
0
  6
CONTINUOUS
 62
     7
 10
465.498671
 20
210.473188
 30
0.0
 11
465.498671
 21
209.681014
 31
0.0
  0
LINE
  5
4A8
  8
0
  6
CONTINUOUS
 62
     7
 10
465.498671
 20
209.681014
 30
0.0
 11
465.498671
 21
208.332191
 31
0.0
  0
LINE
  5
4A9
  8
0
  6
CONTINUOUS
 62
     7
 10
465.498671
 20
208.332191
 30
0.0
 11
465.498671
 21
206.983367
 31
0.0
  0
LINE
  5
4AA
  8
0
  6
CONTINUOUS
 62
     7
 10
465.498671
 20
206.983367
 30
0.0
 11
465.498671
 21
205.982191
 31
0.0
  0
LINE
  5
4AB
  8
0
  6
CONTINUOUS
 62
     7
 10
465.498671
 20
205.982191
 30
0.0
 11
465.498671
 21
203.951858
 31
0.0
  0
LINE
  5
4AC
  8
0
  6
CONTINUOUS
 62
     7
 10
39.498671
 20
203.832191
 30
0.0
 11
54.498671
 21
203.832191
 31
0.0
  0
LINE
  5
4AD
  8
0
  6
CONTINUOUS
 62
     7
 10
465.498671
 20
203.832191
 30
0.0
 11
450.498671
 21
203.832191
 31
0.0
  0
ARC
  5
4AE
  8
0
  6
CONTINUOUS
 62
     7
 10
465.498671
 20
204.832191
 30
0.0
 40
1.0
 50
270.0
 51
0.0
  0
ARC
  5
4AF
  8
0
  6
CONTINUOUS
 62
     7
 10
39.498671
 20
204.832191
 30
0.0
 40
1.0
 50
180.0
 51
270.0
  0
LINE
  5
4B0
  8
0
  6
CONTINUOUS
 62
     9
 10
465.498671
 20
202.832191
 30
0.0
 11
465.498671
 21
203.832191
 31
0.0
  0
LINE
  5
4B1
  8
0
  6
CONTINUOUS
 62
     9
 10
37.498671
 20
204.832191
 30
0.0
 11
38.498671
 21
204.832191
 31
0.0
  0
LINE
  5
4B2
  8
0
  6
CONTINUOUS
 62
     9
 10
39.498671
 20
210.473188
 30
0.0
 11
54.498671
 21
210.473188
 31
0.0
  0
LINE
  5
4B3
  8
0
  6
CONTINUOUS
 62
     9
 10
450.498671
 20
210.473188
 30
0.0
 11
465.498671
 21
210.473188
 31
0.0
  0
LINE
  5
4B4
  8
0
  6
CONTINUOUS
 62
     9
 10
467.498671
 20
204.832191
 30
0.0
 11
466.498671
 21
204.832191
 31
0.0
  0
LINE
  5
4B5
  8
0
  6
CONTINUOUS
 62
     9
 10
39.498671
 20
202.832191
 30
0.0
 11
39.498671
 21
203.832191
 31
0.0
  0
LINE
  5
4B6
  8
0
  6
CONTINUOUS
 62
     9
 10
39.498671
 20
203.951858
 30
0.0
 11
54.498671
 21
203.951858
 31
0.0
  0
LINE
  5
4B7
  8
0
  6
CONTINUOUS
 62
     9
 10
450.498671
 20
203.951858
 30
0.0
 11
465.498671
 21
203.951858
 31
0.0
  0
LINE
  5
4B8
  8
0
  6
CONTINUOUS
 62
     3
 10
54.498671
 20
212.832191
 30
0.0
 11
450.498671
 21
212.832191
 31
0.0
  0
LINE
  5
4B9
  8
0
  6
CONTINUOUS
 62
     3
 10
450.498671
 20
210.832191
 30
0.0
 11
450.498671
 21
212.246404
 31
0.0
  0
LINE
  5
4BA
  8
0
  6
CONTINUOUS
 62
     3
 10
450.498671
 20
212.246404
 30
0.0
 11
450.498671
 21
212.832191
 31
0.0
  0
LINE
  5
4BB
  8
0
  6
CONTINUOUS
 62
     3
 10
54.498671
 20
210.832191
 30
0.0
 11
54.498671
 21
212.246404
 31
0.0
  0
LINE
  5
4BC
  8
0
  6
CONTINUOUS
 62
     3
 10
54.498671
 20
212.246404
 30
0.0
 11
54.498671
 21
212.832191
 31
0.0
  0
LINE
  5
4BD
  8
0
  6
CONTINUOUS
 62
     3
 10
450.498671
 20
204.832191
 30
0.0
 11
450.498671
 21
210.832191
 31
0.0
  0
LINE
  5
4BE
  8
0
  6
CONTINUOUS
 62
     3
 10
54.498671
 20
204.832191
 30
0.0
 11
54.498671
 21
210.832191
 31
0.0
  0
LINE
  5
4BF
  8
0
  6
CONTINUOUS
 62
     3
 10
54.498671
 20
202.832191
 30
0.0
 11
450.498671
 21
202.832191
 31
0.0
  0
LINE
  5
4C0
  8
0
  6
CONTINUOUS
 62
     3
 10
465.498671
 20
202.832191
 30
0.0
 11
450.498671
 21
202.832191
 31
0.0
  0
LINE
  5
4C1
  8
0
  6
CONTINUOUS
 62
     3
 10
39.498671
 20
202.832191
 30
0.0
 11
54.498671
 21
202.832191
 31
0.0
  0
LINE
  5
4C2
  8
0
  6
CONTINUOUS
 62
     3
 10
467.498671
 20
204.832191
 30
0.0
 11
467.498671
 21
213.332191
 31
0.0
  0
LINE
  5
4C3
  8
0
  6
CONTINUOUS
 62
     3
 10
37.498671
 20
212.332191
 30
0.0
 11
37.498671
 21
204.832191
 31
0.0
  0
LINE
  5
4C4
  8
0
  6
CONTINUOUS
 62
     3
 10
54.498671
 20
202.832191
 30
0.0
 11
54.498671
 21
204.065768
 31
0.0
  0
LINE
  5
4C5
  8
0
  6
CONTINUOUS
 62
     3
 10
54.498671
 20
204.065768
 30
0.0
 11
54.498671
 21
204.832191
 31
0.0
  0
LINE
  5
4C6
  8
0
  6
CONTINUOUS
 62
     3
 10
450.498671
 20
202.832191
 30
0.0
 11
450.498671
 21
204.065768
 31
0.0
  0
LINE
  5
4C7
  8
0
  6
CONTINUOUS
 62
     3
 10
450.498671
 20
204.065768
 30
0.0
 11
450.498671
 21
204.832191
 31
0.0
  0
LINE
  5
4C8
  8
0
  6
CONTINUOUS
 62
     3
 10
450.498671
 20
202.832191
 30
0.0
 11
54.498671
 21
202.832191
 31
0.0
  0
ARC
  5
4C9
  8
0
  6
CONTINUOUS
 62
     3
 10
465.498671
 20
204.832191
 30
0.0
 40
2.0
 50
270.0
 51
0.0
  0
ARC
  5
4CA
  8
0
  6
CONTINUOUS
 62
     3
 10
39.498671
 20
204.832191
 30
0.0
 40
2.0
 50
180.0
 51
270.0
  0
LINE
  5
4CB
  8
0
  6
CONTINUOUS
 62
     9
 10
54.498671
 20
210.832191
 30
0.0
 11
450.498671
 21
210.832191
 31
0.0
  0
LINE
  5
4CC
  8
0
  6
CONTINUOUS
 62
     9
 10
54.498671
 20
204.832191
 30
0.0
 11
450.498671
 21
204.832191
 31
0.0
  0
DIMENSION
  5
4CD
  8
ZEICHNUNGSBEMAßUNGEN
  6
CONTINUOUS
 62
     2
  2
*D0
 10
548.049227
 20
345.518489
 30
0.0
 11
543.409872
 21
348.174356
 31
0.0
 13
537.549227
 23
334.410305
 33
0.0
 14
548.049227
 24
334.410305
 34
0.0
  0
DIMENSION
  5
4CE
  8
ZEICHNUNGSBEMAßUNGEN
  6
CONTINUOUS
 62
     2
  2
*D1
 10
482.553826
 20
335.910305
 30
0.0
 11
479.897959
 21
310.884365
 31
0.0
 13
463.998671
 23
283.080178
 33
0.0
 14
450.998671
 24
335.910305
 34
0.0
 50
90.0
  0
DIMENSION
  5
4CF
  8
ZEICHNUNGSBEMAßUNGEN
  6
CONTINUOUS
 62
     2
  2
*D2
 10
528.567753
 20
333.910305
 30
0.0
 11
525.911886
 21
320.827084
 31
0.0
 13
538.049227
 23
306.610305
 33
0.0
 14
538.049227
 24
333.910305
 34
0.0
 50
90.0
  0
DIMENSION
  5
4D0
  8
ZEICHNUNGSBEMAßUNGEN
  6
CONTINUOUS
 62
     2
  2
*D3
 10
37.498671
 20
351.327661
 30
0.0
 11
255.87298
 21
353.983527
 31
0.0
 13
467.498671
 23
334.410305
 33
0.0
 14
37.498671
 24
334.410305
 34
0.0
 50
180.0
  0
DIMENSION
  5
4D1
  8
ZEICHNUNGSBEMAßUNGEN
  6
CONTINUOUS
 62
     2
  2
*D4
 10
560.793115
 20
311.610305
 30
0.0
 11
558.137248
 21
320.686749
 31
0.0
 13
550.474227
 23
328.610305
 33
0.0
 14
550.474227
 24
311.610305
 34
0.0
 50
270.0
  0
LINE
  5
4D2
  8
DEFAULT_1
  6
CENTER
 62
     2
 10
549.974227
 20
328.610305
 30
0.0
 11
545.886727
 21
328.610305
 31
0.0
  0
LINE
  5
4D3
  8
DEFAULT_1
  6
CENTER
 62
     2
 10
535.124227
 20
328.610305
 30
0.0
 11
539.211727
 21
328.610305
 31
0.0
  0
LINE
  5
4D4
  8
DEFAULT_1
  6
CENTER
 62
     2
 10
542.549227
 20
336.035305
 30
0.0
 11
542.549227
 21
331.947805
 31
0.0
  0
LINE
  5
4D5
  8
DEFAULT_1
  6
CENTER
 62
     2
 10
542.549227
 20
321.185305
 30
0.0
 11
542.549227
 21
325.272805
 31
0.0
  0
LINE
  5
4D6
  8
0
  6
CONTINUOUS
 62
     2
 10
544.034227
 20
328.610305
 30
0.0
 11
541.064227
 21
328.610305
 31
0.0
  0
LINE
  5
4D7
  8
0
  6
CONTINUOUS
 62
     2
 10
541.064227
 20
328.610305
 30
0.0
 11
544.034227
 21
328.610305
 31
0.0
  0
LINE
  5
4D8
  8
0
  6
CONTINUOUS
 62
     2
 10
542.549227
 20
330.095305
 30
0.0
 11
542.549227
 21
327.125305
 31
0.0
  0
LINE
  5
4D9
  8
0
  6
CONTINUOUS
 62
     2
 10
542.549227
 20
327.125305
 30
0.0
 11
542.549227
 21
330.095305
 31
0.0
  0
LINE
  5
4DA
  8
DEFAULT_1
  6
CENTER
 62
     2
 10
549.974227
 20
311.610305
 30
0.0
 11
545.886727
 21
311.610305
 31
0.0
  0
LINE
  5
4DB
  8
DEFAULT_1
  6
CENTER
 62
     2
 10
535.124227
 20
311.610305
 30
0.0
 11
539.211727
 21
311.610305
 31
0.0
  0
LINE
  5
4DC
  8
DEFAULT_1
  6
CENTER
 62
     2
 10
542.549227
 20
319.035305
 30
0.0
 11
542.549227
 21
314.947805
 31
0.0
  0
LINE
  5
4DD
  8
DEFAULT_1
  6
CENTER
 62
     2
 10
542.549227
 20
304.185305
 30
0.0
 11
542.549227
 21
308.272805
 31
0.0
  0
LINE
  5
4DE
  8
0
  6
CONTINUOUS
 62
     2
 10
544.034227
 20
311.610305
 30
0.0
 11
541.064227
 21
311.610305
 31
0.0
  0
LINE
  5
4DF
  8
0
  6
CONTINUOUS
 62
     2
 10
541.064227
 20
311.610305
 30
0.0
 11
544.034227
 21
311.610305
 31
0.0
  0
LINE
  5
4E0
  8
0
  6
CONTINUOUS
 62
     2
 10
542.549227
 20
313.095305
 30
0.0
 11
542.549227
 21
310.125305
 31
0.0
  0
LINE
  5
4E1
  8
0
  6
CONTINUOUS
 62
     2
 10
542.549227
 20
310.125305
 30
0.0
 11
542.549227
 21
313.095305
 31
0.0
  0
LINE
  5
4E2
  8
0
  6
CONTINUOUS
 62
     7
 10
451.0
 20
56.0
 30
0.0
 11
584.0
 21
56.0
 31
0.0
  0
LINE
  5
4E3
  8
0
  6
CONTINUOUS
 62
     7
 10
451.0
 20
56.0
 30
0.0
 11
451.0
 21
10.0
 31
0.0
  0
LINE
  5
4E4
  8
0
  6
CONTINUOUS
 62
     7
 10
533.0
 20
51.0
 30
0.0
 11
584.0
 21
51.0
 31
0.0
  0
LINE
  5
4E5
  8
0
  6
CONTINUOUS
 62
     7
 10
451.0
 20
46.0
 30
0.0
 11
492.0
 21
46.0
 31
0.0
  0
LINE
  5
4E6
  8
0
  6
CONTINUOUS
 62
     7
 10
533.0
 20
46.0
 30
0.0
 11
584.0
 21
46.0
 31
0.0
  0
LINE
  5
4E7
  8
0
  6
CONTINUOUS
 62
     7
 10
533.0
 20
41.0
 30
0.0
 11
584.0
 21
41.0
 31
0.0
  0
LINE
  5
4E8
  8
0
  6
CONTINUOUS
 62
     7
 10
451.0
 20
36.0
 30
0.0
 11
584.0
 21
36.0
 31
0.0
  0
LINE
  5
4E9
  8
0
  6
CONTINUOUS
 62
     7
 10
533.0
 20
28.0
 30
0.0
 11
584.0
 21
28.0
 31
0.0
  0
LINE
  5
4EA
  8
0
  6
CONTINUOUS
 62
     7
 10
451.0
 20
19.0
 30
0.0
 11
584.0
 21
19.0
 31
0.0
  0
LINE
  5
4EB
  8
0
  6
CONTINUOUS
 62
     7
 10
451.0
 20
10.0
 30
0.0
 11
584.0
 21
10.0
 31
0.0
  0
LINE
  5
4EC
  8
0
  6
CONTINUOUS
 62
     7
 10
492.0
 20
56.0
 30
0.0
 11
492.0
 21
36.0
 31
0.0
  0
LINE
  5
4ED
  8
0
  6
CONTINUOUS
 62
     7
 10
515.0
 20
56.0
 30
0.0
 11
515.0
 21
36.0
 31
0.0
  0
LINE
  5
4EE
  8
0
  6
CONTINUOUS
 62
     7
 10
533.0
 20
56.0
 30
0.0
 11
533.0
 21
10.0
 31
0.0
  0
LINE
  5
4EF
  8
0
  6
CONTINUOUS
 62
     7
 10
552.0
 20
56.0
 30
0.0
 11
552.0
 21
36.0
 31
0.0
  0
LINE
  5
4F0
  8
0
  6
CONTINUOUS
 62
     7
 10
567.0
 20
56.0
 30
0.0
 11
567.0
 21
19.0
 31
0.0
  0
LINE
  5
4F1
  8
0
  6
CONTINUOUS
 62
     7
 10
584.0
 20
56.0
 30
0.0
 11
584.0
 21
10.0
 31
0.0
  0
TEXT
  5
4F2
  8
0
  6
CONTINUOUS
 62
     2
 10
451.0625
 20
51.465874
 30
0.0
 40
1.8
  1
 Allgemeintoleranzen
 41
0.780952
 51
15.0
 72
     5
 11
475.6625
 21
51.465874
 31
0.0
  0
TEXT
  5
4F3
  8
0
  6
CONTINUOUS
 62
     2
 10
451.0625
 20
48.670629
 30
0.0
 40
1.8
  1
 ISO 2768-m
 41
0.829493
 51
15.0
 72
     5
 11
466.491071
 21
48.670629
 31
0.0
  0
TEXT
  5
4F4
  8
0
  6
CONTINUOUS
 62
     2
 10
496.928571
 20
52.464724
 30
0.0
 40
2.0
  1
Werkstoff
 41
0.730159
 51
15.0
 72
     5
 11
510.071429
 21
52.464724
 31
0.0
  0
TEXT
  5
4F5
  8
0
  6
CONTINUOUS
 62
     2
 10
517.928571
 20
52.464724
 30
0.0
 40
2.0
  1
Massstab:
 41
0.758929
 51
15.0
 72
     5
 11
530.071429
 21
52.464724
 31
0.0
  0
TEXT
  5
4F6
  8
0
  6
CONTINUOUS
 62
     2
 10
555.666667
 20
52.464724
 30
0.0
 40
2.0
  1
Datum
 41
0.821429
 51
15.0
 72
     5
 11
563.333333
 21
52.464724
 31
0.0
  0
TEXT
  5
4F7
  8
0
  6
CONTINUOUS
 62
     2
 10
572.357143
 20
52.464724
 30
0.0
 40
2.0
  1
Name
 41
0.857143
 51
15.0
 72
     5
 11
578.642857
 21
52.464724
 31
0.0
  0
TEXT
  5
4F8
  8
0
  6
CONTINUOUS
 62
     2
 10
533.0625
 20
47.464724
 30
0.0
 40
2.0
  1
 Gezeichnet
 41
0.759524
 51
15.0
 72
     5
 11
548.252976
 21
47.464724
 31
0.0
  0
TEXT
  5
4F9
  8
0
  6
CONTINUOUS
 62
     2
 10
553.642857
 20
47.464724
 30
0.0
 40
2.0
  1
07.02.00
 41
1.033613
 51
15.0
 72
     5
 11
565.357143
 21
47.464724
 31
0.0
  0
TEXT
  5
4FA
  8
0
  6
CONTINUOUS
 62
     2
 10
572.738095
 20
47.464724
 30
0.0
 40
2.0
  1
Payr
 41
0.753247
 51
15.0
 72
     5
 11
578.261905
 21
47.464724
 31
0.0
  0
TEXT
  5
4FB
  8
0
  6
CONTINUOUS
 62
     2
 10
451.0625
 20
41.465874
 30
0.0
 40
1.8
  1
 Zeichnung urheberrechtlich
 41
0.738255
 51
15.0
 72
     5
 11
484.0625
 21
41.465874
 31
0.0
  0
TEXT
  5
4FC
  8
0
  6
CONTINUOUS
 62
     2
 10
451.0625
 20
38.670629
 30
0.0
 40
1.8
  1
 geschuetzt (DIN 34) (C)
 41
0.741342
 51
15.0
 72
     5
 11
480.419643
 21
38.670629
 31
0.0
  0
TEXT
  5
4FD
  8
0
  6
CONTINUOUS
 62
     2
 10
498.071429
 20
42.464724
 30
0.0
 40
2.0
  1
St-Blech
 41
0.757475
 51
15.0
 72
     5
 11
508.928571
 21
42.464724
 31
0.0
  0
TEXT
  5
4FE
  8
0
  6
CONTINUOUS
 62
     2
 10
521.375
 20
42.298408
 30
0.0
 40
3.5
  1
1:1
 41
1.125
 51
15.0
 72
     5
 11
526.625
 21
42.298408
 31
0.0
  0
TEXT
  5
4FF
  8
0
  6
CONTINUOUS
 62
     2
 10
533.0625
 20
42.464724
 30
0.0
 40
2.0
  1
 Freigegeben
 41
0.761905
 51
15.0
 72
     5
 11
549.824405
 21
42.464724
 31
0.0
  0
TEXT
  5
500
  8
0
  6
CONTINUOUS
 62
     2
 10
558.785714
 20
42.464724
 30
0.0
 40
2.0
  1
-
 41
1.071429
 51
15.0
 72
     5
 11
560.214286
 21
42.464724
 31
0.0
  0
TEXT
  5
501
  8
0
  6
CONTINUOUS
 62
     2
 10
574.785714
 20
42.464724
 30
0.0
 40
2.0
  1
-
 41
1.071429
 51
15.0
 72
     5
 11
576.214286
 21
42.464724
 31
0.0
  0
TEXT
  5
502
  8
0
  6
CONTINUOUS
 62
     2
 10
502.785714
 20
37.464724
 30
0.0
 40
2.0
  1
-
 41
1.071429
 51
15.0
 72
     5
 11
504.214286
 21
37.464724
 31
0.0
  0
TEXT
  5
503
  8
0
  6
CONTINUOUS
 62
     2
 10
521.5
 20
37.464724
 30
0.0
 40
2.0
  1
(
 41
1.285714
 72
     5
 11
522.357143
 21
37.464724
 31
0.0
  0
TEXT
  5
504
  8
0
  6
CONTINUOUS
 62
     2
 10
522.357143
 20
37.464724
 30
0.0
 40
2.0
  1
A2
 41
0.985714
 51
15.0
 72
     5
 11
525.642857
 21
37.464724
 31
0.0
  0
TEXT
  5
505
  8
0
  6
CONTINUOUS
 62
     2
 10
525.642857
 20
37.464724
 30
0.0
 40
2.0
  1
)
 41
1.285714
 72
     5
 11
526.5
 21
37.464724
 31
0.0
  0
TEXT
  5
506
  8
0
  6
CONTINUOUS
 62
     2
 10
533.0625
 20
37.464724
 30
0.0
 40
2.0
  1
 Geaendert
 41
0.731527
 51
15.0
 72
     5
 11
547.205357
 21
37.464724
 31
0.0
  0
TEXT
  5
507
  8
0
  6
CONTINUOUS
 62
     2
 10
558.785714
 20
37.464724
 30
0.0
 40
2.0
  1
-
 41
1.071429
 51
15.0
 72
     5
 11
560.214286
 21
37.464724
 31
0.0
  0
TEXT
  5
508
  8
0
  6
CONTINUOUS
 62
     2
 10
574.785714
 20
37.464724
 30
0.0
 40
2.0
  1
-
 41
1.071429
 51
15.0
 72
     5
 11
576.214286
 21
37.464724
 31
0.0
  0
TEXT
  5
509
  8
0
  6
CONTINUOUS
 62
     2
 10
451.0625
 20
33.078125
 30
0.0
 40
2.0
  1
 Benennung
 41
0.753695
 51
15.0
 72
     5
 11
465.633929
 21
33.078125
 31
0.0
  0
TEXT
  5
50A
  8
0
  6
CONTINUOUS
 62
     2
 10
533.0625
 20
33.035276
 30
0.0
 40
2.0
  1
 Aend.-Nr.
 41
0.848571
 51
15.0
 72
     5
 11
547.205357
 21
33.035276
 31
0.0
  0
TEXT
  5
50B
  8
0
  6
CONTINUOUS
 62
     2
 10
533.0625
 20
28.894171
 30
0.0
 40
2.0
  1
 
 41
0.785714
 51
15.0
 72
     5
 11
534.633929
 21
28.894171
 31
0.0
  0
TEXT
  5
50C
  8
0
  6
CONTINUOUS
 62
     2
 10
534.633929
 20
28.894171
 30
0.0
 40
2.0
  1
-
 41
1.071429
 51
15.0
 72
     5
 11
536.0625
 21
28.894171
 31
0.0
  0
TEXT
  5
50D
  8
0
  6
CONTINUOUS
 62
     2
 10
567.714286
 20
33.164686
 30
0.0
 40
2.0
  1
Aend.-Index
 41
0.805419
 51
15.0
 72
     5
 11
583.285714
 21
33.164686
 31
0.0
  0
TEXT
  5
50E
  8
0
  6
CONTINUOUS
 62
     2
 10
574.428571
 20
28.764762
 30
0.0
 40
3.0
  1
-
 41
1.071429
 51
15.0
 72
     5
 11
576.571429
 21
28.764762
 31
0.0
  0
TEXT
  5
50F
  8
0
  6
CONTINUOUS
 62
     2
 10
479.5
 20
28.688267
 30
0.0
 40
3.5
  1
NPPA-TT-_
 41
0.824176
 51
15.0
 72
     5
 11
504.5
 21
28.688267
 31
0.0
  0
TEXT
  5
510
  8
0
  6
CONTINUOUS
 62
     2
 10
462.559524
 20
20.91181
 30
0.0
 40
5.0
  1
Strain Relief Bar
 41
0.773676
 51
15.0
 72
     5
 11
519.940476
 21
20.91181
 31
0.0
  0
TEXT
  5
511
  8
0
  6
CONTINUOUS
 62
     2
 10
533.0625
 20
22.464724
 30
0.0
 40
2.0
  1
 Ersatz fuer:
 41
0.720238
 51
15.0
 72
     5
 11
550.348214
 21
22.464724
 31
0.0
  0
TEXT
  5
512
  8
0
  6
CONTINUOUS
 62
     2
 10
571.0
 20
24.535276
 30
0.0
 40
2.0
  1
Blatt 
 41
0.714286
 51
15.0
 72
     5
 11
578.857143
 21
24.535276
 31
0.0
  0
TEXT
  5
513
  8
0
  6
CONTINUOUS
 62
     2
 10
578.857143
 20
24.535276
 30
0.0
 40
2.0
  1
1
 41
1.714286
 51
15.0
 72
     5
 11
580.0
 21
24.535276
 31
0.0
  0
TEXT
  5
514
  8
0
  6
CONTINUOUS
 62
     2
 10
569.357143
 20
20.394171
 30
0.0
 40
2.0
  1
von 
 41
0.732143
 51
15.0
 72
     5
 11
575.214286
 21
20.394171
 31
0.0
  0
TEXT
  5
515
  8
0
  6
CONTINUOUS
 62
     2
 10
575.214286
 20
20.394171
 30
0.0
 40
2.0
  1
1
 41
1.714286
 51
15.0
 72
     5
 11
576.357143
 21
20.394171
 31
0.0
  0
TEXT
  5
516
  8
0
  6
CONTINUOUS
 62
     2
 10
576.357143
 20
20.394171
 30
0.0
 40
2.0
  1
 Bl.
 41
1.057143
 51
15.0
 72
     5
 11
581.642857
 21
20.394171
 31
0.0
  0
TEXT
  5
517
  8
0
  6
CONTINUOUS
 62
     2
 10
533.0625
 20
16.464724
 30
0.0
 40
2.0
  1
 Zeichn. Nr.
 41
0.852217
 51
15.0
 72
     5
 11
549.53869
 21
16.464724
 31
0.0
  0
TEXT
  5
518
  8
0
  6
CONTINUOUS
 62
     2
 10
547.125
 20
11.188267
 30
0.0
 40
3.5
  1
ST-NPPA-S
 41
0.815934
 51
15.0
 72
     5
 11
571.875
 21
11.188267
 31
0.0
  0
TEXT
  5
519
  8
0
  6
CONTINUOUS
 62
     2
 10
383.020883
 20
76.145424
 30
0.0
 40
3.5
  1
* Anschraubbohrungen in Seitenflanschen aller NEUTRIK Patch-Panel vorhanden
 41
0.740443
 51
15.0
 72
     5
 11
567.020883
 21
76.145424
 31
0.0
  0
TEXT
  5
51A
  8
0
  6
CONTINUOUS
 62
     2
 10
383.020883
 20
70.710224
 30
0.0
 40
3.5
  1
* screw-holes for fixing are prepared in side-flanges of all NEUTRIK 
 41
0.750744
 51
15.0
 72
     5
 11
551.18755
 21
70.710224
 31
0.0
  0
TEXT
  5
51B
  8
0
  6
CONTINUOUS
 62
     2
 10
551.18755
 20
70.710224
 30
0.0
 40
3.5
  1
Patch-Panels
 41
0.742004
 51
15.0
 72
     5
 11
580.18755
 21
70.710224
 31
0.0
  0
LINE
  5
51C
  8
0
  6
CONTINUOUS
 62
     2
 10
541.163323
 20
329.73829
 30
0.0
 11
514.590534
 21
353.421977
 31
0.0
  0
CIRCLE
  5
51D
  8
0
  6
CONTINUOUS
 62
     2
 10
541.489928
 20
329.447195
 30
0.0
 40
0.4375
  0
LINE
  5
51E
  8
0
  6
CONTINUOUS
 62
     2
 10
514.590534
 20
353.421977
 30
0.0
 11
509.590534
 21
353.421977
 31
0.0
  0
TEXT
  5
51F
  8
0
  6
CONTINUOUS
 62
     7
 10
507.257201
 20
351.610243
 30
0.0
 40
3.5
  1
*
 41
1.0
 51
15.0
 72
     5
 11
509.590534
 21
351.610243
 31
0.0
  0
ENDSEC
  0
EOF
