999
DXF file: st-fdr1.dxf
999
Pro/ENGINEER 2004300 by Parametric Technology Corporation
0
SECTION
2
HEADER
9
$ACADVER
1
AC1014
9
$EXTMAX
10
210.0000000000
20
297.0000000000
30
0.0000000000
9
$EXTMIN
10
0.0000000000
20
0.0000000000
30
0.0000000000
9
$LIMMIN
10
0.0000000000
20
0.0000000000
9
$LIMMAX
10
210.0000000000
20
297.0000000000
9
$VIEWCTR
10
105.0000000000
20
148.5000000000
9
$VIEWSIZE
40
297.0000000000
9
$CLAYER
8
0
9
$LTSCALE
40
19.3600000000
9
$CELTYPE
6
BYLAYER
9
$DIMSCALE
40
1
9
$DIMASZ
40
3.5000000000
9
$DIMEXO
40
2.2000000000
9
$DIMDLI
40
13.3760000000
9
$DIMEXE
40
6.3360000000
9
$DIMCEN
40
3.1680000000
9
$DIMLFAC
40
1.0000000000
9
$DIMBLK
1
_FILLED
9
$DIMTXT
40
3.5000000000
9
$DIMTOL
70
1
9
$DIMLIM
70
0
9
$DIMTFAC
40
1.0000000000
9
$DIMTP
40
0.0050000000
9
$DIMTM
40
0.0050000000
9
$PDMODE
70
3
9
$PDSIZE
40
0.3125000000
9
$HANDSEED
5
3F1
9
$MEASUREMENT
70
1
0
ENDSEC
0
SECTION
2
CLASSES
0
ENDSEC
0
SECTION
2
TABLES
0
TABLE
2
VPORT
5
8
100
AcDbSymbolTable
70
2
0
VPORT
5
1F4
100
AcDbSymbolTableRecord
100
AcDbViewportTableRecord
2
*ACTIVE
70
0
10
0.0
20
0.0
11
1.0
21
1.0
12
105.0000000000
22
148.5000000000
13
0.0
23
0.0
14
1.0
24
1.0
15
0.0
25
0.0
16
0.0
26
0.0
36
1.0
17
0.0
27
0.0
37
0.0
40
297.0000000000
41
0.7070707071
42
50.0
43
0.0
44
0.0
50
0.0
51
0.0
71
0
72
100
73
1
74
1
75
0
76
0
77
0
78
0
0
ENDTAB
0
TABLE
2
LTYPE
5
5
100
AcDbSymbolTable
70
6
0
LTYPE
5
14
100
AcDbSymbolTableRecord
100
AcDbLinetypeTableRecord
2
BYBLOCK
70
0
3

72
65
73
0
40
0.0
0
LTYPE
5
15
100
AcDbSymbolTableRecord
100
AcDbLinetypeTableRecord
2
BYLAYER
70
0
3

72
65
73
0
40
0.0
0
LTYPE
5
16
100
AcDbSymbolTableRecord
100
AcDbLinetypeTableRecord
2
CONTINUOUS
70
64
3
Solid line
72
65
73
0
40
0
0
LTYPE
5
1F5
100
AcDbSymbolTableRecord
100
AcDbLinetypeTableRecord
2
CENTER
70
64
3
____ _ ____ _ ____ _ ____ _ ____ _ ____ _ ____
72
65
73
4
40
0.6
49
0.375
74
0
49
-0.075
74
0
49
0.075
74
0
49
-0.075
74
0
0
LTYPE
5
1F6
100
AcDbSymbolTableRecord
100
AcDbLinetypeTableRecord
2
HIDDEN
70
64
3
- - - - - - - - - - - - - - - - - - - -
72
65
73
2
40
0.2
49
0.1
74
0
49
-0.1
74
0
0
LTYPE
5
1F7
100
AcDbSymbolTableRecord
100
AcDbLinetypeTableRecord
2
PHANTOM
70
64
3
_____ _ _ _____ _ _ _____ _ _ _____
72
65
73
6
40
0.8
49
0.45
74
0
49
-0.05
74
0
49
0.1
74
0
49
-0.05
74
0
49
0.1
74
0
49
-0.05
74
0
0
LTYPE
5
1F8
100
AcDbSymbolTableRecord
100
AcDbLinetypeTableRecord
2
DOT
70
64
3
. . . . . . . . . . . . . . . . . . . .
72
65
73
2
40
0.2
49
0.1
74
0
49
-0.1
74
0
0
LTYPE
5
1F9
100
AcDbSymbolTableRecord
100
AcDbLinetypeTableRecord
2
DASHED
70
64
3
- - - - - - - - - - - - - - - - - - - -
72
65
73
2
40
0.2
49
0.1
74
0
49
-0.1
74
0
0
ENDTAB
0
TABLE
2
LAYER
5
2
100
AcDbSymbolTable
70
36
0
LAYER
5
10
100
AcDbSymbolTableRecord
100
AcDbLayerTableRecord
2
0
70
0
62
7
6
CONTINUOUS
0
LAYER
5
1FA
100
AcDbSymbolTableRecord
100
AcDbLayerTableRecord
2
DEFAULT_1
70
0
62
7
6
CENTER
0
LAYER
5
1FB
100
AcDbSymbolTableRecord
100
AcDbLayerTableRecord
2
DEFAULT_2
70
0
62
8
6
HIDDEN
0
LAYER
5
1FC
100
AcDbSymbolTableRecord
100
AcDbLayerTableRecord
2
DEFAULT_3
70
0
62
7
6
PHANTOM
0
LAYER
5
1FD
100
AcDbSymbolTableRecord
100
AcDbLayerTableRecord
2
BEZUGSACHSEN
70
0
62
7
6
CONTINUOUS
0
LAYER
5
1FE
100
AcDbSymbolTableRecord
100
AcDbLayerTableRecord
2
BEZUGSEBENEN
70
0
62
7
6
CONTINUOUS
0
LAYER
5
1FF
100
AcDbSymbolTableRecord
100
AcDbLayerTableRecord
2
FASEN
70
0
62
7
6
CONTINUOUS
0
LAYER
5
200
100
AcDbSymbolTableRecord
100
AcDbLayerTableRecord
2
GEWINDE
70
0
62
7
6
CONTINUOUS
0
LAYER
5
201
100
AcDbSymbolTableRecord
100
AcDbLayerTableRecord
2
HILFEN
70
0
62
7
6
CONTINUOUS
0
LAYER
5
202
100
AcDbSymbolTableRecord
100
AcDbLayerTableRecord
2
PLAZIERUNG
70
0
62
7
6
CONTINUOUS
0
LAYER
5
203
100
AcDbSymbolTableRecord
100
AcDbLayerTableRecord
2
RUNDUNGEN
70
0
62
7
6
CONTINUOUS
0
LAYER
5
204
100
AcDbSymbolTableRecord
100
AcDbLayerTableRecord
2
TEIL_STARTBEZUEGE
70
0
62
7
6
CONTINUOUS
0
LAYER
5
205
100
AcDbSymbolTableRecord
100
AcDbLayerTableRecord
2
XSEC_DATUMS
70
0
62
7
6
CONTINUOUS
0
LAYER
5
206
100
AcDbSymbolTableRecord
100
AcDbLayerTableRecord
2
ZEICHNUNGSBEMASSUNGEN
70
0
62
7
6
CONTINUOUS
0
ENDTAB
0
TABLE
2
STYLE
5
3
100
AcDbSymbolTable
70
1
0
STYLE
5
11
100
AcDbSymbolTableRecord
100
AcDbTextStyleTableRecord
2
STANDARD
70
0
40
0.0
41
0.7000000000
50
0.0
71
0
42
0.2
3
txt
4

0
ENDTAB
0
TABLE
2
VIEW
5
6
100
AcDbSymbolTable
70
0
0
ENDTAB
0
TABLE
2
UCS
5
7
100
AcDbSymbolTable
70
0
0
ENDTAB
0
TABLE
2
APPID
5
9
100
AcDbSymbolTable
70
1
0
APPID
5
207
100
AcDbSymbolTableRecord
100
AcDbRegAppTableRecord
2
ACAD
70
0
0
ENDTAB
0
TABLE
2
DIMSTYLE
5
A
100
AcDbSymbolTable
70
1
0
DIMSTYLE
105
208
100
AcDbSymbolTableRecord
100
AcDbDimStyleTableRecord
2
STANDARD
70
0
3

4

5
_FILLED
6
_FILLED
7
_FILLED
40
1.0
41
3.5000000000
42
0.0625
43
0.38
44
0.18
45
0.0
46
0.0
47
0.0050000000
48
0.0050000000
140
3.5000000000
141
0.09
142
0.0
143
25.4
144
1.0000000000
145
0.0
146
1.0000000000
147
0.09
71
1
72
0
73
0
74
0
75
0
76
0
77
1
78
8
170
0
171
2
172
0
173
0
174
0
175
0
176
0
177
0
178
5
270
2
271
3
272
3
273
2
274
2
340
11
275
0
280
0
281
0
282
0
283
1
284
8
285
0
286
0
287
3
288
0
0
DIMSTYLE
105
209
100
AcDbSymbolTableRecord
100
AcDbDimStyleTableRecord
2
DIMSTYLE_1
70
0
3

4

5
_FILLED
6
_FILLED
7
_FILLED
40
1.0
41
3.5000000000
42
0.0625
43
0.38
44
0.18
45
0.0
46
0.0
47
0.3000000000
48
0.3000000000
140
3.5000000000
141
0.09
142
0.0
143
25.4
144
1.0000000000
145
0.0
146
1.0000000000
147
0.09
71
0
72
0
73
0
74
0
75
0
76
0
77
1
78
8
170
0
171
2
172
0
173
0
174
0
175
0
176
0
177
0
178
5
270
2
271
3
272
3
273
2
274
2
340
11
275
0
280
0
281
0
282
0
283
1
284
8
285
0
286
0
287
3
288
0
0
DIMSTYLE
105
20A
100
AcDbSymbolTableRecord
100
AcDbDimStyleTableRecord
2
DIMSTYLE_2
70
0
3

4

5
_FILLED
6
_FILLED
7
_FILLED
40
1.0
41
3.5000000000
42
0.0625
43
0.38
44
0.18
45
0.0
46
0.0
47
0.2000000000
48
0.2000000000
140
3.5000000000
141
0.09
142
0.0
143
25.4
144
1.0000000000
145
0.0
146
1.0000000000
147
0.09
71
0
72
0
73
0
74
0
75
0
76
0
77
1
78
8
170
0
171
2
172
0
173
0
174
0
175
0
176
0
177
0
178
5
270
2
271
3
272
3
273
2
274
2
340
11
275
0
280
0
281
0
282
0
283
1
284
8
285
0
286
0
287
3
288
0
0
DIMSTYLE
105
20B
100
AcDbSymbolTableRecord
100
AcDbDimStyleTableRecord
2
DIMSTYLE_3
70
0
3

4

5
_FILLED
6
_FILLED
7
_FILLED
40
1.0
41
3.5000000000
42
0.0625
43
0.38
44
0.18
45
0.0
46
0.0
47
0.1000000000
48
0.1000000000
140
3.5000000000
141
0.09
142
0.0
143
25.4
144
1.0000000000
145
0.0
146
1.0000000000
147
0.09
71
0
72
0
73
0
74
0
75
0
76
0
77
1
78
8
170
0
171
2
172
0
173
0
174
0
175
0
176
0
177
0
178
5
270
2
271
3
272
3
273
2
274
2
340
11
275
0
280
0
281
0
282
0
283
1
284
8
285
0
286
0
287
3
288
0
0
DIMSTYLE
105
20C
100
AcDbSymbolTableRecord
100
AcDbDimStyleTableRecord
2
DIMSTYLE_4
70
0
3

4

5
_FILLED
6
_FILLED
7
_FILLED
40
1.0
41
3.5000000000
42
0.0625
43
0.38
44
0.18
45
0.0
46
0.0
47
0.3000000000
48
0.3000000000
140
3.5000000000
141
0.09
142
0.0
143
25.4
144
1.0000000000
145
0.0
146
1.0000000000
147
0.09
71
0
72
0
73
0
74
0
75
0
76
0
77
1
78
8
170
0
171
2
172
0
173
0
174
0
175
0
176
0
177
0
178
5
270
2
271
3
272
3
273
2
274
2
340
11
275
0
280
0
281
0
282
0
283
1
284
8
285
0
286
0
287
3
288
0
0
ENDTAB
0
TABLE
2
BLOCK_RECORD
5
1
100
AcDbSymbolTable
70
0
0
BLOCK_RECORD
5
1B
100
AcDbSymbolTableRecord
100
AcDbBlockTableRecord
2
*MODEL_SPACE
0
BLOCK_RECORD
5
1C
100
AcDbSymbolTableRecord
100
AcDbBlockTableRecord
2
*PAPER_SPACE
0
BLOCK_RECORD
5
20D
100
AcDbSymbolTableRecord
100
AcDbBlockTableRecord
2
_FILLED
0
BLOCK_RECORD
5
20E
100
AcDbSymbolTableRecord
100
AcDbBlockTableRecord
2
NEUTRIK_LOGO_BL0
0
BLOCK_RECORD
5
20F
100
AcDbSymbolTableRecord
100
AcDbBlockTableRecord
2
*D0
0
BLOCK_RECORD
5
210
100
AcDbSymbolTableRecord
100
AcDbBlockTableRecord
2
*D1
0
BLOCK_RECORD
5
211
100
AcDbSymbolTableRecord
100
AcDbBlockTableRecord
2
*D2
0
BLOCK_RECORD
5
212
100
AcDbSymbolTableRecord
100
AcDbBlockTableRecord
2
*D3
0
BLOCK_RECORD
5
213
100
AcDbSymbolTableRecord
100
AcDbBlockTableRecord
2
*D4
0
BLOCK_RECORD
5
214
100
AcDbSymbolTableRecord
100
AcDbBlockTableRecord
2
*D5
0
BLOCK_RECORD
5
215
100
AcDbSymbolTableRecord
100
AcDbBlockTableRecord
2
*D6
0
BLOCK_RECORD
5
216
100
AcDbSymbolTableRecord
100
AcDbBlockTableRecord
2
*D7
0
BLOCK_RECORD
5
217
100
AcDbSymbolTableRecord
100
AcDbBlockTableRecord
2
*D8
0
ENDTAB
0
ENDSEC
0
SECTION
2
BLOCKS
0
BLOCK
5
1E
100
AcDbEntity
8
0
100
AcDbBlockBegin
2
*MODEL_SPACE
70
0
10
0.0
20
0.0
30
0.0
3
*MODEL_SPACE
1

0
ENDBLK
5
1F
100
AcDbEntity
8
0
100
AcDbBlockEnd
0
BLOCK
5
20
100
AcDbEntity
8
0
100
AcDbBlockBegin
2
*PAPER_SPACE
70
0
10
0.0
20
0.0
30
0.0
3
*PAPER_SPACE
1

0
ENDBLK
5
21
100
AcDbEntity
8
0
100
AcDbBlockEnd
0
BLOCK
5
218
100
AcDbEntity
8
0
100
AcDbBlockBegin
62
2
6
CONTINUOUS
2
NEUTRIK_LOGO_BL0
70
64
10
98.0245925022
20
9.2066660654
3
NEUTRIK_LOGO_BL0
1

0
LINE
5
219
100
AcDbEntity
8
0
100
AcDbLine
62
2
6
CONTINUOUS
10
77.5544360471
20
8.0329859648
11
75.0539855722
21
9.5420032339
0
LINE
5
21A
100
AcDbEntity
8
0
100
AcDbLine
62
2
6
CONTINUOUS
10
75.2018073047
20
10.3803457168
11
77.7022587796
21
8.8713284476
0
LINE
5
21B
100
AcDbEntity
8
0
100
AcDbLine
62
2
6
CONTINUOUS
10
107.6509415813
20
8.0329859648
11
106.0530264731
21
8.9551632959
0
LINE
5
21C
100
AcDbEntity
8
0
100
AcDbLine
62
2
6
CONTINUOUS
10
97.3194792782
20
8.8713284476
11
98.5968389666
21
8.0329859648
0
LINE
5
21D
100
AcDbEntity
8
0
100
AcDbLine
62
2
6
CONTINUOUS
10
100.5250274771
20
8.0329859648
11
99.2476677888
21
8.8713284476
0
LINE
5
21E
100
AcDbEntity
8
0
100
AcDbLine
62
2
6
CONTINUOUS
10
107.8554912111
20
9.2904996891
11
109.7467977884
21
8.0329859648
0
LINE
5
21F
100
AcDbEntity
8
0
100
AcDbLine
62
2
6
CONTINUOUS
10
115.1413990258
20
10.1843850714
11
115.4712004290
21
8.8651804588
0
LINE
5
220
100
AcDbEntity
8
0
100
AcDbLine
62
2
6
CONTINUOUS
10
115.5621982643
20
8.5011891175
11
115.6792490525
21
8.0329859648
0
LINE
5
221
100
AcDbEntity
8
0
100
AcDbLine
62
2
6
CONTINUOUS
10
116.6116883650
20
10.3803457168
11
117.1985283030
21
8.0329859648
0
LINE
5
222
100
AcDbEntity
8
0
100
AcDbLine
62
2
6
CONTINUOUS
10
73.1950539363
20
8.0329859648
11
73.6089561873
21
10.3803457168
0
LINE
5
223
100
AcDbEntity
8
0
100
AcDbLine
62
2
6
CONTINUOUS
10
75.0539855722
20
9.5420032339
11
74.7879050537
21
8.0329859648
0
LINE
5
224
100
AcDbEntity
8
0
100
AcDbLine
62
2
6
CONTINUOUS
10
77.7022587796
20
8.8713284476
11
77.9683382981
21
10.3803457168
0
LINE
5
225
100
AcDbEntity
8
0
100
AcDbLine
62
2
6
CONTINUOUS
10
79.5611904155
20
10.3803457168
11
79.1472871645
21
8.0329859648
0
LINE
5
226
100
AcDbEntity
8
0
100
AcDbLine
62
2
6
CONTINUOUS
10
80.4048008888
20
8.0329859648
11
80.8187041397
21
10.3803457168
0
LINE
5
227
100
AcDbEntity
8
0
100
AcDbLine
62
2
6
CONTINUOUS
10
82.2390275694
20
9.8773396271
11
82.1651167031
21
9.4581683856
0
LINE
5
228
100
AcDbEntity
8
0
100
AcDbLine
62
2
6
CONTINUOUS
10
82.0764228636
20
8.9551632959
11
82.0025119974
21
8.5359920545
0
LINE
5
229
100
AcDbEntity
8
0
100
AcDbLine
62
2
6
CONTINUOUS
10
84.3448077585
20
9.4581683856
11
84.2561139190
21
8.9551632959
0
LINE
5
22A
100
AcDbEntity
8
0
100
AcDbLine
62
2
6
CONTINUOUS
10
85.0104175540
20
10.3803457168
11
84.9217247145
21
9.8773396271
0
LINE
5
22B
100
AcDbEntity
8
0
100
AcDbLine
62
2
6
CONTINUOUS
10
84.6852081425
20
8.5359920545
11
84.5965153030
21
8.0329859648
0
LINE
5
22C
100
AcDbEntity
8
0
100
AcDbLine
62
2
6
CONTINUOUS
10
85.5789415251
20
8.8501264860
11
85.8487610368
21
10.3803457168
0
LINE
5
22D
100
AcDbEntity
8
0
100
AcDbLine
62
2
6
CONTINUOUS
10
87.3577773060
20
10.3803457168
11
87.1119527508
21
8.9862012398
0
LINE
5
22E
100
AcDbEntity
8
0
100
AcDbLine
62
2
6
CONTINUOUS
10
88.9423444384
20
8.9070203830
11
89.2021319682
21
10.3803457168
0
LINE
5
22F
100
AcDbEntity
8
0
100
AcDbLine
62
2
6
CONTINUOUS
10
90.7111492373
20
10.3803457168
11
90.4145627741
21
8.6983237607
0
LINE
5
230
100
AcDbEntity
8
0
100
AcDbLine
62
2
6
CONTINUOUS
10
91.1945133626
20
9.7935057788
11
91.2979891753
21
10.3803457168
0
LINE
5
231
100
AcDbEntity
8
0
100
AcDbLine
62
2
6
CONTINUOUS
10
92.0577658004
20
8.0329859648
11
92.3681932386
21
9.7935057788
0
LINE
5
232
100
AcDbEntity
8
0
100
AcDbLine
62
2
6
CONTINUOUS
10
94.0448782043
20
9.7935057788
11
93.7344517661
21
8.0329859648
0
LINE
5
233
100
AcDbEntity
8
0
100
AcDbLine
62
2
6
CONTINUOUS
10
95.3220338930
20
10.3803457168
11
95.2185580803
21
9.7935057788
0
LINE
5
234
100
AcDbEntity
8
0
100
AcDbLine
62
2
6
CONTINUOUS
10
95.9088738310
20
10.3803457168
11
95.4949715800
21
8.0329859648
0
LINE
5
235
100
AcDbEntity
8
0
100
AcDbLine
62
2
6
CONTINUOUS
10
97.1716565457
20
8.0329859648
11
97.3194792782
21
8.8713284476
0
LINE
5
236
100
AcDbEntity
8
0
100
AcDbLine
62
2
6
CONTINUOUS
10
97.4081721177
20
9.3743345373
11
97.5116479304
21
9.9611744753
0
LINE
5
237
100
AcDbEntity
8
0
100
AcDbLine
62
2
6
CONTINUOUS
10
101.1957022634
20
8.0329859648
11
101.6096045144
21
10.3803457168
0
LINE
5
238
100
AcDbEntity
8
0
100
AcDbLine
62
2
6
CONTINUOUS
10
103.2862904800
20
10.3803457168
11
102.8723872291
21
8.0329859648
0
LINE
5
239
100
AcDbEntity
8
0
100
AcDbLine
62
2
6
CONTINUOUS
10
104.2137358016
20
8.0329859648
11
104.6276390526
21
10.3803457168
0
LINE
5
23A
100
AcDbEntity
8
0
100
AcDbLine
62
2
6
CONTINUOUS
10
106.3043240183
20
10.3803457168
11
106.1121553661
21
9.2904996891
0
LINE
5
23B
100
AcDbEntity
8
0
100
AcDbLine
62
2
6
CONTINUOUS
10
106.0530264731
20
8.9551632959
11
105.8904217673
21
8.0329859648
0
LINE
5
23C
100
AcDbEntity
8
0
100
AcDbLine
62
2
6
CONTINUOUS
10
117.8923160475
20
8.5313940628
11
118.1405795982
21
9.9393685148
0
LINE
5
23D
100
AcDbEntity
8
0
100
AcDbLine
62
2
6
CONTINUOUS
10
119.4637212037
20
8.8526434815
11
119.6196779214
21
9.7371138808
0
LINE
5
23E
100
AcDbEntity
8
0
100
AcDbLine
62
2
6
CONTINUOUS
10
120.5561772267
20
8.8812524297
11
120.5944831573
21
9.0984910365
0
LINE
5
23F
100
AcDbEntity
8
0
100
AcDbLine
62
2
6
CONTINUOUS
10
121.0125094008
20
8.0329859648
11
121.0173913920
21
8.0606719147
0
LINE
5
240
100
AcDbEntity
8
0
100
AcDbLine
62
2
6
CONTINUOUS
10
121.1430231646
20
8.7731656253
11
121.1620821301
21
8.8812524297
0
LINE
5
241
100
AcDbEntity
8
0
100
AcDbLine
62
2
6
CONTINUOUS
10
122.5272706596
20
8.0329859648
11
122.7151483196
21
9.0984910365
0
LINE
5
242
100
AcDbEntity
8
0
100
AcDbLine
62
2
6
CONTINUOUS
10
122.8291061133
20
9.7447798669
11
122.8541310680
21
9.8867056101
0
LINE
5
243
100
AcDbEntity
8
0
100
AcDbLine
62
2
6
CONTINUOUS
10
109.7467977884
20
8.0329859648
11
107.6509415813
21
8.0329859648
0
LINE
5
244
100
AcDbEntity
8
0
100
AcDbLine
62
2
6
CONTINUOUS
10
73.1950539363
20
8.0329859648
11
74.7879050537
21
8.0329859648
0
LINE
5
245
100
AcDbEntity
8
0
100
AcDbLine
62
2
6
CONTINUOUS
10
105.8904217673
20
8.0329859648
11
104.2137358016
21
8.0329859648
0
LINE
5
246
100
AcDbEntity
8
0
100
AcDbLine
62
2
6
CONTINUOUS
10
102.8723872291
20
8.0329859648
11
101.1957022634
21
8.0329859648
0
LINE
5
247
100
AcDbEntity
8
0
100
AcDbLine
62
2
6
CONTINUOUS
10
93.7344517661
20
8.0329859648
11
92.0577658004
21
8.0329859648
0
LINE
5
248
100
AcDbEntity
8
0
100
AcDbLine
62
2
6
CONTINUOUS
10
95.4949715800
20
8.0329859648
11
97.1716565457
21
8.0329859648
0
LINE
5
249
100
AcDbEntity
8
0
100
AcDbLine
62
2
6
CONTINUOUS
10
84.5965153030
20
8.0329859648
11
80.4048008888
21
8.0329859648
0
LINE
5
24A
100
AcDbEntity
8
0
100
AcDbLine
62
2
6
CONTINUOUS
10
98.5968389666
20
8.0329859648
11
100.5250274771
21
8.0329859648
0
LINE
5
24B
100
AcDbEntity
8
0
100
AcDbLine
62
2
6
CONTINUOUS
10
79.1472871645
20
8.0329859648
11
77.5544360471
21
8.0329859648
0
LINE
5
24C
100
AcDbEntity
8
0
100
AcDbLine
62
2
6
CONTINUOUS
10
111.8930159044
20
8.0329859648
11
113.5278499458
21
8.0329859648
0
LINE
5
24D
100
AcDbEntity
8
0
100
AcDbLine
62
2
6
CONTINUOUS
10
115.6792490525
20
8.0329859648
11
117.1985283030
21
8.0329859648
0
LINE
5
24E
100
AcDbEntity
8
0
100
AcDbLine
62
2
6
CONTINUOUS
10
121.0125094008
20
8.0329859648
11
122.5272706596
21
8.0329859648
0
LINE
5
24F
100
AcDbEntity
8
0
100
AcDbLine
62
2
6
CONTINUOUS
10
113.8790013104
20
8.5011891175
11
115.5621982643
21
8.5011891175
0
LINE
5
250
100
AcDbEntity
8
0
100
AcDbLine
62
2
6
CONTINUOUS
10
82.0025119974
20
8.5359920545
11
84.6852081425
21
8.5359920545
0
LINE
5
251
100
AcDbEntity
8
0
100
AcDbLine
62
2
6
CONTINUOUS
10
114.1519948163
20
8.8651804588
11
115.4712004290
21
8.8651804588
0
LINE
5
252
100
AcDbEntity
8
0
100
AcDbLine
62
2
6
CONTINUOUS
10
120.5561772267
20
8.8812524297
11
121.1620821301
21
8.8812524297
0
LINE
5
253
100
AcDbEntity
8
0
100
AcDbLine
62
2
6
CONTINUOUS
10
84.2561139190
20
8.9551632959
11
82.0764228636
21
8.9551632959
0
LINE
5
254
100
AcDbEntity
8
0
100
AcDbLine
62
2
6
CONTINUOUS
10
120.5944831573
20
9.0984910365
11
122.7151483196
21
9.0984910365
0
LINE
5
255
100
AcDbEntity
8
0
100
AcDbLine
62
2
6
CONTINUOUS
10
98.4693321973
20
9.3743345373
11
97.4081721177
21
9.3743345373
0
LINE
5
256
100
AcDbEntity
8
0
100
AcDbLine
62
2
6
CONTINUOUS
10
82.1651167031
20
9.4581683856
11
84.3448077585
21
9.4581683856
0
LINE
5
257
100
AcDbEntity
8
0
100
AcDbLine
62
2
6
CONTINUOUS
10
121.2929528933
20
9.7447798669
11
122.8291061133
21
9.7447798669
0
LINE
5
258
100
AcDbEntity
8
0
100
AcDbLine
62
2
6
CONTINUOUS
10
95.2185580803
20
9.7935057788
11
94.0448782043
21
9.7935057788
0
LINE
5
259
100
AcDbEntity
8
0
100
AcDbLine
62
2
6
CONTINUOUS
10
92.3681932386
20
9.7935057788
11
91.1945133626
21
9.7935057788
0
LINE
5
25A
100
AcDbEntity
8
0
100
AcDbLine
62
2
6
CONTINUOUS
10
84.9217247145
20
9.8773396271
11
82.2390275694
21
9.8773396271
0
LINE
5
25B
100
AcDbEntity
8
0
100
AcDbLine
62
2
6
CONTINUOUS
10
97.5116479304
20
9.9611744753
11
98.7657596609
21
9.9611744753
0
LINE
5
25C
100
AcDbEntity
8
0
100
AcDbLine
62
2
6
CONTINUOUS
10
73.6089561873
20
10.3803457168
11
75.2018073047
21
10.3803457168
0
LINE
5
25D
100
AcDbEntity
8
0
100
AcDbLine
62
2
6
CONTINUOUS
10
77.9683382981
20
10.3803457168
11
79.5611904155
21
10.3803457168
0
LINE
5
25E
100
AcDbEntity
8
0
100
AcDbLine
62
2
6
CONTINUOUS
10
80.8187041397
20
10.3803457168
11
85.0104175540
21
10.3803457168
0
LINE
5
25F
100
AcDbEntity
8
0
100
AcDbLine
62
2
6
CONTINUOUS
10
99.0107422175
20
10.3803457168
11
95.9088738310
21
10.3803457168
0
LINE
5
260
100
AcDbEntity
8
0
100
AcDbLine
62
2
6
CONTINUOUS
10
85.8487610368
20
10.3803457168
11
87.3577773060
21
10.3803457168
0
LINE
5
261
100
AcDbEntity
8
0
100
AcDbLine
62
2
6
CONTINUOUS
10
89.2021319682
20
10.3803457168
11
90.7111492373
21
10.3803457168
0
LINE
5
262
100
AcDbEntity
8
0
100
AcDbLine
62
2
6
CONTINUOUS
10
91.2979891753
20
10.3803457168
11
95.3220338930
21
10.3803457168
0
LINE
5
263
100
AcDbEntity
8
0
100
AcDbLine
62
2
6
CONTINUOUS
10
101.6096045144
20
10.3803457168
11
103.2862904800
21
10.3803457168
0
LINE
5
264
100
AcDbEntity
8
0
100
AcDbLine
62
2
6
CONTINUOUS
10
104.6276390526
20
10.3803457168
11
106.3043240183
21
10.3803457168
0
LINE
5
265
100
AcDbEntity
8
0
100
AcDbLine
62
2
6
CONTINUOUS
10
108.0476608634
20
10.3803457168
11
110.1607010394
21
10.3803457168
0
LINE
5
266
100
AcDbEntity
8
0
100
AcDbLine
62
2
6
CONTINUOUS
10
113.6535357184
20
10.3803457168
11
116.6116883650
21
10.3803457168
0
LINE
5
267
100
AcDbEntity
8
0
100
AcDbLine
62
2
6
CONTINUOUS
10
111.8930159044
20
8.0329859648
11
113.6535357184
21
10.3803457168
0
LINE
5
268
100
AcDbEntity
8
0
100
AcDbLine
62
2
6
CONTINUOUS
10
113.5278499458
20
8.0329859648
11
113.8790013104
21
8.5011891175
0
LINE
5
269
100
AcDbEntity
8
0
100
AcDbLine
62
2
6
CONTINUOUS
10
114.1519948163
20
8.8651804588
11
115.1413990258
21
10.1843850714
0
LINE
5
26A
100
AcDbEntity
8
0
100
AcDbLine
62
2
6
CONTINUOUS
10
106.1121553661
20
9.2904996891
11
108.0476608634
21
10.3803457168
0
LINE
5
26B
100
AcDbEntity
8
0
100
AcDbLine
62
2
6
CONTINUOUS
10
110.1607010394
20
10.3803457168
11
107.8554912111
21
9.2904996891
0
ARC
5
26C
100
AcDbEntity
8
0
100
AcDbCircle
62
2
6
CONTINUOUS
10
87.4421951532
20
8.9279703451
40
0.3353369670
100
AcDbArc
50
169.9999581174
51
257.3876854477
0
ARC
5
26D
100
AcDbEntity
8
0
100
AcDbCircle
62
2
6
CONTINUOUS
10
87.9547452256
20
11.2186881996
40
2.6826964808
100
AcDbArc
50
257.3877479741
51
286.2626659460
0
ARC
5
26E
100
AcDbEntity
8
0
100
AcDbCircle
62
2
6
CONTINUOUS
10
88.6121020360
20
8.9652512777
40
0.3353371135
100
AcDbArc
50
286.2627744417
51
349.9999581174
0
ARC
5
26F
100
AcDbEntity
8
0
100
AcDbCircle
62
2
6
CONTINUOUS
10
89.9191986705
20
8.7856696027
40
0.5030061094
100
AcDbArc
50
284.4613069912
51
350.0000240953
0
ARC
5
270
100
AcDbEntity
8
0
100
AcDbCircle
62
2
6
CONTINUOUS
10
87.9512572319
20
16.4164137933
40
8.3834278607
100
AcDbArc
50
256.2209051549
51
284.4612653568
0
ARC
5
271
100
AcDbEntity
8
0
100
AcDbCircle
62
2
6
CONTINUOUS
10
86.0743056287
20
8.7627806441
40
0.5030058560
100
AcDbArc
50
170.0000240953
51
256.2208762229
0
ARC
5
272
100
AcDbEntity
8
0
100
AcDbCircle
62
2
6
CONTINUOUS
10
99.5460702487
20
10.1920990574
40
1.3167024847
100
AcDbArc
50
270.8139664646
51
287.3320455010
0
ARC
5
273
100
AcDbEntity
8
0
100
AcDbCircle
62
2
6
CONTINUOUS
10
99.6328970916
20
9.9138785609
40
1.0252482950
100
AcDbArc
50
287.3320415540
51
306.9952583027
0
ARC
5
274
100
AcDbEntity
8
0
100
AcDbCircle
62
2
6
CONTINUOUS
10
99.7658758510
20
9.7373788803
40
0.8042604703
100
AcDbArc
50
306.9952804959
51
331.1991469186
0
ARC
5
275
100
AcDbEntity
8
0
100
AcDbCircle
62
2
6
CONTINUOUS
10
99.9698034819
20
9.6252650832
40
0.5715468569
100
AcDbArc
50
331.1991187457
51
28.8007934081
0
ARC
5
276
100
AcDbEntity
8
0
100
AcDbCircle
62
2
6
CONTINUOUS
10
99.7658758510
20
9.5131502861
40
0.8042612359
100
AcDbArc
50
28.8008530814
51
53.0047195041
0
ARC
5
277
100
AcDbEntity
8
0
100
AcDbCircle
62
2
6
CONTINUOUS
10
99.6328970916
20
9.3366506055
40
1.0252479986
100
AcDbArc
50
53.0047416973
51
72.6679584460
0
ARC
5
278
100
AcDbEntity
8
0
100
AcDbCircle
62
2
6
CONTINUOUS
10
99.5460702487
20
9.0584301090
40
1.3167024858
100
AcDbArc
50
72.6679544990
51
88.2637233921
0
ARC
5
279
100
AcDbEntity
8
0
100
AcDbCircle
62
2
6
CONTINUOUS
10
99.1751869199
20
-1.8011792383
40
12.1826353158
100
AcDbArc
50
88.0677150838
51
90.7734183662
0
ARC
5
27A
100
AcDbEntity
8
0
100
AcDbCircle
62
2
6
CONTINUOUS
10
97.8450613271
20
126.7276131626
40
117.8646306221
100
AcDbArc
50
270.6818443076
51
270.8360085966
0
ARC
5
27B
100
AcDbEntity
8
0
100
AcDbCircle
62
2
6
CONTINUOUS
10
98.7233307377
20
9.4400284185
40
0.5228699142
100
AcDbArc
50
74.2117758502
51
85.3455498836
0
ARC
5
27C
100
AcDbEntity
8
0
100
AcDbCircle
62
2
6
CONTINUOUS
10
98.7726766484
20
9.6145531026
40
0.3415029724
100
AcDbArc
50
49.8059564200
51
74.2116374161
0
ARC
5
27D
100
AcDbEntity
8
0
100
AcDbCircle
62
2
6
CONTINUOUS
10
98.8829964487
20
9.7451268663
40
0.1705654939
100
AcDbArc
50
340.1939680670
51
49.8058745946
0
ARC
5
27E
100
AcDbEntity
8
0
100
AcDbCircle
62
2
6
CONTINUOUS
10
98.7221697398
20
9.8030467615
40
0.3415041793
100
AcDbArc
50
315.7883508031
51
340.1940327095
0
ARC
5
27F
100
AcDbEntity
8
0
100
AcDbCircle
62
2
6
CONTINUOUS
10
98.5921729750
20
9.9295155326
40
0.5228695114
100
AcDbArc
50
298.8638229053
51
315.7882717965
0
ARC
5
280
100
AcDbEntity
8
0
100
AcDbCircle
62
2
6
CONTINUOUS
10
98.4693321973
20
10.1523731293
40
0.7773408920
100
AcDbArc
50
285.0000006491
51
298.8638426666
0
ARC
5
281
100
AcDbEntity
8
0
100
AcDbCircle
62
2
6
CONTINUOUS
10
98.4666332022
20
10.1523751293
40
0.7780452733
100
AcDbArc
50
270.1987562222
51
285.1919461560
0
ARC
5
282
100
AcDbEntity
8
0
100
AcDbCircle
62
2
6
CONTINUOUS
10
120.6619260353
20
-2.9792851063
40
13.3596308353
100
AcDbArc
50
81.6598945895
51
99.8027888696
0
ARC
5
283
100
AcDbEntity
8
0
100
AcDbCircle
62
2
6
CONTINUOUS
10
120.1292479993
20
21.3907487912
40
13.3596309136
100
AcDbArc
50
261.4614728694
51
273.8118136955
0
ARC
5
284
100
AcDbEntity
8
0
100
AcDbCircle
62
2
6
CONTINUOUS
10
118.4389290582
20
9.8867606100
40
0.3029526780
100
AcDbArc
50
99.8027796749
51
169.9998425607
0
ARC
5
285
100
AcDbEntity
8
0
100
AcDbCircle
62
2
6
CONTINUOUS
10
118.1906655075
20
8.4787871580
40
0.3029519545
100
AcDbArc
50
170.0000288120
51
261.4614258049
0
ARC
5
286
100
AcDbEntity
8
0
100
AcDbCircle
62
2
6
CONTINUOUS
10
122.5557816080
20
9.9393125149
40
0.3029519545
100
AcDbArc
50
350.0000288120
51
81.6598857953
0
ARC
5
287
100
AcDbEntity
8
0
100
AcDbCircle
62
2
6
CONTINUOUS
10
120.4567834065
20
6.5595326313
40
3.4740280808
100
AcDbArc
50
80.2083456985
51
99.7818280968
0
ARC
5
288
100
AcDbEntity
8
0
100
AcDbCircle
62
2
6
CONTINUOUS
10
120.2291178185
20
11.9365299005
40
3.4740282835
100
AcDbArc
50
261.5304821195
51
281.1930777907
0
ARC
5
289
100
AcDbEntity
8
0
100
AcDbCircle
62
2
6
CONTINUOUS
10
119.9180273815
20
9.6845069760
40
0.3029528628
100
AcDbArc
50
99.7818543358
51
170.0000288120
0
ARC
5
28A
100
AcDbEntity
8
0
100
AcDbCircle
62
2
6
CONTINUOUS
10
120.9960754306
20
9.6844149762
40
0.3029523856
100
AcDbArc
50
11.4934186918
51
80.2083192078
0
ARC
5
28B
100
AcDbEntity
8
0
100
AcDbCircle
62
2
6
CONTINUOUS
10
119.7620716637
20
8.8000365767
40
0.3029529393
100
AcDbArc
50
170.0000616530
51
261.5304593161
0
ARC
5
28C
100
AcDbEntity
8
0
100
AcDbCircle
62
2
6
CONTINUOUS
10
120.8446737046
20
8.8257725301
40
0.3029520503
100
AcDbArc
50
281.1930976978
51
350.0000288120
0
ENDBLK
5
28D
100
AcDbEntity
8
0
6
BYBLOCK
62
0
100
AcDbBlockEnd
0
BLOCK
5
28E
100
AcDbEntity
8
ZEICHNUNGSBEMASSUNGEN
100
AcDbBlockBegin
62
2
6
CONTINUOUS
2
*D0
70
65
10
0.0000000000
20
0.0000000000
3
*D0
1

0
TEXT
5
28F
100
AcDbEntity
8
ZEICHNUNGSBEMASSUNGEN
100
AcDbText
62
5
6
CONTINUOUS
10
17.8217999628
20
183.1690853785
7
STANDARD
40
3.5000000000
1
%%c
50
-45.1625172027
41
1.3333333333
51
15.0000000000
72
0
100
AcDbText
0
TEXT
5
290
100
AcDbEntity
8
ZEICHNUNGSBEMASSUNGEN
100
AcDbText
62
5
6
CONTINUOUS
10
21.1122585050
20
179.8599071785
7
STANDARD
40
3.5000000000
1
46
50
-45.1625172027
41
0.7857142857
51
15.0000000000
72
0
100
AcDbText
0
TEXT
5
291
100
AcDbEntity
8
ZEICHNUNGSBEMASSUNGEN
100
AcDbText
62
5
6
CONTINUOUS
10
28.5157902252
20
172.4142562285
7
STANDARD
40
3.5000000000
1
1.81
50
-45.1625172027
41
0.6250000000
51
15.0000000000
72
0
100
AcDbText
0
TEXT
5
292
100
AcDbEntity
8
ZEICHNUNGSBEMASSUNGEN
100
AcDbText
62
5
6
CONTINUOUS
10
27.4581428366
20
173.4779206500
7
STANDARD
40
3.5000000000
1
[
50
-45.1625172027
41
0.4285714286
51
15.0000000000
72
0
100
AcDbText
0
TEXT
5
293
100
AcDbEntity
8
ZEICHNUNGSBEMASSUNGEN
100
AcDbText
62
5
6
CONTINUOUS
10
34.6853999920
20
166.2095471036
7
STANDARD
40
3.5000000000
1
]
50
-45.1625172027
41
0.4285714286
51
15.0000000000
72
0
100
AcDbText
0
LINE
5
294
100
AcDbEntity
8
ZEICHNUNGSBEMASSUNGEN
100
AcDbLine
62
2
6
CONTINUOUS
10
51.4179183933
20
148.0970980042
11
67.6351783518
21
131.7875768758
0
LINE
5
295
100
AcDbEntity
8
ZEICHNUNGSBEMASSUNGEN
100
AcDbLine
62
2
6
CONTINUOUS
10
67.6351783518
20
131.7875768758
11
17.1794412064
21
182.5303603751
0
LINE
5
296
100
AcDbEntity
8
ZEICHNUNGSBEMASSUNGEN
100
AcDbLine
62
2
6
CONTINUOUS
10
83.8524383103
20
115.4780557473
11
67.6351783518
21
131.7875768758
0
INSERT
5
297
100
AcDbEntity
8
ZEICHNUNGSBEMASSUNGEN
100
AcDbBlockReference
62
2
6
CONTINUOUS
2
_FILLED
10
51.4179183933
20
148.0970980042
41
  3.500000
42
  3.500000
43
  3.500000
50
134.837483
0
INSERT
5
298
100
AcDbEntity
8
ZEICHNUNGSBEMASSUNGEN
100
AcDbBlockReference
62
2
6
CONTINUOUS
2
_FILLED
10
83.8524383103
20
115.4780557473
41
  3.500000
42
  3.500000
43
  3.500000
50
314.837483
0
ENDBLK
5
299
100
AcDbEntity
8
0
6
BYBLOCK
62
0
100
AcDbBlockEnd
0
BLOCK
5
29A
100
AcDbEntity
8
ZEICHNUNGSBEMASSUNGEN
100
AcDbBlockBegin
62
2
6
CONTINUOUS
2
*D1
70
65
10
0.0000000000
20
0.0000000000
3
*D1
1

0
TEXT
5
29B
100
AcDbEntity
8
ZEICHNUNGSBEMASSUNGEN
100
AcDbText
62
5
6
CONTINUOUS
10
72.2531032181
20
88.9434435336
7
STANDARD
40
3.5000000000
1
19,919
41
0.6785714286
51
15.0000000000
72
0
100
AcDbText
0
TEXT
5
29C
100
AcDbEntity
8
ZEICHNUNGSBEMASSUNGEN
100
AcDbText
62
5
6
CONTINUOUS
10
91.5031032181
20
88.9434435336
7
STANDARD
40
3.5000000000
1
.78
41
0.7142857143
51
15.0000000000
72
0
100
AcDbText
0
TEXT
5
29D
100
AcDbEntity
8
ZEICHNUNGSBEMASSUNGEN
100
AcDbText
62
5
6
CONTINUOUS
10
90.0031032181
20
88.9434435336
7
STANDARD
40
3.5000000000
1
[
41
0.4285714286
51
15.0000000000
72
0
100
AcDbText
0
TEXT
5
29E
100
AcDbEntity
8
ZEICHNUNGSBEMASSUNGEN
100
AcDbText
62
5
6
CONTINUOUS
10
99.0031032181
20
88.9434435336
7
STANDARD
40
3.5000000000
1
]
41
0.4285714286
51
15.0000000000
72
0
100
AcDbText
0
LINE
5
29F
100
AcDbEntity
8
ZEICHNUNGSBEMASSUNGEN
100
AcDbLine
62
2
6
CONTINUOUS
10
47.7165940647
20
115.1875768758
11
47.7165940647
21
86.5375768758
0
LINE
5
2A0
100
AcDbEntity
8
ZEICHNUNGSBEMASSUNGEN
100
AcDbLine
62
2
6
CONTINUOUS
10
67.6351783518
20
97.0375768758
11
67.6351783518
21
86.5375768758
0
LINE
5
2A1
100
AcDbEntity
8
ZEICHNUNGSBEMASSUNGEN
100
AcDbLine
62
2
6
CONTINUOUS
10
47.7165940647
20
88.0375768758
11
57.6758862083
21
88.0375768758
0
LINE
5
2A2
100
AcDbEntity
8
ZEICHNUNGSBEMASSUNGEN
100
AcDbLine
62
2
6
CONTINUOUS
10
67.6351783518
20
88.0375768758
11
57.6758862083
21
88.0375768758
0
LINE
5
2A3
100
AcDbEntity
8
ZEICHNUNGSBEMASSUNGEN
100
AcDbLine
62
2
6
CONTINUOUS
10
57.6758862083
20
88.0375768758
11
100.5031032181
21
88.0375768758
0
INSERT
5
2A4
100
AcDbEntity
8
ZEICHNUNGSBEMASSUNGEN
100
AcDbBlockReference
62
2
6
CONTINUOUS
2
_FILLED
10
47.7165940647
20
88.0375768758
41
  3.500000
42
  3.500000
43
  3.500000
50
180.000000
0
INSERT
5
2A5
100
AcDbEntity
8
ZEICHNUNGSBEMASSUNGEN
100
AcDbBlockReference
62
2
6
CONTINUOUS
2
_FILLED
10
67.6351783518
20
88.0375768758
41
  3.500000
42
  3.500000
43
  3.500000
0
ENDBLK
5
2A6
100
AcDbEntity
8
0
6
BYBLOCK
62
0
100
AcDbBlockEnd
0
BLOCK
5
2A7
100
AcDbEntity
8
ZEICHNUNGSBEMASSUNGEN
100
AcDbBlockBegin
62
2
6
CONTINUOUS
2
*D2
70
65
10
0.0000000000
20
0.0000000000
3
*D2
1

0
TEXT
5
2A8
100
AcDbEntity
8
ZEICHNUNGSBEMASSUNGEN
100
AcDbText
62
5
6
CONTINUOUS
10
22.9896608056
20
135.4565169414
7
STANDARD
40
3.5000000000
1
11,5
50
90.0000000000
41
0.6071428571
51
15.0000000000
72
0
100
AcDbText
0
TEXT
5
2A9
100
AcDbEntity
8
ZEICHNUNGSBEMASSUNGEN
100
AcDbText
62
5
6
CONTINUOUS
10
22.9896608056
20
148.9565169414
7
STANDARD
40
3.5000000000
1
.45
50
90.0000000000
41
0.6904761905
51
15.0000000000
72
0
100
AcDbText
0
TEXT
5
2AA
100
AcDbEntity
8
ZEICHNUNGSBEMASSUNGEN
100
AcDbText
62
5
6
CONTINUOUS
10
22.9896608056
20
147.4565169414
7
STANDARD
40
3.5000000000
1
[
50
90.0000000000
41
0.4285714286
51
15.0000000000
72
0
100
AcDbText
0
TEXT
5
2AB
100
AcDbEntity
8
ZEICHNUNGSBEMASSUNGEN
100
AcDbText
62
5
6
CONTINUOUS
10
22.9896608056
20
156.2065169414
7
STANDARD
40
3.5000000000
1
]
50
90.0000000000
41
0.4285714286
51
15.0000000000
72
0
100
AcDbText
0
LINE
5
2AC
100
AcDbEntity
8
ZEICHNUNGSBEMASSUNGEN
100
AcDbLine
62
2
6
CONTINUOUS
10
32.8851783518
20
131.7875768758
11
22.3955274635
21
131.7875768758
0
LINE
5
2AD
100
AcDbEntity
8
ZEICHNUNGSBEMASSUNGEN
100
AcDbLine
62
2
6
CONTINUOUS
10
42.6165940647
20
120.2875768758
11
22.3955274635
21
120.2875768758
0
LINE
5
2AE
100
AcDbEntity
8
ZEICHNUNGSBEMASSUNGEN
100
AcDbLine
62
2
6
CONTINUOUS
10
23.8955274635
20
131.7875768758
11
23.8955274635
21
126.0375768758
0
LINE
5
2AF
100
AcDbEntity
8
ZEICHNUNGSBEMASSUNGEN
100
AcDbLine
62
2
6
CONTINUOUS
10
23.8955274635
20
126.0375768758
11
23.8955274635
21
157.7065169414
0
LINE
5
2B0
100
AcDbEntity
8
ZEICHNUNGSBEMASSUNGEN
100
AcDbLine
62
2
6
CONTINUOUS
10
23.8955274635
20
120.2875768758
11
23.8955274635
21
126.0375768758
0
INSERT
5
2B1
100
AcDbEntity
8
ZEICHNUNGSBEMASSUNGEN
100
AcDbBlockReference
62
2
6
CONTINUOUS
2
_FILLED
10
23.8955274635
20
131.7875768758
41
  3.500000
42
  3.500000
43
  3.500000
50
 90.000000
0
INSERT
5
2B2
100
AcDbEntity
8
ZEICHNUNGSBEMASSUNGEN
100
AcDbBlockReference
62
2
6
CONTINUOUS
2
_FILLED
10
23.8955274635
20
120.2875768758
41
  3.500000
42
  3.500000
43
  3.500000
50
270.000000
0
ENDBLK
5
2B3
100
AcDbEntity
8
0
6
BYBLOCK
62
0
100
AcDbBlockEnd
0
BLOCK
5
2B4
100
AcDbEntity
8
ZEICHNUNGSBEMASSUNGEN
100
AcDbBlockBegin
62
2
6
CONTINUOUS
2
*D3
70
65
10
0.0000000000
20
0.0000000000
3
*D3
1

0
TEXT
5
2B5
100
AcDbEntity
8
ZEICHNUNGSBEMASSUNGEN
100
AcDbText
62
5
6
CONTINUOUS
10
81.0590402515
20
176.4434435336
7
STANDARD
40
3.5000000000
1
19
41
0.6785714286
51
15.0000000000
72
0
100
AcDbText
0
TEXT
5
2B6
100
AcDbEntity
8
ZEICHNUNGSBEMASSUNGEN
100
AcDbText
62
5
6
CONTINUOUS
10
90.8090402515
20
176.4434435336
7
STANDARD
40
3.5000000000
1
.75
41
0.6904761905
51
15.0000000000
72
0
100
AcDbText
0
TEXT
5
2B7
100
AcDbEntity
8
ZEICHNUNGSBEMASSUNGEN
100
AcDbText
62
5
6
CONTINUOUS
10
89.3090402515
20
176.4434435336
7
STANDARD
40
3.5000000000
1
[
41
0.4285714286
51
15.0000000000
72
0
100
AcDbText
0
TEXT
5
2B8
100
AcDbEntity
8
ZEICHNUNGSBEMASSUNGEN
100
AcDbText
62
5
6
CONTINUOUS
10
98.0590402515
20
176.4434435336
7
STANDARD
40
3.5000000000
1
]
41
0.4285714286
51
15.0000000000
72
0
100
AcDbText
0
LINE
5
2B9
100
AcDbEntity
8
ZEICHNUNGSBEMASSUNGEN
100
AcDbLine
62
2
6
CONTINUOUS
10
77.1351783518
20
124.0375768758
11
77.1351783518
21
177.0375768758
0
LINE
5
2BA
100
AcDbEntity
8
ZEICHNUNGSBEMASSUNGEN
100
AcDbLine
62
2
6
CONTINUOUS
10
58.1351783518
20
148.0375768758
11
58.1351783518
21
177.0375768758
0
LINE
5
2BB
100
AcDbEntity
8
ZEICHNUNGSBEMASSUNGEN
100
AcDbLine
62
2
6
CONTINUOUS
10
77.1351783518
20
175.5375768758
11
67.6351783518
21
175.5375768758
0
LINE
5
2BC
100
AcDbEntity
8
ZEICHNUNGSBEMASSUNGEN
100
AcDbLine
62
2
6
CONTINUOUS
10
67.6351783518
20
175.5375768758
11
99.5590402515
21
175.5375768758
0
LINE
5
2BD
100
AcDbEntity
8
ZEICHNUNGSBEMASSUNGEN
100
AcDbLine
62
2
6
CONTINUOUS
10
58.1351783518
20
175.5375768758
11
67.6351783518
21
175.5375768758
0
INSERT
5
2BE
100
AcDbEntity
8
ZEICHNUNGSBEMASSUNGEN
100
AcDbBlockReference
62
2
6
CONTINUOUS
2
_FILLED
10
77.1351783518
20
175.5375768758
41
  3.500000
42
  3.500000
43
  3.500000
0
INSERT
5
2BF
100
AcDbEntity
8
ZEICHNUNGSBEMASSUNGEN
100
AcDbBlockReference
62
2
6
CONTINUOUS
2
_FILLED
10
58.1351783518
20
175.5375768758
41
  3.500000
42
  3.500000
43
  3.500000
50
180.000000
0
ENDBLK
5
2C0
100
AcDbEntity
8
0
6
BYBLOCK
62
0
100
AcDbBlockEnd
0
BLOCK
5
2C1
100
AcDbEntity
8
ZEICHNUNGSBEMASSUNGEN
100
AcDbBlockBegin
62
2
6
CONTINUOUS
2
*D4
70
65
10
0.0000000000
20
0.0000000000
3
*D4
1

0
TEXT
5
2C2
100
AcDbEntity
8
ZEICHNUNGSBEMASSUNGEN
100
AcDbText
62
5
6
CONTINUOUS
10
110.3301737662
20
122.6764172038
7
STANDARD
40
3.5000000000
1
24
50
90.0000000000
41
0.7857142857
51
15.0000000000
72
0
100
AcDbText
0
TEXT
5
2C3
100
AcDbEntity
8
ZEICHNUNGSBEMASSUNGEN
100
AcDbText
62
5
6
CONTINUOUS
10
110.3301737662
20
133.1764172038
7
STANDARD
40
3.5000000000
1
.94
50
90.0000000000
41
0.7142857143
51
15.0000000000
72
0
100
AcDbText
0
TEXT
5
2C4
100
AcDbEntity
8
ZEICHNUNGSBEMASSUNGEN
100
AcDbText
62
5
6
CONTINUOUS
10
110.3301737662
20
131.6764172038
7
STANDARD
40
3.5000000000
1
[
50
90.0000000000
41
0.4285714286
51
15.0000000000
72
0
100
AcDbText
0
TEXT
5
2C5
100
AcDbEntity
8
ZEICHNUNGSBEMASSUNGEN
100
AcDbText
62
5
6
CONTINUOUS
10
110.3301737662
20
140.6764172038
7
STANDARD
40
3.5000000000
1
]
50
90.0000000000
41
0.4285714286
51
15.0000000000
72
0
100
AcDbText
0
LINE
5
2C6
100
AcDbEntity
8
ZEICHNUNGSBEMASSUNGEN
100
AcDbLine
62
2
6
CONTINUOUS
10
58.1351783518
20
143.7875768758
11
112.7360404240
21
143.7875768758
0
LINE
5
2C7
100
AcDbEntity
8
ZEICHNUNGSBEMASSUNGEN
100
AcDbLine
62
2
6
CONTINUOUS
10
77.1351783518
20
119.7875768758
11
112.7360404240
21
119.7875768758
0
LINE
5
2C8
100
AcDbEntity
8
ZEICHNUNGSBEMASSUNGEN
100
AcDbLine
62
2
6
CONTINUOUS
10
111.2360404240
20
143.7875768758
11
111.2360404240
21
131.7875768758
0
LINE
5
2C9
100
AcDbEntity
8
ZEICHNUNGSBEMASSUNGEN
100
AcDbLine
62
2
6
CONTINUOUS
10
111.2360404240
20
119.7875768758
11
111.2360404240
21
131.7875768758
0
INSERT
5
2CA
100
AcDbEntity
8
ZEICHNUNGSBEMASSUNGEN
100
AcDbBlockReference
62
2
6
CONTINUOUS
2
_FILLED
10
111.2360404240
20
143.7875768758
41
  3.500000
42
  3.500000
43
  3.500000
50
 90.000000
0
INSERT
5
2CB
100
AcDbEntity
8
ZEICHNUNGSBEMASSUNGEN
100
AcDbBlockReference
62
2
6
CONTINUOUS
2
_FILLED
10
111.2360404240
20
119.7875768758
41
  3.500000
42
  3.500000
43
  3.500000
50
270.000000
0
ENDBLK
5
2CC
100
AcDbEntity
8
0
6
BYBLOCK
62
0
100
AcDbBlockEnd
0
BLOCK
5
2CD
100
AcDbEntity
8
ZEICHNUNGSBEMASSUNGEN
100
AcDbBlockBegin
62
2
6
CONTINUOUS
2
*D5
70
65
10
0.0000000000
20
0.0000000000
3
*D5
1

0
TEXT
5
2CE
100
AcDbEntity
8
ZEICHNUNGSBEMASSUNGEN
100
AcDbText
62
5
6
CONTINUOUS
10
84.7444621895
20
219.3711689385
7
STANDARD
40
3.5000000000
1
%%c
41
1.3333333333
51
15.0000000000
72
0
100
AcDbText
0
TEXT
5
2CF
100
AcDbEntity
8
ZEICHNUNGSBEMASSUNGEN
100
AcDbText
62
5
6
CONTINUOUS
10
89.4111288562
20
219.3711689385
7
STANDARD
40
3.5000000000
1
4,2
41
0.7142857143
51
15.0000000000
72
0
100
AcDbText
0
TEXT
5
2D0
100
AcDbEntity
8
ZEICHNUNGSBEMASSUNGEN
100
AcDbText
62
5
6
CONTINUOUS
10
101.9111288562
20
219.3711689385
7
STANDARD
40
3.5000000000
1
.17
41
0.6428571429
51
15.0000000000
72
0
100
AcDbText
0
TEXT
5
2D1
100
AcDbEntity
8
ZEICHNUNGSBEMASSUNGEN
100
AcDbText
62
5
6
CONTINUOUS
10
100.4111288562
20
219.3711689385
7
STANDARD
40
3.5000000000
1
[
41
0.4285714286
51
15.0000000000
72
0
100
AcDbText
0
TEXT
5
2D2
100
AcDbEntity
8
ZEICHNUNGSBEMASSUNGEN
100
AcDbText
62
5
6
CONTINUOUS
10
108.6611288562
20
219.3711689385
7
STANDARD
40
3.5000000000
1
]
41
0.4285714286
51
15.0000000000
72
0
100
AcDbText
0
LINE
5
2D3
100
AcDbEntity
8
ZEICHNUNGSBEMASSUNGEN
100
AcDbLine
62
2
6
CONTINUOUS
10
116.6933087331
20
230.4653022807
11
116.6933087331
21
216.9653022807
0
LINE
5
2D4
100
AcDbEntity
8
ZEICHNUNGSBEMASSUNGEN
100
AcDbLine
62
2
6
CONTINUOUS
10
120.8933087331
20
230.4653022807
11
120.8933087331
21
216.9653022807
0
LINE
5
2D5
100
AcDbEntity
8
ZEICHNUNGSBEMASSUNGEN
100
AcDbLine
62
2
6
CONTINUOUS
10
116.6933087331
20
218.4653022807
11
84.7444621895
21
218.4653022807
0
LINE
5
2D6
100
AcDbEntity
8
ZEICHNUNGSBEMASSUNGEN
100
AcDbLine
62
2
6
CONTINUOUS
10
84.7444621895
20
218.4653022807
11
118.7933087331
21
218.4653022807
0
LINE
5
2D7
100
AcDbEntity
8
ZEICHNUNGSBEMASSUNGEN
100
AcDbLine
62
2
6
CONTINUOUS
10
120.8933087331
20
218.4653022807
11
126.8933087331
21
218.4653022807
0
LINE
5
2D8
100
AcDbEntity
8
ZEICHNUNGSBEMASSUNGEN
100
AcDbLine
62
2
6
CONTINUOUS
10
126.8933087331
20
218.4653022807
11
118.7933087331
21
218.4653022807
0
INSERT
5
2D9
100
AcDbEntity
8
ZEICHNUNGSBEMASSUNGEN
100
AcDbBlockReference
62
2
6
CONTINUOUS
2
_FILLED
10
116.6933087331
20
218.4653022807
41
  3.500000
42
  3.500000
43
  3.500000
0
INSERT
5
2DA
100
AcDbEntity
8
ZEICHNUNGSBEMASSUNGEN
100
AcDbBlockReference
62
2
6
CONTINUOUS
2
_FILLED
10
120.8933087331
20
218.4653022807
41
  3.500000
42
  3.500000
43
  3.500000
50
180.000000
0
ENDBLK
5
2DB
100
AcDbEntity
8
0
6
BYBLOCK
62
0
100
AcDbBlockEnd
0
BLOCK
5
2DC
100
AcDbEntity
8
ZEICHNUNGSBEMASSUNGEN
100
AcDbBlockBegin
62
2
6
CONTINUOUS
2
*D6
70
65
10
0.0000000000
20
0.0000000000
3
*D6
1

0
TEXT
5
2DD
100
AcDbEntity
8
ZEICHNUNGSBEMASSUNGEN
100
AcDbText
62
5
6
CONTINUOUS
10
124.1468461597
20
251.8712064436
7
STANDARD
40
3.5000000000
1
%%c
41
1.3333333333
51
15.0000000000
72
0
100
AcDbText
0
TEXT
5
2DE
100
AcDbEntity
8
ZEICHNUNGSBEMASSUNGEN
100
AcDbText
62
5
6
CONTINUOUS
10
128.8135128264
20
251.8712064436
7
STANDARD
40
3.5000000000
1
63,5
41
0.6964285714
51
15.0000000000
72
0
100
AcDbText
0
TEXT
5
2DF
100
AcDbEntity
8
ZEICHNUNGSBEMASSUNGEN
100
AcDbText
62
5
6
CONTINUOUS
10
143.5635128264
20
251.8712064436
7
STANDARD
40
3.5000000000
1
2.50
41
0.7142857143
51
15.0000000000
72
0
100
AcDbText
0
TEXT
5
2E0
100
AcDbEntity
8
ZEICHNUNGSBEMASSUNGEN
100
AcDbText
62
5
6
CONTINUOUS
10
142.0635128264
20
251.8712064436
7
STANDARD
40
3.5000000000
1
[
41
0.4285714286
51
15.0000000000
72
0
100
AcDbText
0
TEXT
5
2E1
100
AcDbEntity
8
ZEICHNUNGSBEMASSUNGEN
100
AcDbText
62
5
6
CONTINUOUS
10
153.5635128264
20
251.8712064436
7
STANDARD
40
3.5000000000
1
]
41
0.4285714286
51
15.0000000000
72
0
100
AcDbText
0
LINE
5
2E2
100
AcDbEntity
8
ZEICHNUNGSBEMASSUNGEN
100
AcDbLine
62
2
6
CONTINUOUS
10
110.0433087331
20
235.9653022807
11
110.0433087331
21
252.4653397858
0
LINE
5
2E3
100
AcDbEntity
8
ZEICHNUNGSBEMASSUNGEN
100
AcDbLine
62
2
6
CONTINUOUS
10
173.5433087331
20
234.4653022807
11
173.5433087331
21
252.4653397858
0
LINE
5
2E4
100
AcDbEntity
8
ZEICHNUNGSBEMASSUNGEN
100
AcDbLine
62
2
6
CONTINUOUS
10
110.0433087331
20
250.9653397858
11
141.7933087331
21
250.9653397858
0
LINE
5
2E5
100
AcDbEntity
8
ZEICHNUNGSBEMASSUNGEN
100
AcDbLine
62
2
6
CONTINUOUS
10
173.5433087331
20
250.9653397858
11
141.7933087331
21
250.9653397858
0
INSERT
5
2E6
100
AcDbEntity
8
ZEICHNUNGSBEMASSUNGEN
100
AcDbBlockReference
62
2
6
CONTINUOUS
2
_FILLED
10
110.0433087331
20
250.9653397858
41
  3.500000
42
  3.500000
43
  3.500000
50
180.000000
0
INSERT
5
2E7
100
AcDbEntity
8
ZEICHNUNGSBEMASSUNGEN
100
AcDbBlockReference
62
2
6
CONTINUOUS
2
_FILLED
10
173.5433087331
20
250.9653397858
41
  3.500000
42
  3.500000
43
  3.500000
0
ENDBLK
5
2E8
100
AcDbEntity
8
0
6
BYBLOCK
62
0
100
AcDbBlockEnd
0
BLOCK
5
2E9
100
AcDbEntity
8
ZEICHNUNGSBEMASSUNGEN
100
AcDbBlockBegin
62
2
6
CONTINUOUS
2
*D7
70
65
10
0.0000000000
20
0.0000000000
3
*D7
1

0
TEXT
5
2EA
100
AcDbEntity
8
ZEICHNUNGSBEMASSUNGEN
100
AcDbText
62
5
6
CONTINUOUS
10
22.9896608056
20
244.9887761629
7
STANDARD
40
3.5000000000
1
8,5
50
90.0000000000
41
0.6904761905
51
15.0000000000
72
0
100
AcDbText
0
TEXT
5
2EB
100
AcDbEntity
8
ZEICHNUNGSBEMASSUNGEN
100
AcDbText
62
5
6
CONTINUOUS
10
22.9896608056
20
257.2387761629
7
STANDARD
40
3.5000000000
1
.33
50
90.0000000000
41
0.6666666667
51
15.0000000000
72
0
100
AcDbText
0
TEXT
5
2EC
100
AcDbEntity
8
ZEICHNUNGSBEMASSUNGEN
100
AcDbText
62
5
6
CONTINUOUS
10
22.9896608056
20
255.7387761629
7
STANDARD
40
3.5000000000
1
[
50
90.0000000000
41
0.4285714286
51
15.0000000000
72
0
100
AcDbText
0
TEXT
5
2ED
100
AcDbEntity
8
ZEICHNUNGSBEMASSUNGEN
100
AcDbText
62
5
6
CONTINUOUS
10
22.9896608056
20
264.2387761629
7
STANDARD
40
3.5000000000
1
]
50
90.0000000000
41
0.4285714286
51
15.0000000000
72
0
100
AcDbText
0
LINE
5
2EE
100
AcDbEntity
8
ZEICHNUNGSBEMASSUNGEN
100
AcDbLine
62
2
6
CONTINUOUS
10
35.8851783518
20
230.4653022807
11
22.3955274635
21
230.4653022807
0
LINE
5
2EF
100
AcDbEntity
8
ZEICHNUNGSBEMASSUNGEN
100
AcDbLine
62
2
6
CONTINUOUS
10
38.8851783518
20
238.9653022807
11
22.3955274635
21
238.9653022807
0
LINE
5
2F0
100
AcDbEntity
8
ZEICHNUNGSBEMASSUNGEN
100
AcDbLine
62
2
6
CONTINUOUS
10
23.8955274635
20
230.4653022807
11
23.8955274635
21
224.4653022807
0
LINE
5
2F1
100
AcDbEntity
8
ZEICHNUNGSBEMASSUNGEN
100
AcDbLine
62
2
6
CONTINUOUS
10
23.8955274635
20
224.4653022807
11
23.8955274635
21
234.7153022807
0
LINE
5
2F2
100
AcDbEntity
8
ZEICHNUNGSBEMASSUNGEN
100
AcDbLine
62
2
6
CONTINUOUS
10
23.8955274635
20
238.9653022807
11
23.8955274635
21
265.7387761629
0
LINE
5
2F3
100
AcDbEntity
8
ZEICHNUNGSBEMASSUNGEN
100
AcDbLine
62
2
6
CONTINUOUS
10
23.8955274635
20
265.7387761629
11
23.8955274635
21
234.7153022807
0
INSERT
5
2F4
100
AcDbEntity
8
ZEICHNUNGSBEMASSUNGEN
100
AcDbBlockReference
62
2
6
CONTINUOUS
2
_FILLED
10
23.8955274635
20
230.4653022807
41
  3.500000
42
  3.500000
43
  3.500000
50
 90.000000
0
INSERT
5
2F5
100
AcDbEntity
8
ZEICHNUNGSBEMASSUNGEN
100
AcDbBlockReference
62
2
6
CONTINUOUS
2
_FILLED
10
23.8955274635
20
238.9653022807
41
  3.500000
42
  3.500000
43
  3.500000
50
270.000000
0
ENDBLK
5
2F6
100
AcDbEntity
8
0
6
BYBLOCK
62
0
100
AcDbBlockEnd
0
BLOCK
5
2F7
100
AcDbEntity
8
0
100
AcDbBlockBegin
62
2
6
CONTINUOUS
2
*D8
70
65
10
0.0000000000
20
0.0000000000
3
*D8
1

0
TEXT
5
2F8
100
AcDbEntity
8
0
100
AcDbText
62
5
6
CONTINUOUS
10
160.5309433740
20
219.3711689385
7
STANDARD
40
3.5000000000
1
M
41
0.8571428571
51
15.0000000000
72
0
100
AcDbText
0
TEXT
5
2F9
100
AcDbEntity
8
0
100
AcDbText
62
5
6
CONTINUOUS
10
163.5309433740
20
219.3711689385
7
STANDARD
40
3.5000000000
1
3
41
0.7142857143
51
15.0000000000
72
0
100
AcDbText
0
TEXT
5
2FA
100
AcDbEntity
8
0
100
AcDbText
62
5
6
CONTINUOUS
10
171.0309433740
20
219.3711689385
7
STANDARD
40
3.5000000000
1
.12
41
0.6428571429
51
15.0000000000
72
0
100
AcDbText
0
TEXT
5
2FB
100
AcDbEntity
8
0
100
AcDbText
62
5
6
CONTINUOUS
10
169.5309433740
20
219.3711689385
7
STANDARD
40
3.5000000000
1
[
41
0.4285714286
51
15.0000000000
72
0
100
AcDbText
0
TEXT
5
2FC
100
AcDbEntity
8
0
100
AcDbText
62
5
6
CONTINUOUS
10
177.7809433740
20
219.3711689385
7
STANDARD
40
3.5000000000
1
]
41
0.4285714286
51
15.0000000000
72
0
100
AcDbText
0
LINE
5
2FD
100
AcDbEntity
8
0
100
AcDbLine
62
2
6
CONTINUOUS
10
155.2933087331
20
230.4653022807
11
155.2933087331
21
216.9653022807
0
LINE
5
2FE
100
AcDbEntity
8
0
100
AcDbLine
62
2
6
CONTINUOUS
10
152.2933087331
20
230.4653022807
11
152.2933087331
21
216.9653022807
0
LINE
5
2FF
100
AcDbEntity
8
0
100
AcDbLine
62
2
6
CONTINUOUS
10
155.2933087331
20
218.4653022807
11
179.2809433740
21
218.4653022807
0
LINE
5
300
100
AcDbEntity
8
0
100
AcDbLine
62
2
6
CONTINUOUS
10
179.2809433740
20
218.4653022807
11
153.7933087331
21
218.4653022807
0
LINE
5
301
100
AcDbEntity
8
0
100
AcDbLine
62
2
6
CONTINUOUS
10
152.2933087331
20
218.4653022807
11
146.2933087331
21
218.4653022807
0
LINE
5
302
100
AcDbEntity
8
0
100
AcDbLine
62
2
6
CONTINUOUS
10
146.2933087331
20
218.4653022807
11
153.7933087331
21
218.4653022807
0
INSERT
5
303
100
AcDbEntity
8
0
100
AcDbBlockReference
62
2
6
CONTINUOUS
2
_FILLED
10
155.2933087331
20
218.4653022807
41
  3.500000
42
  3.500000
43
  3.500000
50
180.000000
0
INSERT
5
304
100
AcDbEntity
8
0
100
AcDbBlockReference
62
2
6
CONTINUOUS
2
_FILLED
10
152.2933087331
20
218.4653022807
41
  3.500000
42
  3.500000
43
  3.500000
0
ENDBLK
5
305
100
AcDbEntity
8
0
6
BYBLOCK
62
0
100
AcDbBlockEnd
0
BLOCK
5
306
100
AcDbEntity
8
0
100
AcDbBlockBegin
2
_FILLED
70
64
10
0.0000000000
20
0.0000000000
3
_FILLED
1

0
SOLID
5
307
100
AcDbEntity
8
0
6
BYBLOCK
62
0
100
AcDbTrace
10
0.0000000000
20
0.0000000000
11
-1.0000000000
21
0.1250000000
12
-1.0000000000
22
-0.1250000000
13
-1.0000000000
23
-0.1250000000
0
ENDBLK
5
308
100
AcDbEntity
8
0
6
BYBLOCK
62
0
100
AcDbBlockEnd
0
ENDSEC
0
SECTION
2
ENTITIES
0
TEXT
5
309
100
AcDbEntity
8
0
100
AcDbText
62
4
6
CONTINUOUS
10
126.0467415329
20
8.0442136272
7
STANDARD
40
2.4300000000
1
FL-9494 SCHAAN
41
0.7789115646
51
15.0000000000
72
0
100
AcDbText
0
INSERT
5
30A
100
AcDbEntity
8
0
100
AcDbBlockReference
62
2
6
CONTINUOUS
2
NEUTRIK_LOGO_BL0
10
98.0245925022
20
9.2066660654
0
SOLID
5
30B
100
AcDbEntity
8
0
100
AcDbTrace
62
7
6
CONTINUOUS
10
67.6351783518
20
76.0375768758
11
57.6351783518
21
74.5375768758
12
57.6351783518
22
77.5375768758
13
57.6351783518
23
77.5375768758
0
TEXT
5
30C
100
AcDbEntity
8
0
100
AcDbText
62
7
6
CONTINUOUS
10
51.6854012417
20
68.5375768758
7
STANDARD
40
5.0000000000
1
A
41
0.8571428571
72
0
100
AcDbText
0
SOLID
5
30D
100
AcDbEntity
8
0
100
AcDbTrace
62
7
6
CONTINUOUS
10
67.6351783518
20
187.5375768758
11
57.6351783518
21
186.0375768758
12
57.6351783518
22
189.0375768758
13
57.6351783518
23
189.0375768758
0
TEXT
5
30E
100
AcDbEntity
8
0
100
AcDbText
62
7
6
CONTINUOUS
10
51.6854012417
20
190.0375768758
7
STANDARD
40
5.0000000000
1
A
41
0.8571428571
72
0
100
AcDbText
0
DIMENSION
5
30F
100
AcDbEntity
8
ZEICHNUNGSBEMASSUNGEN
100
AcDbDimension
62
2
6
CONTINUOUS
2
*D0
10
51.4179183933
20
148.0970980042
11
28.0233654967
21
175.3914059837
70
163
1
<>
3
DIMSTYLE_1
100
AcDbDiametricDimension
15
83.8524383103
25
115.4780557473
0
DIMENSION
5
310
100
AcDbEntity
8
ZEICHNUNGSBEMASSUNGEN
100
AcDbDimension
62
2
6
CONTINUOUS
2
*D1
10
67.6351783518
20
88.0375768758
11
86.3781032181
21
90.6934435336
70
160
3
DIMSTYLE_2
100
AcDbAlignedDimension
13
47.7165940647
23
115.1875768758
14
67.6351783518
24
97.0375768758
100
AcDbRotatedDimension
0
DIMENSION
5
311
100
AcDbEntity
8
ZEICHNUNGSBEMASSUNGEN
100
AcDbDimension
62
2
6
CONTINUOUS
2
*D2
10
23.8955274635
20
120.2875768758
11
21.2396608056
21
146.5815169414
70
160
3
DIMSTYLE_2
100
AcDbAlignedDimension
13
32.8851783518
23
131.7875768758
14
42.6165940647
24
120.2875768758
50
270.000000
100
AcDbRotatedDimension
0
DIMENSION
5
312
100
AcDbEntity
8
ZEICHNUNGSBEMASSUNGEN
100
AcDbDimension
62
2
6
CONTINUOUS
2
*D3
10
58.1351783518
20
175.5375768758
11
90.3090402515
21
178.1934435336
70
160
3
DIMSTYLE_2
100
AcDbAlignedDimension
13
77.1351783518
23
124.0375768758
14
58.1351783518
24
148.0375768758
50
180.000000
100
AcDbRotatedDimension
0
DIMENSION
5
313
100
AcDbEntity
8
ZEICHNUNGSBEMASSUNGEN
100
AcDbDimension
62
2
6
CONTINUOUS
2
*D4
10
111.2360404240
20
119.7875768758
11
108.5801737662
21
132.4264172038
70
160
3
DIMSTYLE_2
100
AcDbAlignedDimension
13
58.1351783518
23
143.7875768758
14
77.1351783518
24
119.7875768758
50
270.000000
100
AcDbRotatedDimension
0
DIMENSION
5
314
100
AcDbEntity
8
ZEICHNUNGSBEMASSUNGEN
100
AcDbDimension
62
2
6
CONTINUOUS
2
*D5
10
120.8933087331
20
218.4653022807
11
97.4527955229
21
221.1211689385
70
160
1
%%c<>
3
DIMSTYLE_3
100
AcDbAlignedDimension
13
116.6933087331
23
230.4653022807
14
120.8933087331
24
230.4653022807
100
AcDbRotatedDimension
0
DIMENSION
5
315
100
AcDbEntity
8
ZEICHNUNGSBEMASSUNGEN
100
AcDbDimension
62
2
6
CONTINUOUS
2
*D6
10
173.5433087331
20
250.9653397858
11
139.6051794931
21
253.6212064436
70
160
1
%%c<>
3
DIMSTYLE_4
100
AcDbAlignedDimension
13
110.0433087331
23
235.9653022807
14
173.5433087331
24
234.4653022807
100
AcDbRotatedDimension
0
DIMENSION
5
316
100
AcDbEntity
8
ZEICHNUNGSBEMASSUNGEN
100
AcDbDimension
62
2
6
CONTINUOUS
2
*D7
10
23.8955274635
20
238.9653022807
11
21.2396608056
21
255.3637761629
70
160
3
DIMSTYLE_2
100
AcDbAlignedDimension
13
35.8851783518
23
230.4653022807
14
38.8851783518
24
238.9653022807
50
90.000000
100
AcDbRotatedDimension
0
DIMENSION
5
317
100
AcDbEntity
8
0
100
AcDbDimension
62
2
6
CONTINUOUS
2
*D8
10
152.2933087331
20
218.4653022807
11
169.9059433740
21
221.1211689385
70
160
1
M<>
3
DIMSTYLE_3
100
AcDbAlignedDimension
13
155.2933087331
23
230.4653022807
14
152.2933087331
24
230.4653022807
50
180.000000
100
AcDbRotatedDimension
0
LINE
5
318
100
AcDbEntity
8
0
100
AcDbLine
62
7
6
CONTINUOUS
10
72.0000000000
20
51.0000000000
11
205.0000000000
21
51.0000000000
0
LINE
5
319
100
AcDbEntity
8
0
100
AcDbLine
62
7
6
CONTINUOUS
10
72.0000000000
20
51.0000000000
11
72.0000000000
21
5.0000000000
0
LINE
5
31A
100
AcDbEntity
8
0
100
AcDbLine
62
7
6
CONTINUOUS
10
154.0000000000
20
46.0000000000
11
205.0000000000
21
46.0000000000
0
LINE
5
31B
100
AcDbEntity
8
0
100
AcDbLine
62
7
6
CONTINUOUS
10
72.0000000000
20
41.0000000000
11
113.0000000000
21
41.0000000000
0
LINE
5
31C
100
AcDbEntity
8
0
100
AcDbLine
62
7
6
CONTINUOUS
10
154.0000000000
20
41.0000000000
11
205.0000000000
21
41.0000000000
0
LINE
5
31D
100
AcDbEntity
8
0
100
AcDbLine
62
7
6
CONTINUOUS
10
154.0000000000
20
36.0000000000
11
205.0000000000
21
36.0000000000
0
LINE
5
31E
100
AcDbEntity
8
0
100
AcDbLine
62
7
6
CONTINUOUS
10
72.0000000000
20
31.0000000000
11
205.0000000000
21
31.0000000000
0
LINE
5
31F
100
AcDbEntity
8
0
100
AcDbLine
62
7
6
CONTINUOUS
10
154.0000000000
20
23.0000000000
11
205.0000000000
21
23.0000000000
0
LINE
5
320
100
AcDbEntity
8
0
100
AcDbLine
62
7
6
CONTINUOUS
10
72.0000000000
20
14.0000000000
11
205.0000000000
21
14.0000000000
0
LINE
5
321
100
AcDbEntity
8
0
100
AcDbLine
62
7
6
CONTINUOUS
10
72.0000000000
20
5.0000000000
11
205.0000000000
21
5.0000000000
0
LINE
5
322
100
AcDbEntity
8
0
100
AcDbLine
62
7
6
CONTINUOUS
10
113.0000000000
20
51.0000000000
11
113.0000000000
21
31.0000000000
0
LINE
5
323
100
AcDbEntity
8
0
100
AcDbLine
62
7
6
CONTINUOUS
10
136.0000000000
20
51.0000000000
11
136.0000000000
21
31.0000000000
0
LINE
5
324
100
AcDbEntity
8
0
100
AcDbLine
62
7
6
CONTINUOUS
10
154.0000000000
20
51.0000000000
11
154.0000000000
21
5.0000000000
0
LINE
5
325
100
AcDbEntity
8
0
100
AcDbLine
62
7
6
CONTINUOUS
10
173.0000000000
20
51.0000000000
11
173.0000000000
21
31.0000000000
0
LINE
5
326
100
AcDbEntity
8
0
100
AcDbLine
62
7
6
CONTINUOUS
10
188.0000000000
20
51.0000000000
11
188.0000000000
21
14.0000000000
0
LINE
5
327
100
AcDbEntity
8
0
100
AcDbLine
62
7
6
CONTINUOUS
10
205.0000000000
20
51.0000000000
11
205.0000000000
21
5.0000000000
0
TEXT
5
328
100
AcDbEntity
8
0
100
AcDbText
62
5
6
CONTINUOUS
10
72.0625000000
20
46.4658742812
7
STANDARD
40
1.8000000000
1
 Allgemeintoleranzen
41
0.6833333333
51
15.0000000000
72
0
100
AcDbText
0
TEXT
5
329
100
AcDbEntity
8
0
100
AcDbText
62
5
6
CONTINUOUS
10
72.0625000000
20
43.6706285941
7
STANDARD
40
1.8000000000
1
 ISO 2768-m
41
0.7792207792
51
15.0000000000
72
0
100
AcDbText
0
TEXT
5
32A
100
AcDbEntity
8
0
100
AcDbText
62
5
6
CONTINUOUS
10
117.9285714286
20
47.4647238196
7
STANDARD
40
2.0000000000
1
Werkstoff
41
0.7301587302
51
15.0000000000
72
1
11
124.5000000000
21
47.4647238196
100
AcDbText
0
TEXT
5
32B
100
AcDbEntity
8
0
100
AcDbText
62
5
6
CONTINUOUS
10
138.9285714286
20
47.4647238196
7
STANDARD
40
2.0000000000
1
Massstab:
41
0.6746031746
51
15.0000000000
72
1
11
145.0000000000
21
47.4647238196
100
AcDbText
0
TEXT
5
32C
100
AcDbEntity
8
0
100
AcDbText
62
5
6
CONTINUOUS
10
176.6666666667
20
47.4647238196
7
STANDARD
40
2.0000000000
1
Datum
41
0.7666666667
51
15.0000000000
72
1
11
180.5000000000
21
47.4647238196
100
AcDbText
0
TEXT
5
32D
100
AcDbEntity
8
0
100
AcDbText
62
5
6
CONTINUOUS
10
193.3571428571
20
47.4647238196
7
STANDARD
40
2.0000000000
1
Name
41
0.7857142857
51
15.0000000000
72
1
11
196.5000000000
21
47.4647238196
100
AcDbText
0
TEXT
5
32E
100
AcDbEntity
8
0
100
AcDbText
62
5
6
CONTINUOUS
10
154.0625000000
20
42.4647238196
7
STANDARD
40
2.0000000000
1
 Gezeichnet
41
0.6904761905
51
15.0000000000
72
0
100
AcDbText
0
TEXT
5
32F
100
AcDbEntity
8
0
100
AcDbText
62
5
6
CONTINUOUS
10
174.9285714286
20
42.4647238196
7
STANDARD
40
2.0000000000
1
13.04.06
41
0.6964285714
51
15.0000000000
72
1
11
180.5000000000
21
42.4647238196
100
AcDbText
0
TEXT
5
330
100
AcDbEntity
8
0
100
AcDbText
62
5
6
CONTINUOUS
10
192.5000000000
20
42.4647238196
7
STANDARD
40
2.0000000000
1
jutz b
41
0.6666666667
51
15.0000000000
72
1
11
196.5000000000
21
42.4647238196
100
AcDbText
0
TEXT
5
331
100
AcDbEntity
8
0
100
AcDbText
62
5
6
CONTINUOUS
10
72.0625000000
20
36.4658742812
7
STANDARD
40
1.8000000000
1
 Zeichnung urheberrechtlich
41
0.6790123457
51
15.0000000000
72
0
100
AcDbText
0
TEXT
5
332
100
AcDbEntity
8
0
100
AcDbText
62
5
6
CONTINUOUS
10
72.0625000000
20
33.6706285941
7
STANDARD
40
1.8000000000
1
 geschuetzt (DIN 34) (C)
41
0.6795634921
51
15.0000000000
72
0
100
AcDbText
0
TEXT
5
333
100
AcDbEntity
8
0
100
AcDbText
62
5
6
CONTINUOUS
10
122.2142857143
20
37.4647238196
7
STANDARD
40
2.0000000000
1
ALU
41
0.7619047619
51
15.0000000000
72
1
11
124.5000000000
21
37.4647238196
100
AcDbText
0
TEXT
5
334
100
AcDbEntity
8
0
100
AcDbText
62
5
6
CONTINUOUS
10
142.3750000000
20
37.2984083686
7
STANDARD
40
3.5000000000
1
1:1
41
0.5000000000
51
15.0000000000
72
1
11
145.0000000000
21
37.2984083686
100
AcDbText
0
TEXT
5
335
100
AcDbEntity
8
0
100
AcDbText
62
5
6
CONTINUOUS
10
154.0625000000
20
37.4647238196
7
STANDARD
40
2.0000000000
1
 Freigegeben
41
0.6984126984
51
15.0000000000
72
0
100
AcDbText
0
TEXT
5
336
100
AcDbEntity
8
0
100
AcDbText
62
5
6
CONTINUOUS
10
179.7857142857
20
37.4647238196
7
STANDARD
40
2.0000000000
1
-
41
0.7142857143
51
15.0000000000
72
1
11
180.5000000000
21
37.4647238196
100
AcDbText
0
TEXT
5
337
100
AcDbEntity
8
0
100
AcDbText
62
5
6
CONTINUOUS
10
195.7857142857
20
37.4647238196
7
STANDARD
40
2.0000000000
1
-
41
0.7142857143
51
15.0000000000
72
1
11
196.5000000000
21
37.4647238196
100
AcDbText
0
TEXT
5
338
100
AcDbEntity
8
0
100
AcDbText
62
5
6
CONTINUOUS
10
113.5476190476
20
32.4647238196
7
STANDARD
40
2.0000000000
1
schwarz lackiert
41
0.6845238095
51
15.0000000000
72
1
11
124.5000000000
21
32.4647238196
100
AcDbText
0
TEXT
5
339
100
AcDbEntity
8
0
100
AcDbText
62
5
6
CONTINUOUS
10
142.5000000000
20
32.4647238196
7
STANDARD
40
2.0000000000
1
(
41
0.4285714286
72
1
11
142.9285714286
21
32.4647238196
100
AcDbText
0
TEXT
5
33A
100
AcDbEntity
8
0
100
AcDbText
62
5
6
CONTINUOUS
10
143.3571428571
20
32.4647238196
7
STANDARD
40
2.0000000000
1
A4
41
0.8214285714
51
15.0000000000
72
1
11
145.0000000000
21
32.4647238196
100
AcDbText
0
TEXT
5
33B
100
AcDbEntity
8
0
100
AcDbText
62
5
6
CONTINUOUS
10
146.6428571429
20
32.4647238196
7
STANDARD
40
2.0000000000
1
)
41
0.4285714286
72
1
11
147.0714285714
21
32.4647238196
100
AcDbText
0
TEXT
5
33C
100
AcDbEntity
8
0
100
AcDbText
62
5
6
CONTINUOUS
10
154.0625000000
20
32.4647238196
7
STANDARD
40
2.0000000000
1
 Geaendert
41
0.7071428571
51
15.0000000000
72
0
100
AcDbText
0
TEXT
5
33D
100
AcDbEntity
8
0
100
AcDbText
62
5
6
CONTINUOUS
10
179.7857142857
20
32.4647238196
7
STANDARD
40
2.0000000000
1
-
41
0.7142857143
51
15.0000000000
72
1
11
180.5000000000
21
32.4647238196
100
AcDbText
0
TEXT
5
33E
100
AcDbEntity
8
0
100
AcDbText
62
5
6
CONTINUOUS
10
195.7857142857
20
32.4647238196
7
STANDARD
40
2.0000000000
1
-
41
0.7142857143
51
15.0000000000
72
1
11
196.5000000000
21
32.4647238196
100
AcDbText
0
TEXT
5
33F
100
AcDbEntity
8
0
100
AcDbText
62
5
6
CONTINUOUS
10
72.0625000000
20
28.0781250000
7
STANDARD
40
2.0000000000
1
 Benennung
41
0.7285714286
51
15.0000000000
72
0
100
AcDbText
0
TEXT
5
340
100
AcDbEntity
8
0
100
AcDbText
62
5
6
CONTINUOUS
10
154.0625000000
20
28.0352761804
7
STANDARD
40
2.0000000000
1
 Aend.-Nr.
41
0.7071428571
51
15.0000000000
72
0
100
AcDbText
0
TEXT
5
341
100
AcDbEntity
8
0
100
AcDbText
62
5
6
CONTINUOUS
10
154.0625000000
20
23.8941714588
7
STANDARD
40
2.0000000000
1
 
41
0.7857142857
51
15.0000000000
72
0
100
AcDbText
0
TEXT
5
342
100
AcDbEntity
8
0
100
AcDbText
62
5
6
CONTINUOUS
10
155.6339285714
20
23.8941714588
7
STANDARD
40
2.0000000000
1
-
41
0.7142857143
51
15.0000000000
72
0
100
AcDbText
0
TEXT
5
343
100
AcDbEntity
8
0
100
AcDbText
62
5
6
CONTINUOUS
10
188.7142857143
20
28.1646857030
7
STANDARD
40
2.0000000000
1
Aend.-Index
41
0.7077922078
51
15.0000000000
72
1
11
196.5000000000
21
28.1646857030
100
AcDbText
0
TEXT
5
344
100
AcDbEntity
8
0
100
AcDbText
62
5
6
CONTINUOUS
10
195.4285714286
20
23.7647619362
7
STANDARD
40
3.0000000000
1
-
41
0.7142857143
51
15.0000000000
72
1
11
196.5000000000
21
23.7647619362
100
AcDbText
0
TEXT
5
345
100
AcDbEntity
8
0
100
AcDbText
62
5
6
CONTINUOUS
10
107.7916666667
20
23.6882666843
7
STANDARD
40
3.5000000000
1
FDR1
41
0.7440476190
51
15.0000000000
72
1
11
113.0000000000
21
23.6882666843
100
AcDbText
0
TEXT
5
346
100
AcDbEntity
8
0
100
AcDbText
62
5
6
CONTINUOUS
10
86.0000000000
20
15.9118095490
7
STANDARD
40
5.0000000000
1
Montage Flansch
41
0.7000000000
51
15.0000000000
72
1
11
112.2500000000
21
15.9118095490
100
AcDbText
0
TEXT
5
347
100
AcDbEntity
8
0
100
AcDbText
62
5
6
CONTINUOUS
10
154.0625000000
20
17.4647238196
7
STANDARD
40
2.0000000000
1
 Ersatz fuer:
41
0.6648351648
51
15.0000000000
72
0
100
AcDbText
0
TEXT
5
348
100
AcDbEntity
8
0
100
AcDbText
62
5
6
CONTINUOUS
10
192.0000000000
20
19.5352761804
7
STANDARD
40
2.0000000000
1
Blatt 
41
0.6547619048
51
15.0000000000
72
1
11
195.9285714286
21
19.5352761804
100
AcDbText
0
TEXT
5
349
100
AcDbEntity
8
0
100
AcDbText
62
5
6
CONTINUOUS
10
199.8571428571
20
19.5352761804
7
STANDARD
40
2.0000000000
1
1
41
0.5714285714
51
15.0000000000
72
1
11
200.4285714286
21
19.5352761804
100
AcDbText
0
TEXT
5
34A
100
AcDbEntity
8
0
100
AcDbText
62
5
6
CONTINUOUS
10
190.3571428571
20
15.3941714588
7
STANDARD
40
2.0000000000
1
von 
41
0.7321428571
51
15.0000000000
72
1
11
193.2857142857
21
15.3941714588
100
AcDbText
0
TEXT
5
34B
100
AcDbEntity
8
0
100
AcDbText
62
5
6
CONTINUOUS
10
196.2142857143
20
15.3941714588
7
STANDARD
40
2.0000000000
1
1
41
0.5714285714
51
15.0000000000
72
1
11
196.7857142857
21
15.3941714588
100
AcDbText
0
TEXT
5
34C
100
AcDbEntity
8
0
100
AcDbText
62
5
6
CONTINUOUS
10
197.3571428571
20
15.3941714588
7
STANDARD
40
2.0000000000
1
 Bl.
41
0.6607142857
51
15.0000000000
72
1
11
200.0000000000
21
15.3941714588
100
AcDbText
0
TEXT
5
34D
100
AcDbEntity
8
0
100
AcDbText
62
5
6
CONTINUOUS
10
154.0625000000
20
11.4647238196
7
STANDARD
40
2.0000000000
1
 Zeichn. Nr.
41
0.6865079365
51
15.0000000000
72
0
100
AcDbText
0
TEXT
5
34E
100
AcDbEntity
8
0
100
AcDbText
62
5
6
CONTINUOUS
10
171.1666666667
20
6.1882666843
7
STANDARD
40
3.5000000000
1
ST-FDR1
41
0.7619047619
51
15.0000000000
72
1
11
180.5000000000
21
6.1882666843
100
AcDbText
0
TEXT
5
34F
100
AcDbEntity
8
0
100
AcDbText
62
5
6
CONTINUOUS
10
137.4636654367
20
273.6168043266
7
STANDARD
40
5.0000000000
1
A-A
41
0.8095238095
51
15.0000000000
72
0
100
AcDbText
0
LINE
5
350
100
AcDbEntity
8
0
100
AcDbLine
62
7
6
CONTINUOUS
10
0.0000000000
20
0.0000000000
11
210.0000000000
21
0.0000000000
0
LINE
5
351
100
AcDbEntity
8
0
100
AcDbLine
62
7
6
CONTINUOUS
10
5.0000000000
20
5.0000000000
11
205.0000000000
21
5.0000000000
0
LINE
5
352
100
AcDbEntity
8
0
100
AcDbLine
62
7
6
CONTINUOUS
10
0.0000000000
20
0.0000000000
11
0.0000000000
21
297.0000000000
0
LINE
5
353
100
AcDbEntity
8
0
100
AcDbLine
62
7
6
CONTINUOUS
10
5.0000000000
20
5.0000000000
11
5.0000000000
21
292.0000000000
0
LINE
5
354
100
AcDbEntity
8
0
100
AcDbLine
62
7
6
CONTINUOUS
10
205.0000000000
20
5.0000000000
11
205.0000000000
21
292.0000000000
0
LINE
5
355
100
AcDbEntity
8
0
100
AcDbLine
62
7
6
CONTINUOUS
10
210.0000000000
20
0.0000000000
11
210.0000000000
21
297.0000000000
0
LINE
5
356
100
AcDbEntity
8
0
100
AcDbLine
62
7
6
CONTINUOUS
10
5.0000000000
20
292.0000000000
11
205.0000000000
21
292.0000000000
0
LINE
5
357
100
AcDbEntity
8
0
100
AcDbLine
62
7
6
CONTINUOUS
10
0.0000000000
20
297.0000000000
11
210.0000000000
21
297.0000000000
0
LINE
5
358
100
AcDbEntity
8
0
100
AcDbLine
62
7
6
CONTINUOUS
10
67.6351783518
20
76.0375768758
11
49.7211155274
21
76.0375768758
0
LINE
5
359
100
AcDbEntity
8
DEFAULT_1
100
AcDbLine
62
7
6
CENTER
10
47.7165940647
20
120.2875768758
11
47.7165940647
21
115.1875768758
0
LINE
5
35A
100
AcDbEntity
8
DEFAULT_1
100
AcDbLine
62
7
6
CENTER
10
47.7165940647
20
120.2875768758
11
47.7165940647
21
125.3875768758
0
LINE
5
35B
100
AcDbEntity
8
0
100
AcDbLine
62
7
6
CENTER
10
77.1351783518
20
113.5070570599
11
67.6351783518
21
113.5070570599
0
LINE
5
35C
100
AcDbEntity
8
DEFAULT_1
100
AcDbLine
62
7
6
CENTER
10
77.1351783518
20
119.7875768758
11
72.8851783518
21
119.7875768758
0
LINE
5
35D
100
AcDbEntity
8
DEFAULT_1
100
AcDbLine
62
7
6
CENTER
10
77.1351783518
20
119.7875768758
11
81.3851783518
21
119.7875768758
0
LINE
5
35E
100
AcDbEntity
8
DEFAULT_1
100
AcDbLine
62
7
6
CENTER
10
58.1351783518
20
143.7875768758
11
58.1351783518
21
139.5375768758
0
LINE
5
35F
100
AcDbEntity
8
DEFAULT_1
100
AcDbLine
62
7
6
CENTER
10
58.1351783518
20
143.7875768758
11
58.1351783518
21
148.0375768758
0
LINE
5
360
100
AcDbEntity
8
DEFAULT_1
100
AcDbLine
62
7
6
CENTER
10
87.5537626388
20
120.2875768758
11
82.4537626388
21
120.2875768758
0
LINE
5
361
100
AcDbEntity
8
DEFAULT_1
100
AcDbLine
62
7
6
CENTER
10
47.7165940647
20
120.2875768758
11
42.6165940647
21
120.2875768758
0
LINE
5
362
100
AcDbEntity
8
DEFAULT_1
100
AcDbLine
62
7
6
CENTER
10
47.7165940647
20
120.2875768758
11
52.8165940647
21
120.2875768758
0
LINE
5
363
100
AcDbEntity
8
DEFAULT_1
100
AcDbLine
62
7
6
CENTER
10
87.5537626388
20
120.2875768758
11
92.6537626388
21
120.2875768758
0
LINE
5
364
100
AcDbEntity
8
DEFAULT_2
100
AcDbLine
62
8
6
HIDDEN
10
63.6351783518
20
100.2905532069
11
63.6351783518
21
120.4738683768
0
LINE
5
365
100
AcDbEntity
8
DEFAULT_1
100
AcDbLine
62
7
6
CENTER
10
67.6351783518
20
154.7875768758
11
67.6351783518
21
149.6875768758
0
LINE
5
366
100
AcDbEntity
8
DEFAULT_1
100
AcDbLine
62
7
6
CENTER
10
67.6351783518
20
131.7875768758
11
67.6351783518
21
113.5070570599
0
LINE
5
367
100
AcDbEntity
8
DEFAULT_1
100
AcDbLine
62
7
6
CENTER
10
67.6351783518
20
98.6026253859
11
67.6351783518
21
97.0375768758
0
LINE
5
368
100
AcDbEntity
8
0
100
AcDbLine
62
7
6
CENTER
10
67.6351783518
20
76.0375768758
11
67.6351783518
21
90.9420085497
0
LINE
5
369
100
AcDbEntity
8
0
100
AcDbLine
62
9
6
CENTER
10
67.6351783518
20
90.9420085497
11
67.6351783518
21
97.0375768758
0
LINE
5
36A
100
AcDbEntity
8
0
100
AcDbLine
62
7
6
CENTER
10
67.6351783518
20
98.6026253859
11
67.6351783518
21
113.5070570599
0
LINE
5
36B
100
AcDbEntity
8
0
100
AcDbLine
62
7
6
CENTER
10
67.6351783518
20
131.7875768758
11
67.6351783518
21
146.7441800803
0
LINE
5
36C
100
AcDbEntity
8
DEFAULT_1
100
AcDbLine
62
7
6
CENTER
10
67.6351783518
20
154.7875768758
11
67.6351783518
21
159.8875768758
0
LINE
5
36D
100
AcDbEntity
8
DEFAULT_1
100
AcDbLine
62
7
6
CENTER
10
67.6351783518
20
146.7441800803
11
67.6351783518
21
149.6875768758
0
LINE
5
36E
100
AcDbEntity
8
DEFAULT_1
100
AcDbLine
62
7
6
CENTER
10
67.6351783518
20
159.8875768758
11
67.6351783518
21
166.5375768758
0
LINE
5
36F
100
AcDbEntity
8
0
100
AcDbLine
62
9
6
CENTER
10
67.6351783518
20
166.5375768758
11
67.6351783518
21
172.5809736712
0
LINE
5
370
100
AcDbEntity
8
0
100
AcDbLine
62
7
6
CENTER
10
67.6351783518
20
172.5809736712
11
67.6351783518
21
187.5375768758
0
LINE
5
371
100
AcDbEntity
8
DEFAULT_1
100
AcDbLine
62
7
6
CENTER
10
67.6351783518
20
131.7875768758
11
32.8851783518
21
131.7875768758
0
LINE
5
372
100
AcDbEntity
8
0
100
AcDbLine
62
7
6
CENTER
10
67.6351783518
20
131.7875768758
11
77.1351783518
21
131.7875768758
0
LINE
5
373
100
AcDbEntity
8
DEFAULT_1
100
AcDbLine
62
7
6
CENTER
10
77.1351783518
20
131.7875768758
11
102.3851783518
21
131.7875768758
0
LINE
5
374
100
AcDbEntity
8
DEFAULT_2
100
AcDbLine
62
8
6
HIDDEN
10
71.6351783518
20
100.2905532069
11
71.6351783518
21
120.4738683768
0
LINE
5
375
100
AcDbEntity
8
0
100
AcDbLine
62
7
6
CENTER
10
77.1351783518
20
131.7875768758
11
77.1351783518
21
113.5070570599
0
LINE
5
376
100
AcDbEntity
8
DEFAULT_1
100
AcDbLine
62
7
6
CENTER
10
58.1351783518
20
143.7875768758
11
53.8851783518
21
143.7875768758
0
LINE
5
377
100
AcDbEntity
8
DEFAULT_1
100
AcDbLine
62
7
6
CENTER
10
58.1351783518
20
143.7875768758
11
62.3851783518
21
143.7875768758
0
LINE
5
378
100
AcDbEntity
8
DEFAULT_1
100
AcDbLine
62
7
6
CENTER
10
87.5537626388
20
120.2875768758
11
87.5537626388
21
115.1875768758
0
LINE
5
379
100
AcDbEntity
8
DEFAULT_1
100
AcDbLine
62
7
6
CENTER
10
87.5537626388
20
120.2875768758
11
87.5537626388
21
125.3875768758
0
LINE
5
37A
100
AcDbEntity
8
DEFAULT_1
100
AcDbLine
62
7
6
CENTER
10
67.6351783518
20
154.7875768758
11
62.5351783518
21
154.7875768758
0
LINE
5
37B
100
AcDbEntity
8
DEFAULT_1
100
AcDbLine
62
7
6
CENTER
10
67.6351783518
20
154.7875768758
11
72.7351783518
21
154.7875768758
0
LINE
5
37C
100
AcDbEntity
8
0
100
AcDbLine
62
7
6
CONTINUOUS
10
67.6351783518
20
187.5375768758
11
49.7211155274
21
187.5375768758
0
LINE
5
37D
100
AcDbEntity
8
0
100
AcDbLine
62
7
6
CONTINUOUS
10
35.8851783518
20
235.9653022807
11
35.8851783518
21
230.4653022807
0
LINE
5
37E
100
AcDbEntity
8
0
100
AcDbLine
62
7
6
CONTINUOUS
10
38.8851783518
20
238.9653022807
11
35.8851783518
21
235.9653022807
0
LINE
5
37F
100
AcDbEntity
8
0
100
AcDbLine
62
2
6
CONTINUOUS
10
62.3851783518
20
224.3403022807
11
72.8851783518
21
224.3403022807
0
LINE
5
380
100
AcDbEntity
8
0
100
AcDbLine
62
2
6
CONTINUOUS
10
62.3851783518
20
225.2153022807
11
72.8851783518
21
225.2153022807
0
LINE
5
381
100
AcDbEntity
8
0
100
AcDbLine
62
7
6
CONTINUOUS
10
35.8852092927
20
230.4653022807
11
67.6351783498
21
230.4653022807
0
LINE
5
382
100
AcDbEntity
8
0
100
AcDbLine
62
7
6
CONTINUOUS
10
35.8851783518
20
235.9653022807
11
67.6351783498
21
235.9653022807
0
LINE
5
383
100
AcDbEntity
8
0
100
AcDbLine
62
7
6
CONTINUOUS
10
38.8852336568
20
238.9653022807
11
67.6351783518
21
238.9653022807
0
LINE
5
384
100
AcDbEntity
8
0
100
AcDbLine
62
2
6
CONTINUOUS
10
62.3851783518
20
244.2153022807
11
72.8851783518
21
244.2153022807
0
LINE
5
385
100
AcDbEntity
8
0
100
AcDbLine
62
2
6
CONTINUOUS
10
62.3851783518
20
245.0903022807
11
72.8851783518
21
245.0903022807
0
LINE
5
386
100
AcDbEntity
8
DEFAULT_1
100
AcDbLine
62
7
6
CENTER
10
67.6351783518
20
250.3403022807
11
67.6351783518
21
219.0903022807
0
LINE
5
387
100
AcDbEntity
8
0
100
AcDbLine
62
7
6
CONTINUOUS
10
110.0433087331
20
235.9653022807
11
110.0433087331
21
230.4653022807
0
LINE
5
388
100
AcDbEntity
8
0
100
AcDbLine
62
7
6
CONTINUOUS
10
116.6933087331
20
230.4653022807
11
116.6933087331
21
236.9653282252
0
LINE
5
389
100
AcDbEntity
8
0
100
AcDbLine
62
7
6
CONTINUOUS
10
113.0433087331
20
238.9653022807
11
110.0433087331
21
235.9653022807
0
LINE
5
38A
100
AcDbEntity
8
DEFAULT_1
100
AcDbLine
62
7
6
CENTER
10
118.7933087331
20
239.9654006975
11
118.7933087331
21
227.4653022807
0
LINE
5
38B
100
AcDbEntity
8
0
100
AcDbLine
62
2
6
CONTINUOUS
10
114.0250006152
20
238.9653022807
11
110.0433087331
21
234.9836103986
0
LINE
5
38C
100
AcDbEntity
8
0
100
AcDbLine
62
7
6
CONTINUOUS
10
120.8933087331
20
230.4653022807
11
120.8933087331
21
236.9653282252
0
LINE
5
38D
100
AcDbEntity
8
0
100
AcDbLine
62
2
6
CONTINUOUS
10
116.6933087331
20
236.2972539321
11
110.8613570817
21
230.4653022807
0
LINE
5
38E
100
AcDbEntity
8
0
100
AcDbLine
62
7
6
CONTINUOUS
10
120.8933087331
20
236.9653282252
11
122.8932580801
21
238.9653022807
0
LINE
5
38F
100
AcDbEntity
8
0
100
AcDbLine
62
2
6
CONTINUOUS
10
124.6977135482
20
238.9653022807
11
120.8933087331
21
235.1608974656
0
LINE
5
390
100
AcDbEntity
8
0
100
AcDbLine
62
2
6
CONTINUOUS
10
116.6933087331
20
230.9608974656
11
116.1977135482
21
230.4653022807
0
LINE
5
391
100
AcDbEntity
8
0
100
AcDbLine
62
7
6
CONTINUOUS
10
116.6933087331
20
236.9653282252
11
114.6933593861
21
238.9653022807
0
LINE
5
392
100
AcDbEntity
8
0
100
AcDbLine
62
7
6
CONTINUOUS
10
129.7933087331
20
230.4653022807
11
129.7933087331
21
238.9653022807
0
LINE
5
393
100
AcDbEntity
8
0
100
AcDbLine
62
2
6
CONTINUOUS
10
129.7933087331
20
238.7245409990
11
121.5340700147
21
230.4653022807
0
LINE
5
394
100
AcDbEntity
8
0
100
AcDbLine
62
2
6
CONTINUOUS
10
129.7933087331
20
233.3881845325
11
126.8704264812
21
230.4653022807
0
LINE
5
395
100
AcDbEntity
8
0
100
AcDbLine
62
7
6
CONTINUOUS
10
110.0433087331
20
230.4653022807
11
173.2903324020
21
230.4653022807
0
LINE
5
396
100
AcDbEntity
8
DEFAULT_1
100
AcDbLine
62
7
6
CENTER
10
141.7933087331
20
227.4653022807
11
141.7933087331
21
241.9653022807
0
LINE
5
397
100
AcDbEntity
8
0
100
AcDbLine
62
7
6
CONTINUOUS
10
173.5433087331
20
234.4653022807
11
160.0738285490
21
234.4653022807
0
LINE
5
398
100
AcDbEntity
8
0
100
AcDbLine
62
7
6
CONTINUOUS
10
116.6933087331
20
236.9653282252
11
120.8933087331
21
236.9653282252
0
LINE
5
399
100
AcDbEntity
8
0
100
AcDbLine
62
2
6
CONTINUOUS
10
151.3794958807
20
238.9653022807
11
149.1247478824
21
236.7105542823
0
LINE
5
39A
100
AcDbEntity
8
0
100
AcDbLine
62
7
6
CONTINUOUS
10
113.0433087331
20
238.9653022807
11
170.5433087331
21
238.9653022807
0
LINE
5
39B
100
AcDbEntity
8
0
100
AcDbLine
62
7
6
CONTINUOUS
10
149.1247478824
20
230.4653022807
11
149.1247478824
21
238.9653022807
0
LINE
5
39C
100
AcDbEntity
8
0
100
AcDbLine
62
2
6
CONTINUOUS
10
156.7158523472
20
238.9653022807
11
155.0433087331
21
237.2927586665
0
LINE
5
39D
100
AcDbEntity
8
0
100
AcDbLine
62
2
6
CONTINUOUS
10
152.5433087331
20
234.7927586665
11
149.1247478824
21
231.3741978158
0
LINE
5
39E
100
AcDbEntity
8
0
100
AcDbLine
62
2
6
CONTINUOUS
10
152.2933087331
20
238.9653022807
11
152.2933087331
21
230.4653022807
0
LINE
5
39F
100
AcDbEntity
8
0
100
AcDbLine
62
7
6
CONTINUOUS
10
152.5433087331
20
230.4653022807
11
152.5433087331
21
238.9653022807
0
LINE
5
3A0
100
AcDbEntity
8
DEFAULT_1
100
AcDbLine
62
7
6
CENTER
10
153.7933087331
20
241.9653022807
11
153.7933087331
21
227.4653022807
0
LINE
5
3A1
100
AcDbEntity
8
0
100
AcDbLine
62
2
6
CONTINUOUS
10
162.0522088137
20
238.9653022807
11
155.0433087331
21
231.9564022000
0
LINE
5
3A2
100
AcDbEntity
8
0
100
AcDbLine
62
7
6
CONTINUOUS
10
155.0433087331
20
230.4653022807
11
155.0433087331
21
238.9653022807
0
LINE
5
3A3
100
AcDbEntity
8
0
100
AcDbLine
62
2
6
CONTINUOUS
10
155.2933087331
20
238.9653022807
11
155.2933087331
21
230.4653022807
0
LINE
5
3A4
100
AcDbEntity
8
0
100
AcDbLine
62
2
6
CONTINUOUS
10
167.3885652803
20
238.9653022807
11
162.8885652803
21
234.4653022807
0
LINE
5
3A5
100
AcDbEntity
8
0
100
AcDbLine
62
2
6
CONTINUOUS
10
160.0738285490
20
231.6505655494
11
158.8885652803
21
230.4653022807
0
LINE
5
3A6
100
AcDbEntity
8
0
100
AcDbLine
62
7
6
CONTINUOUS
10
160.0738285490
20
234.4653022807
11
160.0738285490
21
230.4653022807
0
LINE
5
3A7
100
AcDbEntity
8
0
100
AcDbLine
62
2
6
CONTINUOUS
10
171.6341152399
20
237.8744957738
11
168.2249217468
21
234.4653022807
0
LINE
5
3A8
100
AcDbEntity
8
0
100
AcDbLine
62
7
6
CONTINUOUS
10
170.5433087331
20
238.9653022807
11
173.5433087331
21
235.9653022807
0
LINE
5
3A9
100
AcDbEntity
8
0
100
AcDbLine
62
7
6
CONTINUOUS
10
173.5433087331
20
235.9653022807
11
173.5433087331
21
234.4653022807
0
LINE
5
3AA
100
AcDbEntity
8
0
100
AcDbLine
62
7
6
CONTINUOUS
10
168.4541747890
20
84.1006920983
11
171.5220741445
21
84.3146692796
0
LWPOLYLINE
5
3AB
100
AcDbEntity
8
0
100
AcDbPolyline
62
2
6
CONTINUOUS
90
17
70
0
10
157.3733901664
20
129.6447621905
10
157.4400268826
20
129.9238773720
10
157.5507789101
20
130.1806696386
10
157.7014277384
20
130.4053578526
10
157.8898044615
20
130.5922549123
10
158.1021448446
20
130.7277046985
10
158.3333806715
20
130.8102140366
10
158.5747042413
20
130.8366401715
10
158.8212004354
20
130.8049140342
10
159.0548583689
20
130.7173537773
10
159.2711231839
20
130.5772473357
10
159.4617574209
20
130.3899313202
10
159.6219789586
20
130.1581667267
10
159.7400807939
20
129.8988880377
10
159.8146896015
20
129.6182382697
10
159.8429635552
20
129.3269072852
10
159.8230548326
20
129.0308687912
0
LWPOLYLINE
5
3AC
100
AcDbEntity
8
0
100
AcDbPolyline
62
2
6
CONTINUOUS
90
17
70
0
10
159.8230548326
20
129.0308687912
10
159.7564181164
20
128.7517536097
10
159.6456660889
20
128.4949613431
10
159.4950172606
20
128.2702731291
10
159.3066405375
20
128.0833760694
10
159.0943001544
20
127.9479262832
10
158.8630643275
20
127.8654169451
10
158.6217407577
20
127.8389908102
10
158.3752445636
20
127.8707169475
10
158.1415866301
20
127.9582772044
10
157.9253218151
20
128.0983836460
10
157.7346875781
20
128.2856996615
10
157.5744660404
20
128.5174642550
10
157.4563642051
20
128.7767429440
10
157.3817553975
20
129.0573927120
10
157.3534814438
20
129.3487236965
10
157.3733901664
20
129.6447621905
0
LINE
5
3AD
100
AcDbEntity
8
0
100
AcDbLine
62
7
6
CONTINUOUS
10
164.1839912220
20
104.5501000737
11
164.3649449916
21
105.7406977469
0
LWPOLYLINE
5
3AE
100
AcDbEntity
8
0
100
AcDbPolyline
62
2
6
CONTINUOUS
90
17
70
0
10
169.3202860774
20
102.2831939679
10
169.3869227937
20
102.5623091494
10
169.4976748211
20
102.8191014160
10
169.6483236494
20
103.0437896300
10
169.8367003725
20
103.2306866897
10
170.0490407556
20
103.3661364759
10
170.2802765825
20
103.4486458140
10
170.5216001523
20
103.4750719489
10
170.7680963465
20
103.4433458116
10
171.0017542799
20
103.3557855547
10
171.2180190949
20
103.2156791131
10
171.4086533319
20
103.0283630976
10
171.5688748696
20
102.7965985041
10
171.6869767049
20
102.5373198151
10
171.7615855125
20
102.2566700471
10
171.7898594662
20
101.9653390626
10
171.7699507436
20
101.6693005686
0
LWPOLYLINE
5
3AF
100
AcDbEntity
8
0
100
AcDbPolyline
62
2
6
CONTINUOUS
90
17
70
0
10
171.7699507436
20
101.6693005686
10
171.7033140274
20
101.3901853871
10
171.5925620000
20
101.1333931205
10
171.4419131717
20
100.9087049065
10
171.2535364485
20
100.7218078468
10
171.0411960654
20
100.5863580606
10
170.8099602385
20
100.5038487225
10
170.5686366687
20
100.4774225876
10
170.3221404746
20
100.5091487249
10
170.0884825412
20
100.5967089818
10
169.8722177261
20
100.7368154234
10
169.6815834891
20
100.9241314389
10
169.5213619514
20
101.1558960324
10
169.4032601161
20
101.4151747214
10
169.3286513085
20
101.6958244894
10
169.3003773549
20
101.9871554739
10
169.3202860774
20
102.2831939679
0
LINE
5
3B0
100
AcDbEntity
8
0
100
AcDbLine
62
7
6
CONTINUOUS
10
164.0359654180
20
147.4468003131
11
167.1038647735
21
147.6607774944
0
CIRCLE
5
3B1
100
AcDbEntity
8
DEFAULT_1
100
AcDbCircle
62
2
6
CENTER
10
67.6351783518
20
131.7875768758
40
23.0000000000
0
ARC
5
3B2
100
AcDbEntity
8
0
100
AcDbCircle
62
2
6
CONTINUOUS
10
77.1351783518
20
119.7875768758
40
1.5000000000
100
AcDbArc
50
255.0000000000
51
195.0000000000
0
ARC
5
3B3
100
AcDbEntity
8
0
100
AcDbCircle
62
2
6
CONTINUOUS
10
58.1351783518
20
143.7875768758
40
1.5000000000
100
AcDbArc
50
255.0000000000
51
195.0000000000
0
CIRCLE
5
3B4
100
AcDbEntity
8
0
100
AcDbCircle
62
7
6
CONTINUOUS
10
67.6351783518
20
131.7875768758
40
12.0000000000
0
CIRCLE
5
3B5
100
AcDbEntity
8
0
100
AcDbCircle
62
7
6
CONTINUOUS
10
58.1351783518
20
143.7875768758
40
1.2500000000
0
CIRCLE
5
3B6
100
AcDbEntity
8
0
100
AcDbCircle
62
7
6
CONTINUOUS
10
77.1351783518
20
119.7875768758
40
1.2500000000
0
CIRCLE
5
3B7
100
AcDbEntity
8
0
100
AcDbCircle
62
7
6
CONTINUOUS
10
67.6351783518
20
131.7875768758
40
31.7500000000
0
CIRCLE
5
3B8
100
AcDbEntity
8
0
100
AcDbCircle
62
7
6
CONTINUOUS
10
47.7165940647
20
120.2875768758
40
2.1000000000
0
CIRCLE
5
3B9
100
AcDbEntity
8
0
100
AcDbCircle
62
7
6
CONTINUOUS
10
67.6351783518
20
154.7875768758
40
2.1000000000
0
CIRCLE
5
3BA
100
AcDbEntity
8
0
100
AcDbCircle
62
7
6
CONTINUOUS
10
87.5537626388
20
120.2875768758
40
2.1000000000
0
CIRCLE
5
3BB
100
AcDbEntity
8
0
100
AcDbCircle
62
7
6
CONTINUOUS
10
87.5537626388
20
120.2875768758
40
4.0999594140
0
CIRCLE
5
3BC
100
AcDbEntity
8
0
100
AcDbCircle
62
7
6
CONTINUOUS
10
47.7165940647
20
120.2875768758
40
4.0999594140
0
CIRCLE
5
3BD
100
AcDbEntity
8
0
100
AcDbCircle
62
7
6
CONTINUOUS
10
67.6351783518
20
131.7875768758
40
28.7500000000
0
CIRCLE
5
3BE
100
AcDbEntity
8
0
100
AcDbCircle
62
7
6
CONTINUOUS
10
67.6351783518
20
154.7875768758
40
4.0999594140
0
ARC
5
3BF
100
AcDbEntity
8
0
100
AcDbCircle
62
7
6
CONTINUOUS
10
67.6351783518
20
230.4653022807
40
4.0000000000
100
AcDbArc
50
90.0000000286
51
180.0000000000
0
SPLINE
5
3C0
100
AcDbEntity
8
0
100
AcDbSpline
62
7
6
CONTINUOUS
70
0
71
3
72
15
73
11
74
9
42
0.0000001000
43
0.0000001000
44
0.0000000001
12
-0.5013042671
22
-3.9791012037
32
0.0000000000
13
0.0000000000
23
-4.0105561224
33
0.0000000000
40
0.0000000000
40
0.0000000000
40
0.0000000000
40
0.0000000000
40
0.0192317842
40
0.0765220548
40
0.1695172454
40
0.2938208204
40
0.4447020791
40
0.6184343375
40
0.8099381369
40
1.0000000000
40
1.0000000000
40
1.0000000000
40
1.0000000000
10
173.5433087331
20
234.4653022807
30
0.0000000000
10
173.5400950746
20
234.4397938755
30
0.0000000000
10
173.5274266244
20
234.3382825632
30
0.0000000000
10
173.5004091185
20
234.1132775041
30
0.0000000000
10
173.4599948069
20
233.7484160544
30
0.0000000000
10
173.4123580949
20
233.2585048884
30
0.0000000000
10
173.3645010220
20
232.6602448193
30
0.0000000000
10
173.3234973291
20
231.9714358093
30
0.0000000000
10
173.2965071521
20
231.2295049303
30
0.0000000000
10
173.2903324020
20
230.7193868703
30
0.0000000000
10
173.2903324020
20
230.4653022807
30
0.0000000000
11
173.5433087331
21
234.4653022807
31
0.0000000000
11
173.5337571588
21
234.3887658356
31
0.0000000000
11
173.5063661363
21
234.1606385119
31
0.0000000000
11
173.4653110895
21
233.7899426018
31
0.0000000000
11
173.4170758330
21
233.2937551419
31
0.0000000000
11
173.3688417372
21
232.6905628258
31
0.0000000000
11
173.3274579471
21
231.9950299206
31
0.0000000000
11
173.2995532853
21
231.2275002756
31
0.0000000000
11
173.2903324020
21
230.4653022807
31
0.0000000000
0
SPLINE
5
3C1
100
AcDbEntity
8
0
100
AcDbSpline
62
7
6
CONTINUOUS
70
0
71
3
72
15
73
11
74
9
42
0.0000001000
43
0.0000001000
44
0.0000000001
12
-2.1431788284
22
-14.1011913318
32
0.0000000000
13
11.5724987419
23
-8.3375107398
33
0.0000000000
40
0.0000000000
40
0.0000000000
40
0.0000000000
40
0.0000000000
40
0.1287172265
40
0.2580112453
40
0.3870281239
40
0.5148257382
40
0.6405781995
40
0.7636146656
40
0.8834820008
40
1.0000000000
40
1.0000000000
40
1.0000000000
40
1.0000000000
10
159.5143107942
20
118.4432969842
30
0.0000000000
10
159.4223561160
20
117.8382749048
30
0.0000000000
10
159.3173325278
20
116.6120497432
30
0.0000000000
10
159.3953791123
20
114.7689063762
30
0.0000000000
10
159.7059246503
20
112.9545191303
30
0.0000000000
10
160.2418883569
20
111.2110395194
30
0.0000000000
10
160.9909715580
20
109.5789166119
30
0.0000000000
10
161.9363781190
20
108.0960528921
30
0.0000000000
10
163.0563116878
20
106.7975672748
30
0.0000000000
10
163.9154768586
20
106.0645211034
30
0.0000000000
10
164.3649449916
20
105.7406977469
30
0.0000000000
11
159.5143107942
21
118.4432969842
31
0.0000000000
11
159.3566552418
21
116.6141684645
31
0.0000000000
11
159.4344356660
21
114.7716723685
31
0.0000000000
11
159.7455783569
21
112.9579832597
31
0.0000000000
11
160.2826402227
21
111.2161045591
31
0.0000000000
11
161.0329433369
21
109.5869544123
31
0.0000000000
11
161.9788730054
21
108.1088347179
31
0.0000000000
11
163.0982739216
21
106.8165661958
31
0.0000000000
11
164.3649449916
21
105.7406977469
31
0.0000000000
0
SPLINE
5
3C2
100
AcDbEntity
8
0
100
AcDbSpline
62
7
6
CONTINUOUS
70
0
71
3
72
40
73
36
74
34
42
0.0000001000
43
0.0000001000
44
0.0000000001
12
81.8757961108
22
-20.5183229724
32
0.0000000000
13
-84.2408161952
23
-5.8756706123
33
0.0000000000
40
0.0000000000
40
0.0000000000
40
0.0000000000
40
0.0000000000
40
0.0282210600
40
0.0567936058
40
0.0857794479
40
0.1152250585
40
0.1451607077
40
0.1756002087
40
0.2065412786
40
0.2379663760
40
0.2698439047
40
0.3021296809
40
0.3347685892
40
0.3676963644
40
0.4008414572
40
0.4341269517
40
0.4674725155
40
0.5007963661
40
0.5340172438
40
0.5670563830
40
0.5998394708
40
0.6322985821
40
0.6643740728
40
0.6960164051
40
0.7271878690
40
0.7578641468
40
0.7880356511
40
0.8177085484
40
0.8469053581
40
0.8756650112
40
0.9040422486
40
0.9321062667
40
0.9599385653
40
0.9876300291
40
1.0000000000
40
1.0000000000
40
1.0000000000
40
1.0000000000
10
174.0326691029
20
147.0413092213
30
0.0000000000
10
174.8028763534
20
146.8482929470
30
0.0000000000
10
176.3337060762
20
146.3785769323
30
0.0000000000
10
178.5608592708
20
145.4387944865
30
0.0000000000
10
180.7147949348
20
144.2673967964
30
0.0000000000
10
182.7782988204
20
142.8738958994
30
0.0000000000
10
184.7353476684
20
141.2694068473
30
0.0000000000
10
186.5706751090
20
139.4666825804
30
0.0000000000
10
188.2700212498
20
137.4799757957
30
0.0000000000
10
189.8201889920
20
135.3249405673
30
0.0000000000
10
191.2091480938
20
133.0185131395
30
0.0000000000
10
192.4261196199
20
130.5787871389
30
0.0000000000
10
193.4616575089
20
128.0248784832
30
0.0000000000
10
194.3077207217
20
125.3767816124
30
0.0000000000
10
194.9577359549
20
122.6552176123
30
0.0000000000
10
195.4066494014
20
119.8814755645
30
0.0000000000
10
195.6509667805
20
117.0772485503
30
0.0000000000
10
195.6887809893
20
114.2644658884
30
0.0000000000
10
195.5197869919
20
111.4651232468
30
0.0000000000
10
195.1452837782
20
108.7011123004
30
0.0000000000
10
194.5681634420
20
105.9940516180
30
0.0000000000
10
193.7928876628
20
103.3651204435
30
0.0000000000
10
192.8254521284
20
100.8348969798
30
0.0000000000
10
191.6733397186
20
98.4232026589
30
0.0000000000
10
190.3454635684
20
96.1489536459
30
0.0000000000
10
188.8521013821
20
94.0300204376
30
0.0000000000
10
187.2048225441
20
92.0830958356
30
0.0000000000
10
185.4164093107
20
90.3235708344
30
0.0000000000
10
183.5007732521
20
88.7654171305
30
0.0000000000
10
181.4728652696
20
87.4210745658
30
0.0000000000
10
179.3485820250
20
86.3013413904
30
0.0000000000
10
177.1446473196
20
85.4152686424
30
0.0000000000
10
174.8785288357
20
84.7700548368
30
0.0000000000
10
172.9925316318
20
84.4442754014
30
0.0000000000
10
171.8695050710
20
84.3389096372
30
0.0000000000
10
171.5221529230
20
84.3146823457
30
0.0000000000
11
174.0326691029
21
147.0413092213
31
0.0000000000
11
176.3103414036
21
146.3438285345
31
0.0000000000
11
178.5330092440
21
145.4077508752
31
0.0000000000
11
180.6832066527
21
144.2404331558
31
0.0000000000
11
182.7440321706
21
142.8510516432
31
0.0000000000
11
184.6992881780
21
141.2505274656
31
0.0000000000
11
186.5336068974
21
139.4514412355
31
0.0000000000
11
188.2325711728
21
137.4679341576
31
0.0000000000
11
189.7828277765
21
135.3155968734
31
0.0000000000
11
191.1721923532
21
133.0113469143
31
0.0000000000
11
192.3897451763
21
130.5732957276
31
0.0000000000
11
193.4259169646
21
128.0206063201
31
0.0000000000
11
194.2725640842
21
125.3733426380
31
0.0000000000
11
194.9230325448
21
122.6523118673
31
0.0000000000
11
195.3722102892
21
119.8789008944
31
0.0000000000
11
195.6165673619
21
117.0749082114
31
0.0000000000
11
195.6541836448
21
114.2623725881
31
0.0000000000
11
195.4847639394
21
111.4633998559
31
0.0000000000
11
195.1096402788
21
108.6999891672
31
0.0000000000
11
194.5317614504
21
105.9938600930
31
0.0000000000
11
193.7556698122
21
103.3662819201
31
0.0000000000
11
192.7874655852
21
100.8379064868
31
0.0000000000
11
191.6347589016
21
98.4286058741
31
0.0000000000
11
190.3066099875
21
96.1573162240
31
0.0000000000
11
188.8134579482
21
94.0418889165
31
0.0000000000
11
187.1670387180
21
92.0989502712
31
0.0000000000
11
185.3802928171
21
90.3437708782
31
0.0000000000
11
183.4672636427
21
88.7901455848
31
0.0000000000
11
181.4429870927
21
87.4502850804
31
0.0000000000
11
179.3233733887
21
86.3347199325
31
0.0000000000
11
177.1250820292
21
85.4522178274
31
0.0000000000
11
174.8653908536
21
84.8097146657
31
0.0000000000
11
172.5620602472
21
84.4122600550
31
0.0000000000
11
171.5221529230
21
84.3146823457
31
0.0000000000
0
SPLINE
5
3C3
100
AcDbEntity
8
0
100
AcDbSpline
62
7
6
CONTINUOUS
70
0
71
3
72
18
73
14
74
12
42
0.0000001000
43
0.0000001000
44
0.0000000001
12
3.0665386152
22
20.1765000501
32
0.0000000000
13
-20.3968757955
23
-1.4225482933
33
0.0000000000
40
0.0000000000
40
0.0000000000
40
0.0000000000
40
0.0000000000
40
0.1019984346
40
0.2044933027
40
0.3065160336
40
0.4071423036
40
0.5055819127
40
0.6012650945
40
0.6939199883
40
0.7836313167
40
0.8708643234
40
0.9564344521
40
1.0000000000
40
1.0000000000
40
1.0000000000
40
1.0000000000
10
174.3703291198
20
113.2014577823
30
0.0000000000
10
174.4745898326
20
113.8874482557
30
0.0000000000
10
174.5816649757
20
115.2803109206
30
0.0000000000
10
174.4398229235
20
117.3675122029
30
0.0000000000
10
174.0009723700
20
119.4040102921
30
0.0000000000
10
173.2778179112
20
121.3284821818
30
0.0000000000
10
172.2913536897
20
123.0835392934
30
0.0000000000
10
171.0700972031
20
124.6163051684
30
0.0000000000
10
169.6494074698
20
125.8799772299
30
0.0000000000
10
168.0708049173
20
126.8348973426
30
0.0000000000
10
166.3814285638
20
127.4497682658
30
0.0000000000
10
164.9141689987
20
127.6625188386
30
0.0000000000
10
164.0328842110
20
127.6485129958
30
0.0000000000
10
163.7366838544
20
127.6278549639
30
0.0000000000
11
174.3703291198
21
113.2014577823
31
0.0000000000
11
174.5312231751
21
115.2768353710
31
0.0000000000
11
174.3895012608
21
117.3637650230
31
0.0000000000
11
173.9494695255
21
119.3988364369
31
0.0000000000
11
173.2244981108
21
121.3202149976
31
0.0000000000
11
172.2366149064
21
123.0695205897
31
0.0000000000
11
171.0158362434
21
124.5936014481
31
0.0000000000
11
169.5992548639
21
125.8461491471
31
0.0000000000
11
168.0299128762
21
126.7891056587
31
0.0000000000
11
166.3554939425
21
127.3938197264
31
0.0000000000
11
164.6268744347
21
127.6419174193
31
0.0000000000
11
163.7366838544
21
127.6278549639
31
0.0000000000
0
SPLINE
5
3C4
100
AcDbEntity
8
0
100
AcDbSpline
62
7
6
CONTINUOUS
70
0
71
3
72
14
73
10
74
8
42
0.0000001000
43
0.0000001000
44
0.0000000001
12
0.3187611567
22
2.0973107798
32
0.0000000000
13
-2.1270282784
23
-0.1486531462
33
0.0000000000
40
0.0000000000
40
0.0000000000
40
0.0000000000
40
0.0000000000
40
0.1673299347
40
0.3343399279
40
0.4970177839
40
0.6524784170
40
0.7998999099
40
0.9410821206
40
1.0000000000
40
1.0000000000
40
1.0000000000
40
1.0000000000
10
159.6189161104
20
129.0820265745
30
0.0000000000
10
159.6366955383
20
129.1990075331
30
0.0000000000
10
159.6438539002
20
129.4379529859
30
0.0000000000
10
159.5717641461
20
129.7851330284
30
0.0000000000
10
159.4223060216
20
130.0979349335
30
0.0000000000
10
159.2060218804
20
130.3515814601
30
0.0000000000
10
158.9383401433
20
130.5250394987
30
0.0000000000
10
158.6957510027
20
130.5872909326
30
0.0000000000
10
158.5531780761
20
130.5876377240
30
0.0000000000
10
158.5114047442
20
130.5847182813
30
0.0000000000
11
159.6189161104
21
129.0820265745
31
0.0000000000
11
159.6299209674
21
129.4368290093
31
0.0000000000
11
159.5573437503
21
129.7836099578
31
0.0000000000
11
159.4070642335
21
130.0942752897
31
0.0000000000
11
159.1912571698
21
130.3436567476
31
0.0000000000
11
158.9274059640
21
130.5115509289
31
0.0000000000
11
158.6368862717
21
130.5843560454
31
0.0000000000
11
158.5114047442
21
130.5847182813
31
0.0000000000
0
SPLINE
5
3C5
100
AcDbEntity
8
0
100
AcDbSpline
62
7
6
CONTINUOUS
70
0
71
3
72
14
73
10
74
8
42
0.0000001000
43
0.0000001000
44
0.0000000001
12
0.3187611567
22
2.0973107798
32
0.0000000000
13
-2.1270282784
23
-0.1486531462
33
0.0000000000
40
0.0000000000
40
0.0000000000
40
0.0000000000
40
0.0000000000
40
0.1673299347
40
0.3343399279
40
0.4970177839
40
0.6524784170
40
0.7998999099
40
0.9410821206
40
1.0000000000
40
1.0000000000
40
1.0000000000
40
1.0000000000
10
171.5658120214
20
101.7204583519
30
0.0000000000
10
171.5835914493
20
101.8374393105
30
0.0000000000
10
171.5907498112
20
102.0763847633
30
0.0000000000
10
171.5186600571
20
102.4235648058
30
0.0000000000
10
171.3692019326
20
102.7363667109
30
0.0000000000
10
171.1529177914
20
102.9900132375
30
0.0000000000
10
170.8852360543
20
103.1634712761
30
0.0000000000
10
170.6426469137
20
103.2257227100
30
0.0000000000
10
170.5000739871
20
103.2260695014
30
0.0000000000
10
170.4583006552
20
103.2231500587
30
0.0000000000
11
171.5658120214
21
101.7204583519
31
0.0000000000
11
171.5768168784
21
102.0752607867
31
0.0000000000
11
171.5042396613
21
102.4220417352
31
0.0000000000
11
171.3539601445
21
102.7327070671
31
0.0000000000
11
171.1381530808
21
102.9820885250
31
0.0000000000
11
170.8743018751
21
103.1499827063
31
0.0000000000
11
170.5837821827
21
103.2227878228
31
0.0000000000
11
170.4583006552
21
103.2231500587
31
0.0000000000
0
SPLINE
5
3C6
100
AcDbEntity
8
0
100
AcDbSpline
62
7
6
CONTINUOUS
70
0
71
3
72
10
73
6
74
4
42
0.0000001000
43
0.0000001000
44
0.0000000001
12
-6.7727719352
22
1.6972772002
32
0.0000000000
13
-6.9686457293
23
-0.4860145050
33
0.0000000000
40
0.0000000000
40
0.0000000000
40
0.0000000000
40
0.0000000000
40
0.3378238484
40
0.6733510044
40
1.0000000000
40
1.0000000000
40
1.0000000000
40
1.0000000000
10
174.0326691029
20
147.0413092213
30
0.0000000000
10
173.2700011432
20
147.2324361265
30
0.0000000000
10
171.7288842381
20
147.5350309113
30
0.0000000000
10
169.4063619027
20
147.7404195769
30
0.0000000000
10
167.8625660442
20
147.7136913571
30
0.0000000000
10
167.1037990015
20
147.6607726405
30
0.0000000000
11
174.0326691029
21
147.0413092213
31
0.0000000000
11
171.7178999004
21
147.4947083117
31
0.0000000000
11
169.3842332758
21
147.7004618964
31
0.0000000000
11
167.1037990015
21
147.6607726405
31
0.0000000000
0
SPLINE
5
3C7
100
AcDbEntity
8
0
100
AcDbSpline
62
7
6
CONTINUOUS
70
0
71
3
72
14
73
10
74
8
42
0.0000001000
43
0.0000001000
44
0.0000000001
12
-0.3705347824
22
-2.4379586490
32
0.0000000000
13
-2.4665036086
23
-0.1715564497
33
0.0000000000
40
0.0000000000
40
0.0000000000
40
0.0000000000
40
0.0000000000
40
0.1693603719
40
0.3388692689
40
0.5047875568
40
0.6641459770
40
0.8164486597
40
0.9645721203
40
1.0000000000
40
1.0000000000
40
1.0000000000
40
1.0000000000
10
170.8210305046
20
137.8006268822
30
0.0000000000
10
170.8001125351
20
137.6629956877
30
0.0000000000
10
170.7346024968
20
137.3905521374
30
0.0000000000
10
170.5654663306
20
137.0090281485
30
0.0000000000
10
170.3288052506
20
136.6746271208
30
0.0000000000
10
170.0360154409
20
136.4081435633
30
0.0000000000
10
169.7019790272
20
136.2236517836
30
0.0000000000
10
169.4322089150
20
136.1525641090
30
0.0000000000
10
169.2816247474
20
136.1374940987
30
0.0000000000
10
169.2524970830
20
136.1354681382
30
0.0000000000
11
170.8210305046
21
137.8006268822
31
0.0000000000
11
170.7226335152
21
137.3947485793
31
0.0000000000
11
170.5519925234
21
137.0131638923
31
0.0000000000
11
170.3142625575
21
136.6801685827
31
0.0000000000
11
170.0224466685
21
136.4169774680
31
0.0000000000
11
169.6930184325
21
136.2366135691
31
0.0000000000
11
169.3396369739
21
136.1441974671
31
0.0000000000
11
169.2524970830
21
136.1354681382
31
0.0000000000
0
SPLINE
5
3C8
100
AcDbEntity
8
0
100
AcDbSpline
62
7
6
CONTINUOUS
70
0
71
3
72
14
73
10
74
8
42
0.0000001000
43
0.0000001000
44
0.0000000001
12
-0.3705347824
22
-2.4379586490
32
0.0000000000
13
-2.4665036086
23
-0.1715564497
33
0.0000000000
40
0.0000000000
40
0.0000000000
40
0.0000000000
40
0.0000000000
40
0.1693603719
40
0.3388692689
40
0.5047875568
40
0.6641459770
40
0.8164486597
40
0.9645721203
40
1.0000000000
40
1.0000000000
40
1.0000000000
40
1.0000000000
10
181.9571553544
20
99.9813979127
30
0.0000000000
10
181.9362373849
20
99.8437667182
30
0.0000000000
10
181.8707273466
20
99.5713231678
30
0.0000000000
10
181.7015911804
20
99.1897991790
30
0.0000000000
10
181.4649301004
20
98.8553981512
30
0.0000000000
10
181.1721402907
20
98.5889145937
30
0.0000000000
10
180.8381038770
20
98.4044228140
30
0.0000000000
10
180.5683337648
20
98.3333351394
30
0.0000000000
10
180.4177495972
20
98.3182651291
30
0.0000000000
10
180.3886219328
20
98.3162391687
30
0.0000000000
11
181.9571553544
21
99.9813979127
31
0.0000000000
11
181.8587583650
21
99.5755196097
31
0.0000000000
11
181.6881173732
21
99.1939349227
31
0.0000000000
11
181.4503874073
21
98.8609396131
31
0.0000000000
11
181.1585715183
21
98.5977484985
31
0.0000000000
11
180.8291432823
21
98.4173845995
31
0.0000000000
11
180.4757618237
21
98.3249684975
31
0.0000000000
11
180.3886219328
21
98.3162391687
31
0.0000000000
0
SPLINE
5
3C9
100
AcDbEntity
8
0
100
AcDbSpline
62
7
6
CONTINUOUS
70
0
71
3
72
14
73
10
74
8
42
0.0000001000
43
0.0000001000
44
0.0000000001
12
-0.3705347824
22
-2.4379586490
32
0.0000000000
13
-2.4665036086
23
-0.1715564497
33
0.0000000000
40
0.0000000000
40
0.0000000000
40
0.0000000000
40
0.0000000000
40
0.1693603719
40
0.3388692689
40
0.5047875568
40
0.6641459770
40
0.8164486597
40
0.9645721203
40
1.0000000000
40
1.0000000000
40
1.0000000000
40
1.0000000000
10
149.4279206020
20
108.1333228575
30
0.0000000000
10
149.4070026325
20
107.9956916630
30
0.0000000000
10
149.3414925941
20
107.7232481127
30
0.0000000000
10
149.1723564279
20
107.3417241238
30
0.0000000000
10
148.9356953480
20
107.0073230961
30
0.0000000000
10
148.6429055383
20
106.7408395386
30
0.0000000000
10
148.3088691246
20
106.5563477589
30
0.0000000000
10
148.0390990124
20
106.4852600843
30
0.0000000000
10
147.8885148448
20
106.4701900740
30
0.0000000000
10
147.8593871804
20
106.4681641135
30
0.0000000000
11
149.4279206020
21
108.1333228575
31
0.0000000000
11
149.3295236126
21
107.7274445546
31
0.0000000000
11
149.1588826208
21
107.3458598676
31
0.0000000000
11
148.9211526549
21
107.0128645580
31
0.0000000000
11
148.6293367658
21
106.7496734433
31
0.0000000000
11
148.2999085298
21
106.5693095444
31
0.0000000000
11
147.9465270713
21
106.4768934424
31
0.0000000000
11
147.8593871804
21
106.4681641135
31
0.0000000000
0
SPLINE
5
3CA
100
AcDbEntity
8
0
100
AcDbSpline
62
7
6
CONTINUOUS
70
0
71
3
72
10
73
6
74
4
42
0.0000001000
43
0.0000001000
44
0.0000000001
12
-6.9685940738
22
-0.4859467325
32
0.0000000000
13
-6.7726313186
23
1.6972419612
33
0.0000000000
40
0.0000000000
40
0.0000000000
40
0.0000000000
40
0.0000000000
40
0.3185341649
40
0.6580979942
40
1.0000000000
40
1.0000000000
40
1.0000000000
40
1.0000000000
10
168.4541747082
20
84.1006932562
30
0.0000000000
10
167.7142629436
20
84.0490963773
30
0.0000000000
10
166.1801287317
20
84.0205305522
30
0.0000000000
10
163.8571596876
20
84.2214516162
30
0.0000000000
10
162.2972292037
20
84.5267302278
30
0.0000000000
10
161.5253704596
20
84.7201603714
30
0.0000000000
11
168.4541747082
21
84.1006932562
31
0.0000000000
11
166.2304157699
21
84.0591132556
31
0.0000000000
11
163.8683250379
21
84.2627829394
31
0.0000000000
11
161.5253704596
21
84.7201603714
31
0.0000000000
0
SPLINE
5
3CB
100
AcDbEntity
8
0
100
AcDbSpline
62
7
6
CONTINUOUS
70
0
71
3
72
40
73
36
74
34
42
0.0000001000
43
0.0000001000
44
0.0000000001
12
-84.2442181076
22
-5.8746717184
32
0.0000000000
13
81.8751994918
23
-20.5181734579
33
0.0000000000
40
0.0000000000
40
0.0000000000
40
0.0000000000
40
0.0000000000
40
0.0016438113
40
0.0296424515
40
0.0577486030
40
0.0860591829
40
0.1146625517
40
0.1436351506
40
0.1730389261
40
0.2029196098
40
0.2333058324
40
0.2642089802
40
0.2956236749
40
0.3275287439
40
0.3598885600
40
0.3926546487
40
0.4257674805
40
0.4591583878
40
0.4927515621
40
0.5264661016
40
0.5602180881
40
0.5939226783
40
0.6274962001
40
0.6608582429
40
0.6939337321
40
0.7266549713
40
0.7589636327
40
0.7908126614
40
0.8221680499
40
0.8530104180
40
0.8833363153
40
0.9131591407
40
0.9425095547
40
0.9714352560
40
1.0000000000
40
1.0000000000
40
1.0000000000
40
1.0000000000
10
164.0359654987
20
147.4467991552
30
0.0000000000
10
163.9898049664
20
147.4435802047
30
0.0000000000
10
163.1575887860
20
147.3828827357
30
0.0000000000
10
161.5434073513
20
147.1714891808
30
0.0000000000
10
159.2309374938
20
146.6099985742
30
0.0000000000
10
156.9755603349
20
145.7995517902
30
0.0000000000
10
154.7955887281
20
144.7469133555
30
0.0000000000
10
152.7086441118
20
143.4608227398
30
0.0000000000
10
150.7315082461
20
141.9518911905
30
0.0000000000
10
148.8800069836
20
140.2324884346
30
0.0000000000
10
147.1689041837
20
138.3166270579
30
0.0000000000
10
145.6118056654
20
136.2198438250
30
0.0000000000
10
144.2210690683
20
133.9590766686
30
0.0000000000
10
143.0077190488
20
131.5525351717
30
0.0000000000
10
141.9813682918
20
129.0195629110
30
0.0000000000
10
141.1501457704
20
126.3804908624
30
0.0000000000
10
140.5206339179
20
123.6564819487
30
0.0000000000
10
140.0978162940
20
120.8693675160
30
0.0000000000
10
139.8850370544
20
118.0414770110
30
0.0000000000
10
139.8839732024
20
115.1954624307
30
0.0000000000
10
140.0946202831
20
112.3541192793
30
0.0000000000
10
140.5152918846
20
109.5402058455
30
0.0000000000
10
141.1426330530
20
106.7762626361
30
0.0000000000
10
141.9716474742
20
104.0844338002
30
0.0000000000
10
142.9957380460
20
101.4862923417
30
0.0000000000
10
144.2067601630
20
99.0026708607
30
0.0000000000
10
145.5950868949
20
96.6534994050
30
0.0000000000
10
147.1496844439
20
94.4576519167
30
0.0000000000
10
148.8581978030
20
92.4328019511
30
0.0000000000
10
150.7070397371
20
90.5952894250
30
0.0000000000
10
152.6815003492
20
88.9599935162
30
0.0000000000
10
154.7658071937
20
87.5402274953
30
0.0000000000
10
156.9433864037
20
86.3475923156
30
0.0000000000
10
159.1964125987
20
85.3920108252
30
0.0000000000
10
160.7457890892
20
84.9155258286
30
0.0000000000
10
161.5253704596
20
84.7201603714
30
0.0000000000
11
164.0359654987
21
147.4467991552
31
0.0000000000
11
163.8975157170
21
147.4367012631
31
0.0000000000
11
161.5542081244
21
147.1300918738
31
0.0000000000
11
159.2486685944
21
146.5710196263
31
0.0000000000
11
156.9994599755
21
145.7639858418
31
0.0000000000
11
154.8246915730
21
144.7154882817
31
0.0000000000
11
152.7418733433
21
143.4339688319
31
0.0000000000
11
150.7677749142
21
141.9297455334
31
0.0000000000
11
148.9182905655
21
140.2149295079
31
0.0000000000
11
147.2083112576
21
138.3033274456
31
0.0000000000
11
145.6516047386
21
136.2103304423
31
0.0000000000
11
144.2607046938
21
133.9527900792
31
0.0000000000
11
143.0468098328
21
131.5488827440
31
0.0000000000
11
142.0196937231
21
129.0179632850
31
0.0000000000
11
141.1876260998
21
126.3804091776
31
0.0000000000
11
140.5573062820
21
123.6574564565
31
0.0000000000
11
140.1338092343
21
120.8710287360
31
0.0000000000
11
139.9205447060
21
118.0435606938
31
0.0000000000
11
139.9192297776
21
115.1978174399
31
0.0000000000
11
140.1298750362
21
112.3567112258
31
0.0000000000
11
140.5507844900
21
109.5431169682
31
0.0000000000
11
141.1785692235
21
106.7796880737
31
0.0000000000
11
142.0081746833
21
104.0886740468
31
0.0000000000
11
143.0329213739
21
101.4917413502
31
0.0000000000
11
144.2445586376
21
99.0097989590
31
0.0000000000
11
145.6333310835
21
96.6628300141
31
0.0000000000
11
147.1880571325
21
94.4697309292
31
0.0000000000
11
148.8962190446
21
92.4481592488
31
0.0000000000
11
150.7440637044
21
90.6143914794
31
0.0000000000
11
152.7167133533
21
88.9831920408
31
0.0000000000
11
154.7982853763
21
87.5676943917
31
0.0000000000
11
156.9720201793
21
86.3792952869
31
0.0000000000
11
159.2204161277
21
85.4275630173
31
0.0000000000
11
161.5253704596
21
84.7201603714
31
0.0000000000
0
SPLINE
5
3CC
100
AcDbEntity
8
0
100
AcDbSpline
62
7
6
CONTINUOUS
70
0
71
3
72
16
73
12
74
10
42
0.0000001000
43
0.0000001000
44
0.0000000001
12
3.5704188234
22
0.2483252439
32
0.0000000000
13
-0.5363721556
23
-3.5290969975
33
0.0000000000
40
0.0000000000
40
0.0000000000
40
0.0000000000
40
0.0000000000
40
0.0777482708
40
0.1818610669
40
0.2887061020
40
0.3993422854
40
0.5150491168
40
0.6358516358
40
0.7592255691
40
0.8816588567
40
1.0000000000
40
1.0000000000
40
1.0000000000
40
1.0000000000
10
168.9600253974
20
140.3252353966
30
0.0000000000
10
169.0525566938
20
140.3316710161
30
0.0000000000
10
169.2704806856
20
140.3258867363
30
0.0000000000
10
169.6067979927
20
140.2402211474
30
0.0000000000
10
169.9475040711
20
140.0586196215
30
0.0000000000
10
170.2499164346
20
139.7976396578
30
0.0000000000
10
170.5027114169
20
139.4675484870
30
0.0000000000
10
170.6944469594
20
139.0818609656
30
0.0000000000
10
170.8153743416
20
138.6602883669
30
0.0000000000
10
170.8608175672
20
138.2273318361
30
0.0000000000
10
170.8421888027
20
137.9398393401
30
0.0000000000
10
170.8210305046
20
137.8006268822
30
0.0000000000
11
168.9600253974
21
140.3252353966
31
0.0000000000
11
169.2377783599
21
140.3179198557
31
0.0000000000
11
169.5981952167
21
140.2272630110
31
0.0000000000
11
169.9355196306
21
140.0492864201
31
0.0000000000
11
170.2356112010
21
139.7925482603
31
0.0000000000
11
170.4879374847
21
139.4655540709
31
0.0000000000
11
170.6809495356
21
139.0799419048
31
0.0000000000
11
170.8029866803
21
138.6567895680
31
0.0000000000
11
170.8487421412
21
138.2221504322
31
0.0000000000
11
170.8210305046
21
137.8006268822
31
0.0000000000
0
SPLINE
5
3CD
100
AcDbEntity
8
0
100
AcDbSpline
62
7
6
CONTINUOUS
70
0
71
3
72
12
73
8
74
6
42
0.0000001000
43
0.0000001000
44
0.0000000001
12
1.4694782827
22
0.1026984795
32
0.0000000000
13
0.2202192617
23
1.4489476583
33
0.0000000000
40
0.0000000000
40
0.0000000000
40
0.0000000000
40
0.0000000000
40
0.1160033921
40
0.3214102350
40
0.5364875316
40
0.7632552532
40
1.0000000000
40
1.0000000000
40
1.0000000000
40
1.0000000000
10
170.6319361658
20
100.7293444778
30
0.0000000000
10
170.6887576543
20
100.7333156018
30
0.0000000000
10
170.8451360509
20
100.7598081953
30
0.0000000000
10
171.0865372213
20
100.8738624767
30
0.0000000000
10
171.3191768890
20
101.0951188196
30
0.0000000000
10
171.4875448182
20
101.3851867865
30
0.0000000000
10
171.5484334370
20
101.6061147697
30
0.0000000000
10
171.5658120214
20
101.7204583519
30
0.0000000000
11
170.6319361658
21
100.7293444778
31
0.0000000000
11
170.8001066395
21
100.7578888994
31
0.0000000000
11
171.0731010109
21
100.8847752343
31
0.0000000000
11
171.3033213720
21
101.1000861422
31
0.0000000000
11
171.4721166384
21
101.3863784138
31
0.0000000000
11
171.5658120214
21
101.7204583519
31
0.0000000000
0
SPLINE
5
3CE
100
AcDbEntity
8
0
100
AcDbSpline
62
7
6
CONTINUOUS
70
0
71
3
72
16
73
12
74
10
42
0.0000001000
43
0.0000001000
44
0.0000000001
12
3.5704188234
22
0.2483252439
32
0.0000000000
13
-0.5363721556
23
-3.5290969975
33
0.0000000000
40
0.0000000000
40
0.0000000000
40
0.0000000000
40
0.0000000000
40
0.0777482708
40
0.1818610669
40
0.2887061020
40
0.3993422854
40
0.5150491168
40
0.6358516358
40
0.7592255691
40
0.8816588567
40
1.0000000000
40
1.0000000000
40
1.0000000000
40
1.0000000000
10
180.0961502472
20
102.5060064270
30
0.0000000000
10
180.1886815436
20
102.5124420465
30
0.0000000000
10
180.4066055354
20
102.5066577667
30
0.0000000000
10
180.7429228425
20
102.4209921779
30
0.0000000000
10
181.0836289210
20
102.2393906520
30
0.0000000000
10
181.3860412844
20
101.9784106882
30
0.0000000000
10
181.6388362667
20
101.6483195174
30
0.0000000000
10
181.8305718093
20
101.2626319960
30
0.0000000000
10
181.9514991914
20
100.8410593973
30
0.0000000000
10
181.9969424170
20
100.4081028666
30
0.0000000000
10
181.9783136525
20
100.1206103705
30
0.0000000000
10
181.9571553544
20
99.9813979127
30
0.0000000000
11
180.0961502472
21
102.5060064270
31
0.0000000000
11
180.3739032097
21
102.4986908862
31
0.0000000000
11
180.7343200665
21
102.4080340414
31
0.0000000000
11
181.0716444804
21
102.2300574505
31
0.0000000000
11
181.3717360508
21
101.9733192907
31
0.0000000000
11
181.6240623345
21
101.6463251013
31
0.0000000000
11
181.8170743854
21
101.2607129352
31
0.0000000000
11
181.9391115301
21
100.8375605984
31
0.0000000000
11
181.9848669910
21
100.4029214626
31
0.0000000000
11
181.9571553544
21
99.9813979127
31
0.0000000000
0
SPLINE
5
3CF
100
AcDbEntity
8
0
100
AcDbSpline
62
7
6
CONTINUOUS
70
0
71
3
72
12
73
8
74
6
42
0.0000001000
43
0.0000001000
44
0.0000000001
12
1.4694782827
22
0.1026984795
32
0.0000000000
13
0.2202192617
23
1.4489476583
33
0.0000000000
40
0.0000000000
40
0.0000000000
40
0.0000000000
40
0.0000000000
40
0.1160033921
40
0.3214102350
40
0.5364875316
40
0.7632552532
40
1.0000000000
40
1.0000000000
40
1.0000000000
40
1.0000000000
10
158.6850402548
20
128.0909127004
30
0.0000000000
10
158.7418617433
20
128.0948838244
30
0.0000000000
10
158.8982401399
20
128.1213764179
30
0.0000000000
10
159.1396413103
20
128.2354306992
30
0.0000000000
10
159.3722809779
20
128.4566870422
30
0.0000000000
10
159.5406489072
20
128.7467550091
30
0.0000000000
10
159.6015375260
20
128.9676829923
30
0.0000000000
10
159.6189161104
20
129.0820265745
30
0.0000000000
11
158.6850402548
21
128.0909127004
31
0.0000000000
11
158.8532107285
21
128.1194571220
31
0.0000000000
11
159.1262050999
21
128.2463434569
31
0.0000000000
11
159.3564254610
21
128.4616543648
31
0.0000000000
11
159.5252207274
21
128.7479466364
31
0.0000000000
11
159.6189161104
21
129.0820265745
31
0.0000000000
0
SPLINE
5
3D0
100
AcDbEntity
8
0
100
AcDbSpline
62
7
6
CONTINUOUS
70
0
71
3
72
16
73
12
74
10
42
0.0000001000
43
0.0000001000
44
0.0000000001
12
3.5704188234
22
0.2483252439
32
0.0000000000
13
-0.5363721556
23
-3.5290969975
33
0.0000000000
40
0.0000000000
40
0.0000000000
40
0.0000000000
40
0.0000000000
40
0.0777482708
40
0.1818610669
40
0.2887061020
40
0.3993422854
40
0.5150491168
40
0.6358516358
40
0.7592255691
40
0.8816588567
40
1.0000000000
40
1.0000000000
40
1.0000000000
40
1.0000000000
10
147.5669154947
20
110.6579313719
30
0.0000000000
10
147.6594467912
20
110.6643669914
30
0.0000000000
10
147.8773707830
20
110.6585827116
30
0.0000000000
10
148.2136880901
20
110.5729171227
30
0.0000000000
10
148.5543941685
20
110.3913155968
30
0.0000000000
10
148.8568065319
20
110.1303356331
30
0.0000000000
10
149.1096015142
20
109.8002444623
30
0.0000000000
10
149.3013370568
20
109.4145569409
30
0.0000000000
10
149.4222644389
20
108.9929843422
30
0.0000000000
10
149.4677076645
20
108.5600278114
30
0.0000000000
10
149.4490789000
20
108.2725353154
30
0.0000000000
10
149.4279206020
20
108.1333228575
30
0.0000000000
11
147.5669154947
21
110.6579313719
31
0.0000000000
11
147.8446684572
21
110.6506158310
31
0.0000000000
11
148.2050853141
21
110.5599589863
31
0.0000000000
11
148.5424097279
21
110.3819823954
31
0.0000000000
11
148.8425012984
21
110.1252442356
31
0.0000000000
11
149.0948275820
21
109.7982500462
31
0.0000000000
11
149.2878396329
21
109.4126378801
31
0.0000000000
11
149.4098767777
21
108.9894855433
31
0.0000000000
11
149.4556322385
21
108.5548464075
31
0.0000000000
11
149.4279206020
21
108.1333228575
31
0.0000000000
0
SPLINE
5
3D1
100
AcDbEntity
8
0
100
AcDbSpline
62
7
6
CONTINUOUS
70
0
71
3
72
15
73
11
74
9
42
0.0000001000
43
0.0000001000
44
0.0000000001
12
14.0924796708
22
0.9828580173
32
0.0000000000
13
2.1187133524
23
13.9402190627
33
0.0000000000
40
0.0000000000
40
0.0000000000
40
0.0000000000
40
0.0000000000
40
0.0599341597
40
0.1837429176
40
0.3099230765
40
0.4396662762
40
0.5736596350
40
0.7120395461
40
0.8544246875
40
1.0000000000
40
1.0000000000
40
1.0000000000
40
1.0000000000
10
165.4066570557
20
103.6862077952
30
0.0000000000
10
165.6881973648
20
103.7058433850
30
0.0000000000
10
166.5482479948
20
103.8101720737
30
0.0000000000
10
167.9592008027
20
104.2128151528
30
0.0000000000
10
169.5502260641
20
105.0477127156
30
0.0000000000
10
170.9855004046
20
106.2048357464
30
0.0000000000
10
172.2225147661
20
107.6468174509
30
0.0000000000
10
173.2255035136
20
109.3289397972
30
0.0000000000
10
173.9656777720
20
111.1995151360
30
0.0000000000
10
174.2675183337
20
112.5250072001
30
0.0000000000
10
174.3703291198
20
113.2014577823
30
0.0000000000
11
165.4066570557
21
103.6862077952
31
0.0000000000
11
166.2467633280
21
103.7882023446
31
0.0000000000
11
167.9261633314
21
104.2648877137
31
0.0000000000
11
169.5036387662
21
105.0877176034
31
0.0000000000
11
170.9312588396
21
106.2316907439
31
0.0000000000
11
172.1656460380
21
107.6620480901
31
0.0000000000
11
173.1692941311
21
109.3353289579
31
0.0000000000
11
173.9117077793
21
111.2006915548
31
0.0000000000
11
174.3703291198
21
113.2014577823
31
0.0000000000
0
SPLINE
5
3D2
100
AcDbEntity
8
0
100
AcDbSpline
62
7
6
CONTINUOUS
70
0
71
3
72
14
73
10
74
8
42
0.0000001000
43
0.0000001000
44
0.0000000001
12
-3.6069509667
22
0.2200314713
32
0.0000000000
13
0.5918176065
23
3.6628346064
33
0.0000000000
40
0.0000000000
40
0.0000000000
40
0.0000000000
40
0.0000000000
40
0.1771948699
40
0.3947604565
40
0.5855701130
40
0.7463602116
40
0.8739388136
40
0.9686276936
40
1.0000000000
40
1.0000000000
40
1.0000000000
40
1.0000000000
10
166.7079913881
20
103.8912425164
30
0.0000000000
10
166.4949469857
20
103.9042386657
30
0.0000000000
10
166.0211962323
20
103.9475868978
30
0.0000000000
10
165.3255503566
20
104.0722630578
30
0.0000000000
10
164.6699426028
20
104.2786649058
30
0.0000000000
10
164.1518142882
20
104.5433625938
30
0.0000000000
10
163.7985870124
20
104.8441243873
30
0.0000000000
10
163.6381837506
20
105.1229513176
30
0.0000000000
10
163.6423570697
20
105.2804495128
30
0.0000000000
10
163.6485459642
20
105.3187533694
30
0.0000000000
11
166.7079913881
21
103.8912425164
31
0.0000000000
11
166.0706086910
21
103.9513544988
31
0.0000000000
11
165.2979497360
21
104.0953144460
31
0.0000000000
11
164.6426735202
21
104.3092008790
31
0.0000000000
11
164.1301724747
21
104.5825766510
31
0.0000000000
11
163.7894742962
21
104.8929522351
31
0.0000000000
11
163.6454758510
21
105.2032294314
31
0.0000000000
11
163.6485459642
21
105.3187533694
31
0.0000000000
0
SPLINE
5
3D3
100
AcDbEntity
8
0
100
AcDbSpline
62
7
6
CONTINUOUS
70
0
71
3
72
14
73
10
74
8
42
0.0000001000
43
0.0000001000
44
0.0000000001
12
-10.9662725253
22
-4.1088090789
32
0.0000000000
13
-1.7565448254
23
-11.5573065283
33
0.0000000000
40
0.0000000000
40
0.0000000000
40
0.0000000000
40
0.0000000000
40
0.0154451202
40
0.1676413998
40
0.3241353563
40
0.4857557798
40
0.6526671851
40
0.8244096285
40
1.0000000000
40
1.0000000000
40
1.0000000000
40
1.0000000000
10
166.1271638023
20
127.4451109663
30
0.0000000000
10
166.0707053366
20
127.4239572829
30
0.0000000000
10
165.4603485008
20
127.1878812530
30
0.0000000000
10
164.3344138499
20
126.5970420509
30
0.0000000000
10
162.8991395094
20
125.4399190202
30
0.0000000000
10
161.6621251480
20
123.9979373157
30
0.0000000000
10
160.6591364004
20
122.3158149693
30
0.0000000000
10
159.9189621421
20
120.4452396305
30
0.0000000000
10
159.6171215804
20
119.1197475664
30
0.0000000000
10
159.5143107942
20
118.4432969842
30
0.0000000000
11
166.1271638023
21
127.4451109663
31
0.0000000000
11
165.9584765826
21
127.3798670528
31
0.0000000000
11
164.3810011478
21
126.5570371631
31
0.0000000000
11
162.9533810745
21
125.4130640227
31
0.0000000000
11
161.7189938760
21
123.9827066765
31
0.0000000000
11
160.7153457830
21
122.3094258087
31
0.0000000000
11
159.9729321347
21
120.4440632117
31
0.0000000000
11
159.5143107942
21
118.4432969842
31
0.0000000000
0
SPLINE
5
3D4
100
AcDbEntity
8
0
100
AcDbSpline
62
7
6
CONTINUOUS
70
0
71
3
72
14
73
10
74
8
42
0.0000001000
43
0.0000001000
44
0.0000000001
12
-0.3187611567
22
-2.0973107798
32
0.0000000000
13
2.1270282784
23
0.1486531462
33
0.0000000000
40
0.0000000000
40
0.0000000000
40
0.0000000000
40
0.0000000000
40
0.1673299347
40
0.3343399279
40
0.4970177839
40
0.6524784170
40
0.7998999099
40
0.9410821206
40
1.0000000000
40
1.0000000000
40
1.0000000000
40
1.0000000000
10
157.5775288886
20
129.5936044072
30
0.0000000000
10
157.5597494607
20
129.4766234486
30
0.0000000000
10
157.5525910988
20
129.2376779958
30
0.0000000000
10
157.6246808529
20
128.8904979533
30
0.0000000000
10
157.7741389774
20
128.5776960482
30
0.0000000000
10
157.9904231186
20
128.3240495216
30
0.0000000000
10
158.2581048557
20
128.1505914830
30
0.0000000000
10
158.5006939963
20
128.0883400491
30
0.0000000000
10
158.6432669229
20
128.0879932577
30
0.0000000000
10
158.6850402548
20
128.0909127004
30
0.0000000000
11
157.5775288886
21
129.5936044072
31
0.0000000000
11
157.5665240316
21
129.2388019724
31
0.0000000000
11
157.6391012487
21
128.8920210239
31
0.0000000000
11
157.7893807655
21
128.5813556920
31
0.0000000000
11
158.0051878292
21
128.3319742341
31
0.0000000000
11
158.2690390350
21
128.1640800528
31
0.0000000000
11
158.5595587273
21
128.0912749363
31
0.0000000000
11
158.6850402548
21
128.0909127004
31
0.0000000000
0
SPLINE
5
3D5
100
AcDbEntity
8
0
100
AcDbSpline
62
7
6
CONTINUOUS
70
0
71
3
72
14
73
10
74
8
42
0.0000001000
43
0.0000001000
44
0.0000000001
12
0.3705369314
22
2.4379732553
32
0.0000000000
13
2.4665192195
23
0.1715482180
33
0.0000000000
40
0.0000000000
40
0.0000000000
40
0.0000000000
40
0.0000000000
40
0.1693483826
40
0.3388692593
40
0.5047814895
40
0.6641565097
40
0.8164545817
40
0.9645730815
40
1.0000000000
40
1.0000000000
40
1.0000000000
40
1.0000000000
10
145.9983900693
20
108.9927736166
30
0.0000000000
10
146.0193066793
20
109.1303958924
30
0.0000000000
10
146.0846732715
20
109.4028814044
30
0.0000000000
10
146.2539624950
20
109.7843407421
30
0.0000000000
10
146.4905653758
20
110.1188007061
30
0.0000000000
10
146.7834162705
20
110.3852366556
30
0.0000000000
10
147.1174417583
20
110.5697518509
30
0.0000000000
10
147.3872080159
20
110.6408366314
30
0.0000000000
10
147.5377884362
20
110.6559055637
30
0.0000000000
10
147.5669154947
20
110.6579313719
30
0.0000000000
11
145.9983900693
21
108.9927736166
31
0.0000000000
11
146.0966978209
21
109.3986456955
31
0.0000000000
11
146.2674067084
21
109.7802351180
31
0.0000000000
11
146.5051170929
21
110.1132290618
31
0.0000000000
11
146.7969878231
21
110.3764240015
31
0.0000000000
11
147.1264060426
21
110.5567872018
31
0.0000000000
11
147.4797773029
21
110.6492025925
31
0.0000000000
11
147.5669154947
21
110.6579313719
31
0.0000000000
0
SPLINE
5
3D6
100
AcDbEntity
8
0
100
AcDbSpline
62
7
6
CONTINUOUS
70
0
71
3
72
29
73
25
74
23
42
0.0000001000
43
0.0000001000
44
0.0000000001
12
52.9740388590
22
-13.2754548975
32
0.0000000000
13
-27.9445461362
23
-46.9431521114
33
0.0000000000
40
0.0000000000
40
0.0000000000
40
0.0000000000
40
0.0000000000
40
0.0424130489
40
0.0854009723
40
0.1290678565
40
0.1734890889
40
0.2187097397
40
0.2647444098
40
0.3115782852
40
0.3591691224
40
0.4074499184
40
0.4563320578
40
0.5057087821
40
0.5554588665
40
0.6054504245
40
0.6555447890
40
0.7056004326
40
0.7554769031
40
0.8050387543
40
0.8541594474
40
0.9027251966
40
0.9506387114
40
0.9978227717
40
1.0000000000
40
1.0000000000
40
1.0000000000
40
1.0000000000
10
168.8454142270
20
143.7764201272
30
0.0000000000
10
169.5943443932
20
143.5887359548
30
0.0000000000
10
171.0823908953
20
143.1258583301
30
0.0000000000
10
173.2407318537
20
142.1866624059
30
0.0000000000
10
175.3199139445
20
141.0070985070
30
0.0000000000
10
177.3008105499
20
139.5982200864
30
0.0000000000
10
179.1657341767
20
137.9729826412
30
0.0000000000
10
180.8979587984
20
136.1462640004
30
0.0000000000
10
182.4820124906
20
134.1346892427
30
0.0000000000
10
183.9037517766
20
131.9564989099
30
0.0000000000
10
185.1504890490
20
129.6313914791
30
0.0000000000
10
186.2110961851
20
127.1803570306
30
0.0000000000
10
187.0761024638
20
124.6254970429
30
0.0000000000
10
187.7377787755
20
121.9898326842
30
0.0000000000
10
188.1902077034
20
119.2971029207
30
0.0000000000
10
188.4293375428
20
116.5715546728
30
0.0000000000
10
188.4530193134
20
113.8377273628
30
0.0000000000
10
188.2610260867
20
111.1202343596
30
0.0000000000
10
187.8550543712
20
108.4435438757
30
0.0000000000
10
187.2387076689
20
105.8317618893
30
0.0000000000
10
186.4174627269
20
103.3084196280
30
0.0000000000
10
185.3986194563
20
100.8962680300
30
0.0000000000
10
184.5685886109
20
99.3294126485
30
0.0000000000
10
184.1104257699
20
98.5560531716
30
0.0000000000
10
184.0901452176
20
98.5219845184
30
0.0000000000
11
168.8454142270
21
143.7764201272
31
0.0000000000
11
171.0575935942
21
143.0898648645
31
0.0000000000
11
173.2110354370
21
142.1548736138
31
0.0000000000
11
175.2862378527
21
140.9799138005
31
0.0000000000
11
177.2644074868
21
139.5756260426
31
0.0000000000
11
179.1276297289
21
137.9547277876
31
0.0000000000
11
180.8590309497
21
136.1318981411
31
0.0000000000
11
182.4429313117
21
134.1236449305
31
0.0000000000
11
183.8649867680
21
131.9481552080
31
0.0000000000
11
185.1123189641
21
129.6251305453
31
0.0000000000
11
186.1736318666
21
127.1756086136
31
0.0000000000
11
187.0393140613
21
124.6217726628
31
0.0000000000
11
187.7015257963
21
121.9867506267
31
0.0000000000
11
188.1542699796
21
119.2944056729
31
0.0000000000
11
188.3934464898
21
116.5691200942
31
0.0000000000
11
188.4168893073
21
113.8355744989
31
0.0000000000
11
188.2243861303
21
111.1185242992
31
0.0000000000
11
187.8176802975
21
108.4425755224
31
0.0000000000
11
187.2004549998
21
105.8319619750
31
0.0000000000
11
186.3782999251
21
103.3103257776
31
0.0000000000
11
185.3586606371
21
100.9005032581
31
0.0000000000
11
184.1507711471
21
98.6243181423
31
0.0000000000
11
184.0901452176
21
98.5219845184
31
0.0000000000
0
SPLINE
5
3D7
100
AcDbEntity
8
0
100
AcDbSpline
62
7
6
CONTINUOUS
70
0
71
3
72
19
73
15
74
13
42
0.0000001000
43
0.0000001000
44
0.0000000001
12
-14.3981001877
22
-24.1869094574
32
0.0000000000
13
-27.2942532371
23
6.8400226906
33
0.0000000000
40
0.0000000000
40
0.0000000000
40
0.0000000000
40
0.0000000000
40
0.0858312338
40
0.1743144148
40
0.2612259354
40
0.3466263267
40
0.4306354188
40
0.5134305476
40
0.5952416894
40
0.6763432941
40
0.7570429425
40
0.8376673957
40
0.9185470366
40
1.0000000000
40
1.0000000000
40
1.0000000000
40
1.0000000000
10
184.0901452176
20
98.5219845184
30
0.0000000000
10
183.6782096497
20
97.8299870913
30
0.0000000000
10
182.7813663654
20
96.4603858504
30
0.0000000000
10
181.2553950772
20
94.5387137666
30
0.0000000000
10
179.5530949805
20
92.7765845175
30
0.0000000000
10
177.7143703767
20
91.2212069416
30
0.0000000000
10
175.7557252772
20
89.8869040760
30
0.0000000000
10
173.6948289710
20
88.7860546693
30
0.0000000000
10
171.5503857068
20
87.9289498585
30
0.0000000000
10
169.3419668510
20
87.3236581069
30
0.0000000000
10
167.0898656999
20
86.9758911943
30
0.0000000000
10
164.8147261887
20
86.8889457871
30
0.0000000000
10
162.5378758003
20
87.0635095909
30
0.0000000000
10
161.0389926198
20
87.3519292593
30
0.0000000000
10
160.2979266830
20
87.5376426319
30
0.0000000000
11
184.0901452176
21
98.5219845184
31
0.0000000000
11
182.7655702893
21
96.5023839152
31
0.0000000000
11
181.2156026572
21
94.5539171417
31
0.0000000000
11
179.5149049977
21
92.7965634386
31
0.0000000000
11
177.6788790921
21
91.2462376733
31
0.0000000000
11
175.7241522755
21
89.9169798358
31
0.0000000000
11
173.6684268565
21
88.8208278911
31
0.0000000000
11
171.5303198028
21
87.9677087609
31
0.0000000000
11
169.3291941431
21
87.3653484241
31
0.0000000000
11
167.0849836121
21
87.0192019492
31
0.0000000000
11
164.8180121280
21
86.9324040923
31
0.0000000000
11
162.5488097355
21
87.1057409082
31
0.0000000000
11
160.2979266830
21
87.5376426319
31
0.0000000000
0
SPLINE
5
3D8
100
AcDbEntity
8
0
100
AcDbSpline
62
7
6
CONTINUOUS
70
0
71
3
72
14
73
10
74
8
42
0.0000001000
43
0.0000001000
44
0.0000000001
12
-0.3187611567
22
-2.0973107798
32
0.0000000000
13
2.1270282784
23
0.1486531462
33
0.0000000000
40
0.0000000000
40
0.0000000000
40
0.0000000000
40
0.0000000000
40
0.1673299347
40
0.3343399279
40
0.4970177839
40
0.6524784170
40
0.7998999099
40
0.9410821206
40
1.0000000000
40
1.0000000000
40
1.0000000000
40
1.0000000000
10
169.5244247996
20
102.2320361846
30
0.0000000000
10
169.5066453718
20
102.1150552260
30
0.0000000000
10
169.4994870099
20
101.8761097732
30
0.0000000000
10
169.5715767640
20
101.5289297307
30
0.0000000000
10
169.7210348884
20
101.2161278256
30
0.0000000000
10
169.9373190296
20
100.9624812990
30
0.0000000000
10
170.2050007667
20
100.7890232604
30
0.0000000000
10
170.4475899073
20
100.7267718265
30
0.0000000000
10
170.5901628339
20
100.7264250351
30
0.0000000000
10
170.6319361658
20
100.7293444778
30
0.0000000000
11
169.5244247996
21
102.2320361846
31
0.0000000000
11
169.5134199426
21
101.8772337498
31
0.0000000000
11
169.5859971598
21
101.5304528013
31
0.0000000000
11
169.7362766765
21
101.2197874694
31
0.0000000000
11
169.9520837402
21
100.9704060115
31
0.0000000000
11
170.2159349460
21
100.8025118302
31
0.0000000000
11
170.5064546383
21
100.7297067137
31
0.0000000000
11
170.6319361658
21
100.7293444778
31
0.0000000000
0
SPLINE
5
3D9
100
AcDbEntity
8
0
100
AcDbSpline
62
7
6
CONTINUOUS
70
0
71
3
72
22
73
18
74
16
42
0.0000001000
43
0.0000001000
44
0.0000000001
12
-1.7706209370
22
-11.6499195530
32
0.0000000000
13
1.7706208312
23
11.6499195691
33
0.0000000000
40
0.0000000000
40
0.0000000000
40
0.0000000000
40
0.0000000000
40
0.0691749213
40
0.1384138563
40
0.2061863455
40
0.2712965018
40
0.3335260669
40
0.3940499284
40
0.4545165565
40
0.5161073267
40
0.5793239171
40
0.6447811059
40
0.7132321441
40
0.7846911160
40
0.8576562251
40
0.9300542489
40
1.0000000000
40
1.0000000000
40
1.0000000000
40
1.0000000000
10
171.3385405164
20
137.3135547319
30
0.0000000000
10
171.2977129951
20
137.0449273090
30
0.0000000000
10
171.1697696921
20
136.5131871597
30
0.0000000000
10
170.8398039482
20
135.7684373476
30
0.0000000000
10
170.3778487374
20
135.1156584983
30
0.0000000000
10
169.8064248868
20
134.5952307345
30
0.0000000000
10
169.1542748861
20
134.2349154852
30
0.0000000000
10
168.4510554449
20
134.0494697257
30
0.0000000000
10
167.7261062995
20
134.0470446856
30
0.0000000000
10
167.0136039070
20
134.2284126605
30
0.0000000000
10
166.3481855457
20
134.5830885733
30
0.0000000000
10
165.7575903890
20
135.0928266450
30
0.0000000000
10
165.2639631738
20
135.7375086283
30
0.0000000000
10
164.8897144736
20
136.4906873999
30
0.0000000000
10
164.6537001424
20
137.3137719756
30
0.0000000000
10
164.5651906578
20
138.1588475154
30
0.0000000000
10
164.6015079608
20
138.7199092318
30
0.0000000000
10
164.6427904288
20
138.9915300234
30
0.0000000000
11
171.3385405164
21
137.3135547319
31
0.0000000000
11
171.1464594337
21
136.5213722611
31
0.0000000000
11
170.8134818805
21
135.7765202817
31
0.0000000000
11
170.3495328897
21
135.1264964429
31
0.0000000000
11
169.7799209306
21
134.6124946998
31
0.0000000000
11
169.1367849905
21
134.2602198606
31
0.0000000000
11
168.4468259226
21
134.0796537017
31
0.0000000000
11
167.7343107535
21
134.0767808237
31
0.0000000000
11
167.0304436893
21
134.2537261497
31
0.0000000000
11
166.3715905421
21
134.6013277047
31
0.0000000000
11
165.7855155079
21
135.1027889090
31
0.0000000000
11
165.2928129304
21
135.7414271969
31
0.0000000000
11
164.9160355931
21
136.4944806986
31
0.0000000000
11
164.6778938202
21
137.3206425942
31
0.0000000000
11
164.5887145329
21
138.1690856989
31
0.0000000000
11
164.6427904288
21
138.9915300234
31
0.0000000000
0
SPLINE
5
3DA
100
AcDbEntity
8
0
100
AcDbSpline
62
7
6
CONTINUOUS
70
0
71
3
72
22
73
18
74
16
42
0.0000001000
43
0.0000001000
44
0.0000000001
12
1.7706209370
22
11.6499195530
32
0.0000000000
13
-1.7706208312
23
-11.6499195691
33
0.0000000000
40
0.0000000000
40
0.0000000000
40
0.0000000000
40
0.0000000000
40
0.0691749213
40
0.1384138563
40
0.2061863455
40
0.2712965018
40
0.3335260669
40
0.3940499284
40
0.4545165565
40
0.5161073267
40
0.5793239171
40
0.6447811059
40
0.7132321441
40
0.7846911160
40
0.8576562251
40
0.9300542489
40
1.0000000000
40
1.0000000000
40
1.0000000000
40
1.0000000000
10
164.6427904288
20
138.9915300234
30
0.0000000000
10
164.6836179502
20
139.2601574463
30
0.0000000000
10
164.8115612532
20
139.7918975956
30
0.0000000000
10
165.1415269970
20
140.5366474077
30
0.0000000000
10
165.6034822078
20
141.1894262570
30
0.0000000000
10
166.1749060585
20
141.7098540208
30
0.0000000000
10
166.8270560591
20
142.0701692701
30
0.0000000000
10
167.5302755003
20
142.2556150296
30
0.0000000000
10
168.2552246457
20
142.2580400697
30
0.0000000000
10
168.9677270382
20
142.0766720948
30
0.0000000000
10
169.6331453996
20
141.7219961820
30
0.0000000000
10
170.2237405562
20
141.2122581103
30
0.0000000000
10
170.7173677715
20
140.5675761270
30
0.0000000000
10
171.0916164717
20
139.8143973554
30
0.0000000000
10
171.3276308029
20
138.9913127797
30
0.0000000000
10
171.4161402874
20
138.1462372399
30
0.0000000000
10
171.3798229844
20
137.5851755235
30
0.0000000000
10
171.3385405164
20
137.3135547319
30
0.0000000000
11
164.6427904288
21
138.9915300234
31
0.0000000000
11
164.8348715115
21
139.7837124942
31
0.0000000000
11
165.1678490647
21
140.5285644735
31
0.0000000000
11
165.6317980555
21
141.1785883124
31
0.0000000000
11
166.2014100147
21
141.6925900555
31
0.0000000000
11
166.8445459547
21
142.0448648946
31
0.0000000000
11
167.5345050226
21
142.2254310536
31
0.0000000000
11
168.2470201917
21
142.2283039316
31
0.0000000000
11
168.9508872559
21
142.0513586056
31
0.0000000000
11
169.6097404031
21
141.7037570506
31
0.0000000000
11
170.1958154373
21
141.2022958463
31
0.0000000000
11
170.6885180148
21
140.5636575584
31
0.0000000000
11
171.0652953521
21
139.8106040567
31
0.0000000000
11
171.3034371251
21
138.9844421611
31
0.0000000000
11
171.3926164124
21
138.1359990564
31
0.0000000000
11
171.3385405164
21
137.3135547319
31
0.0000000000
0
SPLINE
5
3DB
100
AcDbEntity
8
0
100
AcDbSpline
62
7
6
CONTINUOUS
70
0
71
3
72
22
73
18
74
16
42
0.0000001000
43
0.0000001000
44
0.0000000001
12
-1.7706209370
22
-11.6499195530
32
0.0000000000
13
1.7706208312
23
11.6499195691
33
0.0000000000
40
0.0000000000
40
0.0000000000
40
0.0000000000
40
0.0000000000
40
0.0691749213
40
0.1384138563
40
0.2061863455
40
0.2712965018
40
0.3335260669
40
0.3940499284
40
0.4545165565
40
0.5161073267
40
0.5793239171
40
0.6447811059
40
0.7132321441
40
0.7846911160
40
0.8576562251
40
0.9300542489
40
1.0000000000
40
1.0000000000
40
1.0000000000
40
1.0000000000
10
182.4746653662
20
99.4943257624
30
0.0000000000
10
182.4338378449
20
99.2256983395
30
0.0000000000
10
182.3058945419
20
98.6939581901
30
0.0000000000
10
181.9759287980
20
97.9492083780
30
0.0000000000
10
181.5139735872
20
97.2964295287
30
0.0000000000
10
180.9425497366
20
96.7760017649
30
0.0000000000
10
180.2903997359
20
96.4156865157
30
0.0000000000
10
179.5871802947
20
96.2302407561
30
0.0000000000
10
178.8622311493
20
96.2278157160
30
0.0000000000
10
178.1497287568
20
96.4091836909
30
0.0000000000
10
177.4843103955
20
96.7638596037
30
0.0000000000
10
176.8937152388
20
97.2735976754
30
0.0000000000
10
176.4000880236
20
97.9182796587
30
0.0000000000
10
176.0258393234
20
98.6714584303
30
0.0000000000
10
175.7898249922
20
99.4945430060
30
0.0000000000
10
175.7013155076
20
100.3396185458
30
0.0000000000
10
175.7376328106
20
100.9006802622
30
0.0000000000
10
175.7789152786
20
101.1723010538
30
0.0000000000
11
182.4746653662
21
99.4943257624
31
0.0000000000
11
182.2825842835
21
98.7021432915
31
0.0000000000
11
181.9496067303
21
97.9572913122
31
0.0000000000
11
181.4856577395
21
97.3072674734
31
0.0000000000
11
180.9160457804
21
96.7932657303
31
0.0000000000
11
180.2729098403
21
96.4409908911
31
0.0000000000
11
179.5829507724
21
96.2604247321
31
0.0000000000
11
178.8704356034
21
96.2575518541
31
0.0000000000
11
178.1665685391
21
96.4344971801
31
0.0000000000
11
177.5077153919
21
96.7820987351
31
0.0000000000
11
176.9216403577
21
97.2835599395
31
0.0000000000
11
176.4289377802
21
97.9221982273
31
0.0000000000
11
176.0521604429
21
98.6752517290
31
0.0000000000
11
175.8140186700
21
99.5014136246
31
0.0000000000
11
175.7248393827
21
100.3498567293
31
0.0000000000
11
175.7789152786
21
101.1723010538
31
0.0000000000
0
SPLINE
5
3DC
100
AcDbEntity
8
0
100
AcDbSpline
62
7
6
CONTINUOUS
70
0
71
3
72
22
73
18
74
16
42
0.0000001000
43
0.0000001000
44
0.0000000001
12
1.7706209370
22
11.6499195530
32
0.0000000000
13
-1.7706208312
23
-11.6499195691
33
0.0000000000
40
0.0000000000
40
0.0000000000
40
0.0000000000
40
0.0000000000
40
0.0691749213
40
0.1384138563
40
0.2061863455
40
0.2712965018
40
0.3335260669
40
0.3940499284
40
0.4545165565
40
0.5161073267
40
0.5793239171
40
0.6447811059
40
0.7132321441
40
0.7846911160
40
0.8576562251
40
0.9300542489
40
1.0000000000
40
1.0000000000
40
1.0000000000
40
1.0000000000
10
175.7789152786
20
101.1723010538
30
0.0000000000
10
175.8197428000
20
101.4409284767
30
0.0000000000
10
175.9476861030
20
101.9726686261
30
0.0000000000
10
176.2776518468
20
102.7174184381
30
0.0000000000
10
176.7396070576
20
103.3701972874
30
0.0000000000
10
177.3110309083
20
103.8906250512
30
0.0000000000
10
177.9631809089
20
104.2509403005
30
0.0000000000
10
178.6664003501
20
104.4363860601
30
0.0000000000
10
179.3913494955
20
104.4388111001
30
0.0000000000
10
180.1038518881
20
104.2574431252
30
0.0000000000
10
180.7692702494
20
103.9027672124
30
0.0000000000
10
181.3598654060
20
103.3930291407
30
0.0000000000
10
181.8534926213
20
102.7483471574
30
0.0000000000
10
182.2277413215
20
101.9951683858
30
0.0000000000
10
182.4637556527
20
101.1720838101
30
0.0000000000
10
182.5522651372
20
100.3270082703
30
0.0000000000
10
182.5159478342
20
99.7659465540
30
0.0000000000
10
182.4746653662
20
99.4943257624
30
0.0000000000
11
175.7789152786
21
101.1723010538
31
0.0000000000
11
175.9709963613
21
101.9644835246
31
0.0000000000
11
176.3039739145
21
102.7093355040
31
0.0000000000
11
176.7679229053
21
103.3593593428
31
0.0000000000
11
177.3375348645
21
103.8733610859
31
0.0000000000
11
177.9806708045
21
104.2256359251
31
0.0000000000
11
178.6706298724
21
104.4062020841
31
0.0000000000
11
179.3831450415
21
104.4090749620
31
0.0000000000
11
180.0870121057
21
104.2321296361
31
0.0000000000
11
180.7458652529
21
103.8845280810
31
0.0000000000
11
181.3319402871
21
103.3830668767
31
0.0000000000
11
181.8246428646
21
102.7444285888
31
0.0000000000
11
182.2014202019
21
101.9913750872
31
0.0000000000
11
182.4395619749
21
101.1652131915
31
0.0000000000
11
182.5287412622
21
100.3167700868
31
0.0000000000
11
182.4746653662
21
99.4943257624
31
0.0000000000
0
SPLINE
5
3DD
100
AcDbEntity
8
0
100
AcDbSpline
62
7
6
CONTINUOUS
70
0
71
3
72
22
73
18
74
16
42
0.0000001000
43
0.0000001000
44
0.0000000001
12
1.7706209370
22
11.6499195530
32
0.0000000000
13
-1.7706208312
23
-11.6499195691
33
0.0000000000
40
0.0000000000
40
0.0000000000
40
0.0000000000
40
0.0000000000
40
0.0691749213
40
0.1384138563
40
0.2061863455
40
0.2712965018
40
0.3335260669
40
0.3940499284
40
0.4545165565
40
0.5161073267
40
0.5793239171
40
0.6447811059
40
0.7132321441
40
0.7846911160
40
0.8576562251
40
0.9300542489
40
1.0000000000
40
1.0000000000
40
1.0000000000
40
1.0000000000
10
143.2496805262
20
109.3242259987
30
0.0000000000
10
143.2905080475
20
109.5928534216
30
0.0000000000
10
143.4184513506
20
110.1245935709
30
0.0000000000
10
143.7484170944
20
110.8693433830
30
0.0000000000
10
144.2103723052
20
111.5221222323
30
0.0000000000
10
144.7817961558
20
112.0425499961
30
0.0000000000
10
145.4339461565
20
112.4028652454
30
0.0000000000
10
146.1371655977
20
112.5883110049
30
0.0000000000
10
146.8621147431
20
112.5907360450
30
0.0000000000
10
147.5746171356
20
112.4093680701
30
0.0000000000
10
148.2400354969
20
112.0546921573
30
0.0000000000
10
148.8306306536
20
111.5449540856
30
0.0000000000
10
149.3242578688
20
110.9002721023
30
0.0000000000
10
149.6985065690
20
110.1470933307
30
0.0000000000
10
149.9345209002
20
109.3240087550
30
0.0000000000
10
150.0230303848
20
108.4789332152
30
0.0000000000
10
149.9867130818
20
107.9178714988
30
0.0000000000
10
149.9454306138
20
107.6462507072
30
0.0000000000
11
143.2496805262
21
109.3242259987
31
0.0000000000
11
143.4417616089
21
110.1164084695
31
0.0000000000
11
143.7747391621
21
110.8612604488
31
0.0000000000
11
144.2386881529
21
111.5112842877
31
0.0000000000
11
144.8083001120
21
112.0252860307
31
0.0000000000
11
145.4514360521
21
112.3775608699
31
0.0000000000
11
146.1413951200
21
112.5581270289
31
0.0000000000
11
146.8539102891
21
112.5609999069
31
0.0000000000
11
147.5577773533
21
112.3840545809
31
0.0000000000
11
148.2166305005
21
112.0364530259
31
0.0000000000
11
148.8027055347
21
111.5349918216
31
0.0000000000
11
149.2954081122
21
110.8963535337
31
0.0000000000
11
149.6721854495
21
110.1433000320
31
0.0000000000
11
149.9103272224
21
109.3171381364
31
0.0000000000
11
149.9995065097
21
108.4686950317
31
0.0000000000
11
149.9454306138
21
107.6462507072
31
0.0000000000
0
SPLINE
5
3DE
100
AcDbEntity
8
0
100
AcDbSpline
62
7
6
CONTINUOUS
70
0
71
3
72
22
73
18
74
16
42
0.0000001000
43
0.0000001000
44
0.0000000001
12
-1.7706209370
22
-11.6499195530
32
0.0000000000
13
1.7706208312
23
11.6499195691
33
0.0000000000
40
0.0000000000
40
0.0000000000
40
0.0000000000
40
0.0000000000
40
0.0691749213
40
0.1384138563
40
0.2061863455
40
0.2712965018
40
0.3335260669
40
0.3940499284
40
0.4545165565
40
0.5161073267
40
0.5793239171
40
0.6447811059
40
0.7132321441
40
0.7846911160
40
0.8576562251
40
0.9300542489
40
1.0000000000
40
1.0000000000
40
1.0000000000
40
1.0000000000
10
149.9454306138
20
107.6462507072
30
0.0000000000
10
149.9046030924
20
107.3776232843
30
0.0000000000
10
149.7766597894
20
106.8458831350
30
0.0000000000
10
149.4466940456
20
106.1011333229
30
0.0000000000
10
148.9847388348
20
105.4483544736
30
0.0000000000
10
148.4133149842
20
104.9279267098
30
0.0000000000
10
147.7611649835
20
104.5676114605
30
0.0000000000
10
147.0579455423
20
104.3821657010
30
0.0000000000
10
146.3329963969
20
104.3797406609
30
0.0000000000
10
145.6204940044
20
104.5611086358
30
0.0000000000
10
144.9550756430
20
104.9157845486
30
0.0000000000
10
144.3644804864
20
105.4255226203
30
0.0000000000
10
143.8708532712
20
106.0702046036
30
0.0000000000
10
143.4966045709
20
106.8233833752
30
0.0000000000
10
143.2605902398
20
107.6464679509
30
0.0000000000
10
143.1720807552
20
108.4915434907
30
0.0000000000
10
143.2083980582
20
109.0526052071
30
0.0000000000
10
143.2496805262
20
109.3242259987
30
0.0000000000
11
149.9454306138
21
107.6462507072
31
0.0000000000
11
149.7533495311
21
106.8540682364
31
0.0000000000
11
149.4203719779
21
106.1092162570
31
0.0000000000
11
148.9564229871
21
105.4591924182
31
0.0000000000
11
148.3868110279
21
104.9451906751
31
0.0000000000
11
147.7436750879
21
104.5929158359
31
0.0000000000
11
147.0537160200
21
104.4123496770
31
0.0000000000
11
146.3412008509
21
104.4094767990
31
0.0000000000
11
145.6373337867
21
104.5864221250
31
0.0000000000
11
144.9784806395
21
104.9340236800
31
0.0000000000
11
144.3924056053
21
105.4354848843
31
0.0000000000
11
143.8997030278
21
106.0741231722
31
0.0000000000
11
143.5229256905
21
106.8271766739
31
0.0000000000
11
143.2847839175
21
107.6533385695
31
0.0000000000
11
143.1956046302
21
108.5017816742
31
0.0000000000
11
143.2496805262
21
109.3242259987
31
0.0000000000
0
SPLINE
5
3DF
100
AcDbEntity
8
0
100
AcDbSpline
62
7
6
CONTINUOUS
70
0
71
3
72
10
73
6
74
4
42
0.0000001000
43
0.0000001000
44
0.0000000001
12
0.1457586122
22
0.9021186310
32
0.0000000000
13
0.8875654945
23
0.0619051477
33
0.0000000000
40
0.0000000000
40
0.0000000000
40
0.0000000000
40
0.0000000000
40
0.1786807109
40
0.5263276810
40
1.0000000000
40
1.0000000000
40
1.0000000000
40
1.0000000000
10
163.6485459642
20
105.3187533694
30
0.0000000000
10
163.6572273817
20
105.3724837688
30
0.0000000000
10
163.7126511395
20
105.5255834249
30
0.0000000000
10
163.9829417093
20
105.6936240166
30
0.0000000000
10
164.2248065895
20
105.7309234953
30
0.0000000000
10
164.3649449916
20
105.7406977469
30
0.0000000000
11
163.6485459642
21
105.3187533694
31
0.0000000000
11
163.7048666110
21
105.4689825000
31
0.0000000000
11
163.9524382557
21
105.6544019631
31
0.0000000000
11
164.3649449916
21
105.7406977469
31
0.0000000000
0
SPLINE
5
3E0
100
AcDbEntity
8
0
100
AcDbSpline
62
7
6
CONTINUOUS
70
0
71
3
72
38
73
34
74
32
42
0.0000001000
43
0.0000001000
44
0.0000000001
12
78.9132621724
22
-19.7759029771
32
0.0000000000
13
-79.6174456981
23
-16.9047176034
33
0.0000000000
40
0.0000000000
40
0.0000000000
40
0.0000000000
40
0.0000000000
40
0.0296368956
40
0.0596482967
40
0.0901003518
40
0.1210425497
40
0.1525067019
40
0.1845067101
40
0.2170389945
40
0.2500834475
40
0.2836047851
40
0.3175541861
40
0.3518711336
40
0.3864853902
40
0.4213190635
40
0.4562887248
40
0.4913075613
40
0.5262875454
40
0.5611416088
40
0.5957858134
40
0.6301415051
40
0.6641374391
40
0.6977118514
40
0.7308144480
40
0.7634082647
40
0.7954713339
40
0.8269980756
40
0.8580003036
40
0.8885077229
40
0.9185677819
40
0.9482447521
40
0.9776179437
40
1.0000000000
40
1.0000000000
40
1.0000000000
40
1.0000000000
10
170.9647697474
20
146.8273320400
30
0.0000000000
10
171.7443511178
20
146.6319665828
30
0.0000000000
10
173.2937276083
20
146.1554815862
30
0.0000000000
10
175.5467538033
20
145.1999000958
30
0.0000000000
10
177.7243330132
20
144.0072649161
30
0.0000000000
10
179.8086398578
20
142.5874988952
30
0.0000000000
10
181.7831004698
20
140.9522029865
30
0.0000000000
10
183.6319424039
20
139.1146904603
30
0.0000000000
10
185.3404557630
20
137.0898404947
30
0.0000000000
10
186.8950533121
20
134.8939930064
30
0.0000000000
10
188.2833800439
20
132.5448215507
30
0.0000000000
10
189.4944021610
20
130.0612000697
30
0.0000000000
10
190.5184927328
20
127.4630586112
30
0.0000000000
10
191.3475071540
20
124.7712297753
30
0.0000000000
10
191.9748483223
20
122.0072865659
30
0.0000000000
10
192.3955199239
20
119.1933731321
30
0.0000000000
10
192.6061670046
20
116.3520299807
30
0.0000000000
10
192.6051031526
20
113.5060154004
30
0.0000000000
10
192.3923239130
20
110.6781248954
30
0.0000000000
10
191.9695062891
20
107.8910104627
30
0.0000000000
10
191.3399944365
20
105.1670015490
30
0.0000000000
10
190.5087719152
20
102.5279295004
30
0.0000000000
10
189.4824211582
20
99.9949572397
30
0.0000000000
10
188.2690711386
20
97.5884157428
30
0.0000000000
10
186.8783345416
20
95.3276485865
30
0.0000000000
10
185.3212360233
20
93.2308653535
30
0.0000000000
10
183.6101332234
20
91.3150039768
30
0.0000000000
10
181.7586319609
20
89.5956012209
30
0.0000000000
10
179.7814960952
20
88.0866696717
30
0.0000000000
10
177.6945514789
20
86.8005790559
30
0.0000000000
10
175.5145798721
20
85.7479406212
30
0.0000000000
10
173.4325284293
20
84.9997766659
30
0.0000000000
10
172.0710431827
20
84.6513360730
30
0.0000000000
10
171.4770424662
20
84.5252152928
30
0.0000000000
11
170.9647697474
21
146.8273320400
31
0.0000000000
11
173.2697240792
21
146.1199293942
31
0.0000000000
11
175.5181200277
21
145.1681971245
31
0.0000000000
11
177.6918548307
21
143.9797980198
31
0.0000000000
11
179.7734268536
21
142.5643003707
31
0.0000000000
11
181.7460765026
21
140.9331009320
31
0.0000000000
11
183.5939211624
21
139.0993331626
31
0.0000000000
11
185.3020830745
21
137.0777614822
31
0.0000000000
11
186.8568091235
21
134.8846623974
31
0.0000000000
11
188.2455815694
21
132.5376934524
31
0.0000000000
11
189.4572188331
21
130.0557510612
31
0.0000000000
11
190.4819655237
21
127.4588183647
31
0.0000000000
11
191.3115709835
21
124.7678043378
31
0.0000000000
11
191.9393557170
21
122.0043754432
31
0.0000000000
11
192.3602651708
21
119.1907811856
31
0.0000000000
11
192.5709104294
21
116.3496749715
31
0.0000000000
11
192.5695955010
21
113.5039317176
31
0.0000000000
11
192.3563309727
21
110.6764636754
31
0.0000000000
11
191.9328339250
21
107.8900359549
31
0.0000000000
11
191.3025141072
21
105.1670832339
31
0.0000000000
11
190.4704464839
21
102.5295291264
31
0.0000000000
11
189.4433303742
21
99.9986096674
31
0.0000000000
11
188.2294355131
21
97.5947023322
31
0.0000000000
11
186.8385354684
21
95.3371619692
31
0.0000000000
11
185.2818289494
21
93.2441649659
31
0.0000000000
11
183.5718496415
21
91.3325629035
31
0.0000000000
11
181.7223652928
21
89.6177468780
31
0.0000000000
11
179.7482668637
21
88.1135235795
31
0.0000000000
11
177.6654486340
21
86.8320041297
31
0.0000000000
11
175.4906802315
21
85.7835065696
31
0.0000000000
11
173.2414716126
21
84.9764727851
31
0.0000000000
11
171.4770424662
21
84.5252152928
31
0.0000000000
0
SPLINE
5
3E1
100
AcDbEntity
8
0
100
AcDbSpline
62
7
6
CONTINUOUS
70
0
71
3
72
10
73
6
74
4
42
0.0000001000
43
0.0000001000
44
0.0000000001
12
-2.9883682057
22
-0.6345031566
32
0.0000000000
13
-3.0476395185
23
-0.2125235665
33
0.0000000000
40
0.0000000000
40
0.0000000000
40
0.0000000000
40
0.0000000000
40
0.1806100633
40
0.9545610312
40
1.0000000000
40
1.0000000000
40
1.0000000000
40
1.0000000000
10
171.4770424662
20
84.5252152928
30
0.0000000000
10
171.2971326760
20
84.4870160744
30
0.0000000000
10
170.3437451268
20
84.2970358253
30
0.0000000000
10
169.3325514210
20
84.1646096757
30
0.0000000000
10
168.5003352406
20
84.1039122068
30
0.0000000000
10
168.4541747082
20
84.1006932562
30
0.0000000000
11
171.4770424662
21
84.5252152928
31
0.0000000000
11
170.9359320826
21
84.4174005377
31
0.0000000000
11
168.5926244900
21
84.1107911483
31
0.0000000000
11
168.4541747082
21
84.1006932562
31
0.0000000000
0
SPLINE
5
3E2
100
AcDbEntity
8
0
100
AcDbSpline
62
7
6
CONTINUOUS
70
0
71
3
72
18
73
14
74
12
42
0.0000001000
43
0.0000001000
44
0.0000000001
12
-3.0665386152
22
-20.1765000501
32
0.0000000000
13
20.3968757955
23
1.4225482933
33
0.0000000000
40
0.0000000000
40
0.0000000000
40
0.0000000000
40
0.0000000000
40
0.1019984346
40
0.2044933027
40
0.3065160336
40
0.4071423036
40
0.5055819127
40
0.6012650945
40
0.6939199883
40
0.7836313167
40
0.8708643234
40
0.9564344521
40
1.0000000000
40
1.0000000000
40
1.0000000000
40
1.0000000000
10
154.7730117902
20
118.1126049768
30
0.0000000000
10
154.6687510775
20
117.4266145034
30
0.0000000000
10
154.5616759343
20
116.0337518385
30
0.0000000000
10
154.7035179865
20
113.9465505562
30
0.0000000000
10
155.1423685400
20
111.9100524670
30
0.0000000000
10
155.8655229988
20
109.9855805773
30
0.0000000000
10
156.8519872203
20
108.2305234657
30
0.0000000000
10
158.0732437069
20
106.6977575907
30
0.0000000000
10
159.4939334402
20
105.4340855292
30
0.0000000000
10
161.0725359927
20
104.4791654165
30
0.0000000000
10
162.7619123462
20
103.8642944933
30
0.0000000000
10
164.2291719113
20
103.6515439205
30
0.0000000000
10
165.1104566991
20
103.6655497633
30
0.0000000000
10
165.4066570557
20
103.6862077952
30
0.0000000000
11
154.7730117902
21
118.1126049768
31
0.0000000000
11
154.6121177349
21
116.0372273881
31
0.0000000000
11
154.7538396493
21
113.9502977361
31
0.0000000000
11
155.1938713846
21
111.9152263222
31
0.0000000000
11
155.9188427992
21
109.9938477615
31
0.0000000000
11
156.9067260037
21
108.2445421694
31
0.0000000000
11
158.1275046666
21
106.7204613110
31
0.0000000000
11
159.5440860461
21
105.4679136120
31
0.0000000000
11
161.1134280338
21
104.5249571004
31
0.0000000000
11
162.7878469676
21
103.9202430327
31
0.0000000000
11
164.5164664753
21
103.6721453398
31
0.0000000000
11
165.4066570557
21
103.6862077952
31
0.0000000000
0
SPLINE
5
3E3
100
AcDbEntity
8
0
100
AcDbSpline
62
7
6
CONTINUOUS
70
0
71
3
72
12
73
8
74
6
42
0.0000001000
43
0.0000001000
44
0.0000000001
12
-1.4694782827
22
-0.1026984795
32
0.0000000000
13
-0.2202192617
23
-1.4489476583
33
0.0000000000
40
0.0000000000
40
0.0000000000
40
0.0000000000
40
0.0000000000
40
0.1160033921
40
0.3214102350
40
0.5364875316
40
0.7632552532
40
1.0000000000
40
1.0000000000
40
1.0000000000
40
1.0000000000
10
170.4583006552
20
103.2231500587
30
0.0000000000
10
170.4014791667
20
103.2191789347
30
0.0000000000
10
170.2451007702
20
103.1926863412
30
0.0000000000
10
170.0036995998
20
103.0786320599
30
0.0000000000
10
169.7710599321
20
102.8573757169
30
0.0000000000
10
169.6026920028
20
102.5673077500
30
0.0000000000
10
169.5418033841
20
102.3463797668
30
0.0000000000
10
169.5244247996
20
102.2320361846
30
0.0000000000
11
170.4583006552
21
103.2231500587
31
0.0000000000
11
170.2901301815
21
103.1946056371
31
0.0000000000
11
170.0171358102
21
103.0677193022
31
0.0000000000
11
169.7869154490
21
102.8524083943
31
0.0000000000
11
169.6181201826
21
102.5661161227
31
0.0000000000
11
169.5244247996
21
102.2320361846
31
0.0000000000
0
SPLINE
5
3E4
100
AcDbEntity
8
0
100
AcDbSpline
62
7
6
CONTINUOUS
70
0
71
3
72
16
73
12
74
10
42
0.0000001000
43
0.0000001000
44
0.0000000001
12
-3.5704263761
22
-0.2483392567
32
0.0000000000
13
0.5363734152
23
3.5291056796
33
0.0000000000
40
0.0000000000
40
0.0000000000
40
0.0000000000
40
0.0000000000
40
0.0777486413
40
0.1818577661
40
0.2887032800
40
0.3993388829
40
0.5150439691
40
0.6358493978
40
0.7592224584
40
0.8816561379
40
1.0000000000
40
1.0000000000
40
1.0000000000
40
1.0000000000
10
169.2524970830
20
136.1354681382
30
0.0000000000
10
169.1599651499
20
136.1290321250
30
0.0000000000
10
168.9420439529
20
136.1348157380
30
0.0000000000
10
168.6057309968
20
136.2204873079
30
0.0000000000
10
168.2650276667
20
136.4020837310
30
0.0000000000
10
167.9626113236
20
136.6630616919
30
0.0000000000
10
167.7098406753
20
136.9931678002
30
0.0000000000
10
167.5180429953
20
137.3788314045
30
0.0000000000
10
167.3971888754
20
137.8004213621
30
0.0000000000
10
167.3515674729
20
138.2333689903
30
0.0000000000
10
167.3703411381
20
138.5208616427
30
0.0000000000
10
167.3914999719
20
138.6600776413
30
0.0000000000
11
169.2524970830
21
136.1354681382
31
0.0000000000
11
168.9747419688
21
136.1427839600
31
0.0000000000
11
168.6143379083
21
136.2334416973
31
0.0000000000
11
168.2770103875
21
136.4114180714
31
0.0000000000
11
167.9769203591
21
136.6681563388
31
0.0000000000
11
167.7246034591
21
136.9951511827
31
0.0000000000
11
167.5315616972
21
137.3807612765
31
0.0000000000
11
167.4095342284
21
137.8039142882
31
0.0000000000
11
167.3637089274
21
138.2385485528
31
0.0000000000
11
167.3914999719
21
138.6600776413
31
0.0000000000
0
SPLINE
5
3E5
100
AcDbEntity
8
0
100
AcDbSpline
62
7
6
CONTINUOUS
70
0
71
3
72
10
73
6
74
4
42
0.0000001000
43
0.0000001000
44
0.0000000001
12
-6.7726313186
22
1.6972419612
32
0.0000000000
13
-6.9685940738
23
-0.4859467325
33
0.0000000000
40
0.0000000000
40
0.0000000000
40
0.0000000000
40
0.0000000000
40
0.3419020058
40
0.6814658351
40
1.0000000000
40
1.0000000000
40
1.0000000000
40
1.0000000000
10
170.9647697474
20
146.8273320400
30
0.0000000000
10
170.1929110033
20
147.0207621836
30
0.0000000000
10
168.6329805194
20
147.3260407953
30
0.0000000000
10
166.3100114753
20
147.5269618593
30
0.0000000000
10
164.7758772634
20
147.4983960341
30
0.0000000000
10
164.0359654987
20
147.4467991552
30
0.0000000000
11
170.9647697474
21
146.8273320400
31
0.0000000000
11
168.6218151691
21
147.2847094720
31
0.0000000000
11
166.2597244371
21
147.4883791558
31
0.0000000000
11
164.0359654987
21
147.4467991552
31
0.0000000000
0
SPLINE
5
3E6
100
AcDbEntity
8
0
100
AcDbSpline
62
7
6
CONTINUOUS
70
0
71
3
72
12
73
8
74
6
42
0.0000001000
43
0.0000001000
44
0.0000000001
12
-1.4694782827
22
-0.1026984795
32
0.0000000000
13
-0.2202192617
23
-1.4489476583
33
0.0000000000
40
0.0000000000
40
0.0000000000
40
0.0000000000
40
0.0000000000
40
0.1160033921
40
0.3214102350
40
0.5364875316
40
0.7632552532
40
1.0000000000
40
1.0000000000
40
1.0000000000
40
1.0000000000
10
158.5114047442
20
130.5847182813
30
0.0000000000
10
158.4545832557
20
130.5807471573
30
0.0000000000
10
158.2982048591
20
130.5542545638
30
0.0000000000
10
158.0568036887
20
130.4402002824
30
0.0000000000
10
157.8241640211
20
130.2189439395
30
0.0000000000
10
157.6557960918
20
129.9288759726
30
0.0000000000
10
157.5949074730
20
129.7079479894
30
0.0000000000
10
157.5775288886
20
129.5936044072
30
0.0000000000
11
158.5114047442
21
130.5847182813
31
0.0000000000
11
158.3432342705
21
130.5561738597
31
0.0000000000
11
158.0702398991
21
130.4292875248
31
0.0000000000
11
157.8400195380
21
130.2139766169
31
0.0000000000
11
157.6712242716
21
129.9276843453
31
0.0000000000
11
157.5775288886
21
129.5936044072
31
0.0000000000
0
SPLINE
5
3E7
100
AcDbEntity
8
0
100
AcDbSpline
62
7
6
CONTINUOUS
70
0
71
3
72
16
73
12
74
10
42
0.0000001000
43
0.0000001000
44
0.0000000001
12
-3.5704263761
22
-0.2483392567
32
0.0000000000
13
0.5363734152
23
3.5291056796
33
0.0000000000
40
0.0000000000
40
0.0000000000
40
0.0000000000
40
0.0000000000
40
0.0777486413
40
0.1818577661
40
0.2887032800
40
0.3993388829
40
0.5150439691
40
0.6358493978
40
0.7592224584
40
0.8816561379
40
1.0000000000
40
1.0000000000
40
1.0000000000
40
1.0000000000
10
180.3886219328
20
98.3162391687
30
0.0000000000
10
180.2960899997
20
98.3098031554
30
0.0000000000
10
180.0781688027
20
98.3155867684
30
0.0000000000
10
179.7418558466
20
98.4012583383
30
0.0000000000
10
179.4011525165
20
98.5828547614
30
0.0000000000
10
179.0987361734
20
98.8438327223
30
0.0000000000
10
178.8459655251
20
99.1739388306
30
0.0000000000
10
178.6541678451
20
99.5596024349
30
0.0000000000
10
178.5333137252
20
99.9811923925
30
0.0000000000
10
178.4876923227
20
100.4141400208
30
0.0000000000
10
178.5064659879
20
100.7016326731
30
0.0000000000
10
178.5276248217
20
100.8408486717
30
0.0000000000
11
180.3886219328
21
98.3162391687
31
0.0000000000
11
180.1108668186
21
98.3235549904
31
0.0000000000
11
179.7504627581
21
98.4142127277
31
0.0000000000
11
179.4131352373
21
98.5921891018
31
0.0000000000
11
179.1130452089
21
98.8489273692
31
0.0000000000
11
178.8607283089
21
99.1759222131
31
0.0000000000
11
178.6676865470
21
99.5615323069
31
0.0000000000
11
178.5456590782
21
99.9846853186
31
0.0000000000
11
178.4998337772
21
100.4193195832
31
0.0000000000
11
178.5276248217
21
100.8408486717
31
0.0000000000
0
SPLINE
5
3E8
100
AcDbEntity
8
0
100
AcDbSpline
62
7
6
CONTINUOUS
70
0
71
3
72
14
73
10
74
8
42
0.0000001000
43
0.0000001000
44
0.0000000001
12
0.3705369314
22
2.4379732553
32
0.0000000000
13
2.4665192195
23
0.1715482180
33
0.0000000000
40
0.0000000000
40
0.0000000000
40
0.0000000000
40
0.0000000000
40
0.1693483826
40
0.3388692593
40
0.5047814895
40
0.6641565097
40
0.8164545817
40
0.9645730815
40
1.0000000000
40
1.0000000000
40
1.0000000000
40
1.0000000000
10
167.3914999719
20
138.6600776413
30
0.0000000000
10
167.4124165819
20
138.7976999171
30
0.0000000000
10
167.4777831741
20
139.0701854291
30
0.0000000000
10
167.6470723976
20
139.4516447668
30
0.0000000000
10
167.8836752785
20
139.7861047308
30
0.0000000000
10
168.1765261731
20
140.0525406803
30
0.0000000000
10
168.5105516609
20
140.2370558756
30
0.0000000000
10
168.7803179185
20
140.3081406561
30
0.0000000000
10
168.9308983389
20
140.3232095884
30
0.0000000000
10
168.9600253974
20
140.3252353966
30
0.0000000000
11
167.3914999719
21
138.6600776413
31
0.0000000000
11
167.4898077235
21
139.0659497202
31
0.0000000000
11
167.6605166110
21
139.4475391427
31
0.0000000000
11
167.8982269955
21
139.7805330865
31
0.0000000000
11
168.1900977257
21
140.0437280262
31
0.0000000000
11
168.5195159453
21
140.2240912265
31
0.0000000000
11
168.8728872056
21
140.3165066172
31
0.0000000000
11
168.9600253974
21
140.3252353966
31
0.0000000000
0
SPLINE
5
3E9
100
AcDbEntity
8
0
100
AcDbSpline
62
7
6
CONTINUOUS
70
0
71
3
72
40
73
36
74
34
42
0.0000001000
43
0.0000001000
44
0.0000000001
12
-80.2682920961
22
20.1154775881
32
0.0000000000
13
80.2682920961
23
-20.1154775881
33
0.0000000000
40
0.0000000000
40
0.0000000000
40
0.0000000000
40
0.0000000000
40
0.0276970863
40
0.0551992212
40
0.0826145827
40
0.1100555134
40
0.1376331244
40
0.1654520048
40
0.1936054781
40
0.2221717447
40
0.2512111056
40
0.2807643077
40
0.3108519336
40
0.3414746857
40
0.3726143821
40
0.4042354908
40
0.4362870496
40
0.4687048505
40
0.5014137989
40
0.5343303843
40
0.5673652171
40
0.6004256042
40
0.6334181430
40
0.6662513182
40
0.6988380900
40
0.7310984543
40
0.7629619548
40
0.7943701086
40
0.8252786962
40
0.8556598385
40
0.8855037588
40
0.9148200931
40
0.9436385862
40
0.9720089909
40
1.0000000000
40
1.0000000000
40
1.0000000000
40
1.0000000000
10
168.8454142270
20
143.7764201272
30
0.0000000000
10
168.1043482902
20
143.9621334998
30
0.0000000000
10
166.6054651097
20
144.2505531682
30
0.0000000000
10
164.3286147213
20
144.4251169721
30
0.0000000000
10
162.0534752101
20
144.3381715648
30
0.0000000000
10
159.8013740590
20
143.9904046522
30
0.0000000000
10
157.5929552033
20
143.3851129006
30
0.0000000000
10
155.4485119390
20
142.5280080898
30
0.0000000000
10
153.3876156328
20
141.4271586831
30
0.0000000000
10
151.4289705333
20
140.0928558175
30
0.0000000000
10
149.5902459296
20
138.5374782416
30
0.0000000000
10
147.8879458328
20
136.7753489925
30
0.0000000000
10
146.3372899551
20
134.8225913392
30
0.0000000000
10
144.9521049079
20
132.6969814280
30
0.0000000000
10
143.7447214537
20
130.4177947291
30
0.0000000000
10
142.7258781831
20
128.0056431311
30
0.0000000000
10
141.9046332411
20
125.4823008698
30
0.0000000000
10
141.2882865389
20
122.8705188834
30
0.0000000000
10
140.8823148233
20
120.1938283995
30
0.0000000000
10
140.6903215966
20
117.4763353963
30
0.0000000000
10
140.7140033673
20
114.7425080863
30
0.0000000000
10
140.9531332066
20
112.0169598384
30
0.0000000000
10
141.4055621345
20
109.3242300749
30
0.0000000000
10
142.0672384462
20
106.6885657162
30
0.0000000000
10
142.9322447249
20
104.1337057285
30
0.0000000000
10
143.9928518610
20
101.6826712800
30
0.0000000000
10
145.2395891334
20
99.3575638492
30
0.0000000000
10
146.6613284194
20
97.1793735164
30
0.0000000000
10
148.2453821116
20
95.1677987587
30
0.0000000000
10
149.9776067333
20
93.3410801179
30
0.0000000000
10
151.8425303601
20
91.7158426727
30
0.0000000000
10
153.8234269655
20
90.3069642521
30
0.0000000000
10
155.9026090563
20
89.1274003532
30
0.0000000000
10
158.0609500147
20
88.1882044290
30
0.0000000000
10
159.5489965169
20
87.7253268043
30
0.0000000000
10
160.2979266830
20
87.5376426319
30
0.0000000000
11
168.8454142270
21
143.7764201272
31
0.0000000000
11
166.5945311745
21
144.2083218509
31
0.0000000000
11
164.3253287820
21
144.3816586668
31
0.0000000000
11
162.0583572979
21
144.2948608099
31
0.0000000000
11
159.8141467670
21
143.9487143351
31
0.0000000000
11
157.6130211072
21
143.3463539982
31
0.0000000000
11
155.4749140536
21
142.4932348680
31
0.0000000000
11
153.4191886345
21
141.3970829233
31
0.0000000000
11
151.4644618179
21
140.0678250858
31
0.0000000000
11
149.6284359123
21
138.5174993205
31
0.0000000000
11
147.9277382528
21
136.7601456174
31
0.0000000000
11
146.3777706207
21
134.8116788439
31
0.0000000000
11
144.9925697629
21
132.6897446168
31
0.0000000000
11
143.7846802729
21
130.4135595010
31
0.0000000000
11
142.7650409849
21
128.0037369815
31
0.0000000000
11
141.9428859102
21
125.4821007841
31
0.0000000000
11
141.3256606125
21
122.8714872367
31
0.0000000000
11
140.9189547797
21
120.1955384599
31
0.0000000000
11
140.7264516027
21
117.4784882602
31
0.0000000000
11
140.7498944202
21
114.7449426649
31
0.0000000000
11
140.9890709304
21
112.0196570862
31
0.0000000000
11
141.4418151137
21
109.3273121324
31
0.0000000000
11
142.1040268487
21
106.6922900963
31
0.0000000000
11
142.9697090435
21
104.1384541455
31
0.0000000000
11
144.0310219459
21
101.6889322138
31
0.0000000000
11
145.2783541420
21
99.3659075511
31
0.0000000000
11
146.7004095983
21
97.1904178286
31
0.0000000000
11
148.2843099603
21
95.1821646180
31
0.0000000000
11
150.0157111812
21
93.3593349715
31
0.0000000000
11
151.8789334232
21
91.7384367165
31
0.0000000000
11
153.8571030574
21
90.3341489586
31
0.0000000000
11
155.9323054731
21
89.1591891453
31
0.0000000000
11
158.0857473159
21
88.2241978946
31
0.0000000000
11
160.2979266830
21
87.5376426319
31
0.0000000000
0
SPLINE
5
3EA
100
AcDbEntity
8
0
100
AcDbSpline
62
7
6
CONTINUOUS
70
0
71
3
72
14
73
10
74
8
42
0.0000001000
43
0.0000001000
44
0.0000000001
12
0.3705369314
22
2.4379732553
32
0.0000000000
13
2.4665192195
23
0.1715482180
33
0.0000000000
40
0.0000000000
40
0.0000000000
40
0.0000000000
40
0.0000000000
40
0.1693483826
40
0.3388692593
40
0.5047814895
40
0.6641565097
40
0.8164545817
40
0.9645730815
40
1.0000000000
40
1.0000000000
40
1.0000000000
40
1.0000000000
10
178.5276248217
20
100.8408486717
30
0.0000000000
10
178.5485414317
20
100.9784709475
30
0.0000000000
10
178.6139080239
20
101.2509564596
30
0.0000000000
10
178.7831972474
20
101.6324157972
30
0.0000000000
10
179.0198001283
20
101.9668757612
30
0.0000000000
10
179.3126510229
20
102.2333117107
30
0.0000000000
10
179.6466765107
20
102.4178269060
30
0.0000000000
10
179.9164427683
20
102.4889116865
30
0.0000000000
10
180.0670231887
20
102.5039806188
30
0.0000000000
10
180.0961502472
20
102.5060064270
30
0.0000000000
11
178.5276248217
21
100.8408486717
31
0.0000000000
11
178.6259325734
21
101.2467207506
31
0.0000000000
11
178.7966414608
21
101.6283101731
31
0.0000000000
11
179.0343518453
21
101.9613041170
31
0.0000000000
11
179.3262225755
21
102.2244990566
31
0.0000000000
11
179.6556407951
21
102.4048622570
31
0.0000000000
11
180.0090120554
21
102.4972776476
31
0.0000000000
11
180.0961502472
21
102.5060064270
31
0.0000000000
0
SPLINE
5
3EB
100
AcDbEntity
8
0
100
AcDbSpline
62
7
6
CONTINUOUS
70
0
71
3
72
16
73
12
74
10
42
0.0000001000
43
0.0000001000
44
0.0000000001
12
-3.5704263761
22
-0.2483392567
32
0.0000000000
13
0.5363734152
23
3.5291056796
33
0.0000000000
40
0.0000000000
40
0.0000000000
40
0.0000000000
40
0.0000000000
40
0.0777486413
40
0.1818577661
40
0.2887032800
40
0.3993388829
40
0.5150439691
40
0.6358493978
40
0.7592224584
40
0.8816561379
40
1.0000000000
40
1.0000000000
40
1.0000000000
40
1.0000000000
10
147.8593871804
20
106.4681641135
30
0.0000000000
10
147.7668552472
20
106.4617281003
30
0.0000000000
10
147.5489340502
20
106.4675117133
30
0.0000000000
10
147.2126210941
20
106.5531832832
30
0.0000000000
10
146.8719177640
20
106.7347797063
30
0.0000000000
10
146.5695014210
20
106.9957576672
30
0.0000000000
10
146.3167307727
20
107.3258637755
30
0.0000000000
10
146.1249330926
20
107.7115273798
30
0.0000000000
10
146.0040789728
20
108.1331173374
30
0.0000000000
10
145.9584575703
20
108.5660649656
30
0.0000000000
10
145.9772312355
20
108.8535576180
30
0.0000000000
10
145.9983900693
20
108.9927736166
30
0.0000000000
11
147.8593871804
21
106.4681641135
31
0.0000000000
11
147.5816320662
21
106.4754799353
31
0.0000000000
11
147.2212280057
21
106.5661376726
31
0.0000000000
11
146.8839004849
21
106.7441140467
31
0.0000000000
11
146.5838104565
21
107.0008523141
31
0.0000000000
11
146.3314935565
21
107.3278471580
31
0.0000000000
11
146.1384517946
21
107.7134572518
31
0.0000000000
11
146.0164243258
21
108.1366102635
31
0.0000000000
11
145.9705990248
21
108.5712445281
31
0.0000000000
11
145.9983900693
21
108.9927736166
31
0.0000000000
0
SPLINE
5
3EC
100
AcDbEntity
8
0
100
AcDbSpline
62
7
6
CONTINUOUS
70
0
71
3
72
15
73
11
74
9
42
0.0000001000
43
0.0000001000
44
0.0000000001
12
-14.0924796708
22
-0.9828580173
32
0.0000000000
13
-2.1187133524
23
-13.9402190627
33
0.0000000000
40
0.0000000000
40
0.0000000000
40
0.0000000000
40
0.0000000000
40
0.0599341597
40
0.1837429176
40
0.3099230765
40
0.4396662762
40
0.5736596350
40
0.7120395461
40
0.8544246875
40
1.0000000000
40
1.0000000000
40
1.0000000000
40
1.0000000000
10
163.7366838544
20
127.6278549639
30
0.0000000000
10
163.4551435452
20
127.6082193741
30
0.0000000000
10
162.5950929152
20
127.5038906854
30
0.0000000000
10
161.1841401073
20
127.1012476063
30
0.0000000000
10
159.5931148459
20
126.2663500435
30
0.0000000000
10
158.1578405054
20
125.1092270127
30
0.0000000000
10
156.9208261440
20
123.6672453082
30
0.0000000000
10
155.9178373964
20
121.9851229619
30
0.0000000000
10
155.1776631381
20
120.1145476231
30
0.0000000000
10
154.8758225764
20
118.7890555590
30
0.0000000000
10
154.7730117902
20
118.1126049768
30
0.0000000000
11
163.7366838544
21
127.6278549639
31
0.0000000000
11
162.8965775820
21
127.5258604145
31
0.0000000000
11
161.2171775786
21
127.0491750454
31
0.0000000000
11
159.6397021438
21
126.2263451557
31
0.0000000000
11
158.2120820704
21
125.0823720152
31
0.0000000000
11
156.9776948720
21
123.6520146690
31
0.0000000000
11
155.9740467790
21
121.9787338012
31
0.0000000000
11
155.2316331307
21
120.1133712043
31
0.0000000000
11
154.7730117902
21
118.1126049768
31
0.0000000000
0
ENDSEC
0
SECTION
2
OBJECTS
0
DICTIONARY
5
3ED
100
AcDbDictionary
3
ACAD_GROUP
350
3EE
3
ACAD_MLINESTYLE
350
3EF
0
DICTIONARY
5
3EE
102
{ACAD_REACTORS
330
3ED
102
}
100
AcDbDictionary
0
DICTIONARY
5
3EF
102
{ACAD_REACTORS
330
3ED
102
}
100
AcDbDictionary
3
STANDARD
350
3F0
0
MLINESTYLE
5
3F0
102
{ACAD_REACTORS
330
3EF
102
}
100
AcDbMlineStyle
2
STANDARD
70
0
3

62
256
51
90.0
52
90.0
71
2
49
0.5
62
256
6
BYLAYER
49
-0.5
62
256
6
BYLAYER
0
ENDSEC
0
EOF
